osu file format v14

[General]
AudioFilename: audio.mp3
AudioLeadIn: 0
PreviewTime: -1
Countdown: 0
SampleSet: Soft
StackLeniency: 0.7
Mode: 0
LetterboxInBreaks: 0
WidescreenStoryboard: 0

[Editor]
Bookmarks: 16068,26794,37520,58973,69699,80425
DistanceSpacing: 2.1
BeatDivisor: 4
GridSize: 32
TimelineZoom: 2.8

[Metadata]
Title:Speed and Friction TV Edit
TitleUnicode:Speed and Friction TV Edit
Artist:amazarashi
ArtistUnicode:amazarashi
Creator:Shademphrik
Version:Insane
Source:乱歩奇譚 Game of Laplace
Tags:
BeatmapID:1911736
BeatmapSetID:915361

[Difficulty]
HPDrainRate:5.8
CircleSize:4
OverallDifficulty:8.2
ApproachRate:9.1
SliderMultiplier:1.5
SliderTickRate:1

[Events]
//Background and Video events
0,0,"1000_waifu2x_art_noise3_scale_tta_1.jpg",0,0
//Break Periods
//Storyboard Layer 0 (Background)
//Storyboard Layer 1 (Fail)
//Storyboard Layer 2 (Pass)
//Storyboard Layer 3 (Foreground)
//Storyboard Sound Samples

[TimingPoints]
-21,335.195530726257,4,2,1,50,1,0
2492,-100,4,2,1,50,0,0
3330,-166.666666666667,4,2,1,50,0,0
4001,-100,4,2,1,50,0,0
5006,-66.6666666666667,4,2,1,50,0,0
6012,-100,4,2,1,50,0,0
6347,-66.6666666666667,4,2,1,50,0,0
7353,-100,4,2,1,50,0,0
8526,-125,4,2,1,50,0,0
10705,-90.9090909090909,4,2,1,50,0,0
11375,-45.4545454545455,4,2,1,50,0,0
11710,-90.9090909090909,4,2,1,50,0,0
12716,-90.9090909090909,4,2,1,50,0,0
13386,-125,4,2,1,50,0,0
14727,-90.9090909090909,4,2,1,50,0,0
15397,-45.4545454545455,4,2,1,50,0,0
15733,-90.9090909090909,4,2,1,50,0,0
16068,-125,4,2,1,50,0,0
21431,-90.9090909090909,4,2,1,50,0,0
22269,-125,4,2,1,50,0,0
22772,-90.9090909090909,4,2,1,50,0,0
23610,-125,4,2,1,50,0,0
24113,-90.9090909090909,4,2,1,50,0,0
25286,-125,4,2,1,50,0,0
25453,-90.9090909090909,4,2,1,50,0,0
26627,-125,4,2,1,50,0,0
26794,-200,4,2,1,50,0,0
36180,-133.333333333333,4,2,1,50,0,0
37018,-200,4,2,1,50,0,0
37520,-90.9090909090909,4,2,1,50,0,1
39532,-71.4285714285714,4,2,1,50,0,1
39867,-100,4,2,1,50,0,1
40202,-71.4285714285714,4,2,1,50,0,1
40537,-90.9090909090909,4,2,1,50,0,1
42884,-71.4285714285714,4,2,1,50,0,1
43219,-90.9090909090909,4,2,1,50,0,1
45565,-71.4285714285714,4,2,1,50,0,1
45900,-90.9090909090909,4,2,1,50,0,1
48247,-71.4285714285714,4,2,1,50,0,1
48582,-90.9090909090909,4,2,1,50,0,1
50928,-71.4285714285714,4,2,1,50,0,1
51263,-90.9090909090909,4,2,1,50,0,1
53610,-71.4285714285714,4,2,1,50,0,1
53945,-90.9090909090909,4,2,1,50,0,1
56291,-71.4285714285714,4,2,1,50,0,1
56794,-90.9090909090909,4,2,1,50,0,0
58973,-200,4,2,1,50,0,0
67018,-105.263157894737,4,2,1,50,0,0
68861,-200,4,2,1,50,0,0
69029,-71.4285714285714,4,2,1,50,0,0
70537,-90.9090909090909,4,2,1,50,0,1
77576,-83.3333333333333,4,2,1,50,0,1
78079,-90.9090909090909,4,2,1,50,0,1
80425,-125,4,2,1,30,0,0

[Colours]
Combo1 : 192,192,192
Combo2 : 128,0,0

[HitObjects]
34,192,2492,5,0,2:2:0:0:
34,192,2576,1,0,2:2:0:0:
34,192,2660,2,0,B|42:180|42:180|49:120,1,75,0|0,2:2|2:2,2:2:0:0:
123,0,2995,2,0,P|119:37|121:74,1,75,2|0,2:2|2:2,2:2:0:0:
170,155,3330,2,0,L|125:148,2,44.999998626709,0|0|2,2:2|2:2|2:2,2:2:0:0:
200,83,3833,1,0,2:2:0:0:
316,35,4001,6,0,B|274:71|274:109|279:121|279:121|290:120|301:116,1,112.5,0|0,2:2|2:2,2:2:0:0:
369,113,4336,1,2,2:2:0:0:
170,155,4504,6,0,B|211:191|211:229|206:241|206:241|195:240|184:236,1,112.5,0|0,2:2|2:2,2:2:0:0:
117,233,4839,1,2,2:2:0:0:
296,339,5006,6,0,B|283:341|283:341|278:328|277:291|319:254,1,112.500004291535,0|0,2:2|2:2,2:2:0:0:
415,241,5342,5,0,2:2:0:0:
498,277,5509,1,0,2:2:0:0:
386,311,5677,1,2,2:2:0:0:
498,285,5844,1,0,2:2:0:0:
417,234,6012,6,0,P|420:196|418:159,1,75,0|0,2:2|2:2,2:2:0:0:
491,36,6347,2,0,P|473:69|403:67,1,112.500004291535,2|0,2:2|2:2,2:2:0:0:
252,0,6682,5,0,2:2:0:0:
316,61,6849,1,0,2:2:0:0:
199,55,7017,1,2,2:2:0:0:
314,68,7184,1,0,2:2:0:0:
132,134,7353,6,0,P|81:138|59:129,1,75,0|0,2:2|2:2,2:2:0:0:
15,52,7604,1,2,2:2:0:0:
15,52,7688,1,2,2:2:0:0:
209,151,7856,1,0,2:2:0:0:
138,221,8023,6,0,B|162:220|162:220|210:241,1,75,0|0,2:2|2:2,2:2:0:0:
258,384,8358,1,2,2:2:0:0:
324,292,8526,2,0,L|398:297,1,60,0|0,2:2|2:2,2:2:0:0:
469,362,8861,2,0,L|409:366,1,60,0|2,2:2|2:2,2:2:0:0:
324,292,9196,1,0,2:2:0:0:
470,267,9364,5,0,2:2:0:0:
395,217,9531,1,0,2:2:0:0:
512,203,9699,1,2,2:2:0:0:
396,210,9866,1,0,2:2:0:0:
308,131,10034,6,0,P|305:100|313:47,1,60,0|0,2:2|2:2,2:2:0:0:
366,0,10286,1,2,2:2:0:0:
366,0,10370,1,2,2:2:0:0:
225,32,10537,5,0,2:2:0:0:
225,32,10621,1,0,2:2:0:0:
225,32,10705,2,0,B|192:31|162:40|162:40|177:25|188:17,1,82.5000025177003,0|0,2:2|2:2,2:2:0:0:
49,123,11040,2,0,B|48:120|48:141|48:141|63:114|87:91,1,82.5000025177003,2|0,2:2|2:2,2:2:0:0:
228,51,11375,6,0,B|197:64|174:84|174:84|181:64|188:53,1,82.5000025177003,0|0,2:2|2:2,2:2:0:0:
106,207,11543,2,0,B|104:204|113:224|113:224|115:192|127:162,1,82.5000025177003,0|0,2:2|2:2,2:2:0:0:
250,160,11710,6,0,B|233:146|211:157|211:157|211:188|239:192,1,82.5000025177003,2|0,2:2|2:2,2:2:0:0:
188,277,12046,5,0,2:2:0:0:
113,327,12213,1,0,2:2:0:0:
230,341,12381,1,2,2:2:0:0:
114,334,12548,1,0,2:2:0:0:
311,368,12716,6,0,B|336:375|336:375|418:356,1,82.5000025177003,0|0,2:2|2:2,2:2:0:0:
484,318,12967,1,2,2:2:0:0:
484,318,13051,1,0,2:2:0:0:
331,299,13219,1,0,2:2:0:0:
410,242,13386,6,0,P|407:202|400:159,1,60,0|0,2:2|2:2,2:2:0:0:
496,95,13722,2,2,P|491:124|486:154,1,60,2|2,2:2|2:2,2:2:0:0:
402,90,14057,5,0,2:2:0:0:
327,40,14224,1,0,2:2:0:0:
444,26,14392,1,0,2:2:0:0:
328,33,14559,1,0,2:2:0:0:
275,170,14727,6,0,B|278:171|282:182|282:182|288:152|320:128,1,82.5000025177003,0|0,2:2|2:2,2:2:0:0:
190,180,15062,2,0,B|193:179|201:187|201:187|194:158|213:120,1,82.5000025177003,2|0,2:2|2:2,2:2:0:0:
63,279,15397,2,0,B|61:281|66:292|66:292|41:275|0:281,1,82.5000025177003,0|0,2:2|2:2,2:2:0:0:
129,225,15565,2,0,B|127:226|127:238|127:238|111:212|71:199,1,82.5000025177003,0|0,2:2|2:2,2:2:0:0:
208,300,15733,6,0,B|191:294|200:264|200:264|224:260|236:278,1,82.5000025177003,2|0,2:2|2:2,2:2:0:0:
282,352,15984,1,2,2:2:0:0:
282,352,16068,5,0,2:2:0:0:
282,352,16235,2,0,B|306:349|306:349|348:358,1,60,0|2,2:2|2:2,2:2:0:0:
455,384,16571,1,2,2:2:0:0:
455,384,16654,1,2,2:2:0:0:
455,384,16738,1,2,2:2:0:0:
380,279,16906,1,0,2:2:0:0:
310,259,17073,1,0,2:2:0:0:
242,284,17241,1,2,2:2:0:0:
447,235,17409,6,0,P|474:221|504:200,1,60,0|0,2:2|2:2,2:2:0:0:
380,279,17744,1,0,2:2:0:0:
512,127,17911,1,2,2:2:0:0:
512,127,17995,1,2,2:2:0:0:
512,127,18079,1,2,2:2:0:0:
371,80,18247,5,2,2:2:0:0:
443,79,18415,1,2,2:2:0:0:
502,37,18582,1,2,2:2:0:0:
316,137,18749,6,0,P|293:158|274:180,1,60,0|0,2:2|2:2,2:2:0:0:
211,280,19085,1,2,2:2:0:0:
38,266,19252,6,0,P|67:264|97:266,1,60,0|0,2:2|2:2,2:2:0:0:
213,300,19588,1,0,2:2:0:0:
145,324,19756,1,2,2:2:0:0:
92,372,19923,1,0,2:2:0:0:
288,329,20090,6,0,P|318:326|347:329,1,60,0|0,2:2|2:2,2:2:0:0:
213,300,20425,1,2,2:2:0:0:
416,380,20593,1,2,2:2:0:0:
416,380,20677,1,2,2:2:0:0:
416,380,20761,1,2,2:2:0:0:
512,261,20929,5,0,2:2:0:0:
411,273,21096,1,0,2:2:0:0:
327,214,21263,2,0,P|310:206|299:196,1,30,2|2,2:2|2:2,2:2:0:0:
421,167,21431,2,0,B|444:159|444:159|501:165,1,82.5000025177003,0|0,2:2|2:2,2:2:0:0:
343,126,21766,1,0,2:2:0:0:
196,203,21934,1,2,2:2:0:0:
196,203,22018,1,2,2:2:0:0:
196,203,22101,1,2,2:2:0:0:
0,140,22269,5,0,2:2:0:0:
101,152,22437,1,0,2:2:0:0:
185,93,22604,2,2,P|202:85|213:75,1,30,2|2,2:2|2:2,2:2:0:0:
91,46,22772,2,0,B|68:38|68:38|11:44,1,82.5000025177003,0|0,2:2|2:2,2:2:0:0:
169,5,23107,1,0,2:2:0:0:
316,82,23275,1,2,2:2:0:0:
316,82,23359,1,2,2:2:0:0:
316,82,23442,1,2,2:2:0:0:
512,64,23610,5,0,2:2:0:0:
418,83,23777,1,0,2:2:0:0:
355,156,23945,2,2,P|344:171|339:185,1,30,2|2,2:2|2:2,2:2:0:0:
283,265,24113,2,0,B|306:257|306:257|363:263,1,82.5000025177003,0|0,2:2|2:2,2:2:0:0:
497,291,24448,1,0,2:2:0:0:
256,188,24615,1,2,2:2:0:0:
256,188,24699,1,2,2:2:0:0:
256,188,24783,1,2,2:2:0:0:
50,157,24951,5,0,2:2:0:0:
144,176,25118,1,0,2:2:0:0:
207,249,25286,2,2,P|217:264|222:278,1,30,2|2,2:2|2:2,2:2:0:0:
279,358,25454,2,0,B|256:350|256:350|199:356,1,82.5000025177003,0|0,2:2|2:2,2:2:0:0:
65,384,25789,1,0,2:2:0:0:
306,281,25956,1,2,2:2:0:0:
306,281,26040,1,2,2:2:0:0:
306,281,26124,1,2,2:2:0:0:
377,321,26291,5,0,2:2:0:0:
377,321,26375,1,0,2:2:0:0:
377,321,26459,1,0,2:2:0:0:
448,361,26627,6,2,L|491:365,1,30,2|2,2:2|2:2,2:2:0:0:
511,287,26794,6,0,P|478:285|443:260,1,75,0|0,2:2|2:2,2:2:0:0:
400,183,27297,2,0,P|436:180|466:157,1,75,0|0,2:2|2:2,2:2:0:0:
499,85,27800,1,0,2:2:0:0:
481,79,27967,1,0,2:2:0:0:
398,44,28135,5,0,2:2:0:0:
380,52,28303,1,0,2:2:0:0:
363,60,28470,1,0,2:2:0:0:
346,69,28638,1,0,2:2:0:0:
280,119,28805,2,2,P|242:122|204:112,1,75,2|0,2:2|2:2,2:2:0:0:
144,57,29308,1,0,2:2:0:0:
144,57,29476,5,0,2:2:0:0:
62,63,29643,1,0,2:2:0:0:
7,125,29811,1,0,2:2:0:0:
13,207,29979,1,2,2:2:0:0:
13,207,30062,1,2,2:2:0:0:
13,207,30146,1,2,2:2:0:0:
138,253,30314,1,0,2:2:0:0:
138,253,30481,6,0,P|101:260|71:283,2,75,0|0|0,2:2|2:2|2:2,2:2:0:0:
230,224,31319,1,0,2:2:0:0:
248,228,31487,1,0,2:2:0:0:
321,275,31654,2,0,P|361:281|402:275,1,75,0|0,2:2|2:2,2:2:0:0:
416,269,32073,1,2,2:2:0:0:
416,269,32157,5,2,2:2:0:0:
474,210,32325,1,0,2:2:0:0:
456,129,32492,1,0,2:2:0:0:
381,92,32660,1,0,2:2:0:0:
457,0,32828,2,0,L|450:36,1,37.5,4|0,2:2|2:2,2:2:0:0:
381,92,33163,2,0,P|343:92|306:74,1,75,0|0,2:2|2:2,2:2:0:0:
240,22,33833,6,0,P|238:43|233:58,1,37.5,0|0,2:2|2:2,2:2:0:0:
91,14,34168,2,8,B|117:12|117:12|167:22,1,75,12|0,2:2|2:2,2:2:0:0:
232,58,34671,1,0,2:2:0:0:
232,58,34755,1,0,2:2:0:0:
232,58,34839,5,0,2:2:0:0:
162,101,35006,1,0,2:2:0:0:
79,93,35174,1,0,2:2:0:0:
16,38,35342,1,0,2:2:0:0:
50,207,35509,2,0,L|43:171,1,37.5,12|0,2:2|2:2,2:2:0:0:
136,244,35844,1,0,2:2:0:0:
0,285,36012,1,0,2:2:0:0:
179,304,36180,6,0,B|198:298|198:298|236:306,1,56.2500021457673,0|0,2:2|2:2,2:2:0:0:
327,377,36515,1,0,2:2:0:0:
454,323,36682,5,10,2:2:0:0:
379,306,36766,1,10,2:2:0:0:
337,242,36850,1,10,2:2:0:0:
444,213,37018,5,0,2:2:0:0:
434,228,37185,1,0,2:2:0:0:
424,244,37353,1,0,2:2:0:0:
512,110,37520,5,8,2:2:0:0:
502,125,37688,1,0,2:2:0:0:
448,33,37856,5,8,2:2:0:0:
283,20,38024,1,0,2:2:0:0:
128,76,38191,1,8,2:2:0:0:
284,31,38358,5,0,2:2:0:0:
277,154,38526,1,0,2:2:0:0:
231,269,38694,1,8,2:2:0:0:
357,61,38861,5,0,2:2:0:0:
318,177,39029,1,0,2:2:0:0:
244,277,39197,1,8,2:2:0:0:
420,106,39364,5,0,2:2:0:0:
246,287,39532,2,0,B|224:308|224:308|150:321,1,104.999996795654,8|0,2:2|2:2,2:2:0:0:
0,295,39867,1,8,2:2:0:0:
188,236,40034,2,8,P|180:205|166:184,1,37.5,8|8,2:2|2:2,2:2:0:0:
85,144,40202,6,0,B|221:118|221:118|239:86,1,157.499995193482,2|0,2:2|2:2,2:2:0:0:
255,27,40537,1,8,2:2:0:0:
403,32,40705,1,2,2:2:0:0:
512,131,40872,1,8,2:2:0:0:
401,40,41040,5,2,2:2:0:0:
347,152,41208,1,0,2:2:0:0:
344,275,41375,1,8,2:2:0:0:
392,35,41543,5,2,2:2:0:0:
295,113,41711,1,0,2:2:0:0:
241,223,41878,1,8,2:2:0:0:
282,105,42046,6,2,L|246:84,1,41.2500012588501,2|2,2:2|2:2,2:2:0:0:
147,5,42213,1,0,2:2:0:0:
6,53,42381,1,2,2:2:0:0:
149,14,42548,5,0,2:2:0:0:
121,166,42716,2,8,P|114:198|112:219,1,41.2500012588501,8|8,2:2|2:2,2:2:0:0:
190,287,42884,2,0,B|163:273|163:273|32:297,1,157.499995193482,2|0,2:2|2:2,2:2:0:0:
147,355,43219,5,8,2:2:0:0:
293,337,43386,1,2,2:2:0:0:
402,236,43554,1,8,2:2:0:0:
270,97,43722,5,2,2:2:0:0:
236,217,43890,1,0,2:2:0:0:
288,329,44057,1,8,2:2:0:0:
264,89,44224,5,2,2:2:0:0:
155,150,44392,1,0,2:2:0:0:
113,266,44559,1,8,2:2:0:0:
264,79,44727,5,2,2:2:0:0:
144,45,44895,1,0,2:2:0:0:
33,98,45062,1,8,2:2:0:0:
263,68,45230,5,2,2:2:0:0:
331,17,45397,2,8,L|371:24,1,41.2500012588501,8|8,2:2|2:2,2:2:0:0:
504,9,45565,6,0,B|460:37|472:97|472:97|470:135|439:160,1,157.499995193482,2|0,2:2|2:2,2:2:0:0:
373,199,45900,1,8,2:2:0:0:
240,284,46068,1,0,2:2:0:0:
94,255,46235,1,8,2:2:0:0:
186,58,46403,5,2,2:2:0:0:
237,171,46570,1,0,2:2:0:0:
241,295,46738,1,8,2:2:0:0:
320,367,46906,5,2,2:2:0:0:
324,243,47074,1,0,2:2:0:0:
375,130,47241,1,2,2:2:0:0:
445,54,47409,5,10,2:2:0:0:
445,54,47492,1,10,2:2:0:0:
445,54,47576,1,10,2:2:0:0:
449,178,47744,1,0,2:2:0:0:
500,291,47911,2,0,P|513:319|524:335,1,41.2500012588501,2|0,2:2|2:2,2:2:0:0:
420,363,48079,6,8,P|402:373|383:381,1,41.2500012588501,8|8,2:2|2:2,2:2:0:0:
246,346,48247,2,0,B|284:302|332:305|361:310|361:310|347:295|347:282,1,157.499995193482,2|0,2:2|2:2,2:2:0:0:
285,218,48582,5,8,2:2:0:0:
141,253,48749,1,2,2:2:0:0:
41,363,48917,1,8,2:2:0:0:
135,243,49085,5,2,2:2:0:0:
136,119,49252,1,0,2:2:0:0:
42,37,49420,1,8,2:2:0:0:
218,179,49587,5,0,2:2:0:0:
166,66,49754,1,0,2:2:0:0:
47,31,49922,1,8,2:2:0:0:
270,86,50090,5,2,2:2:0:0:
175,5,50257,1,0,2:2:0:0:
52,24,50425,1,8,2:2:0:0:
312,0,50593,5,0,2:2:0:0:
385,36,50761,2,8,L|426:41,1,41.2500012588501,8|8,2:2|2:2,2:2:0:0:
512,140,50928,2,0,B|488:109|440:122|440:122|397:152|364:143,1,157.499995193482,2|0,2:2|2:2,2:2:0:0:
262,109,51263,1,8,2:2:0:0:
138,192,51431,1,2,2:2:0:0:
116,339,51599,1,8,2:2:0:0:
352,310,51766,5,2,2:2:0:0:
272,217,51933,1,0,2:2:0:0:
150,197,52101,1,8,2:2:0:0:
381,204,52269,5,2,2:2:0:0:
269,153,52436,1,0,2:2:0:0:
150,186,52604,1,8,2:2:0:0:
363,93,52772,5,2,2:2:0:0:
239,94,52939,1,0,2:2:0:0:
146,174,53107,1,8,2:2:0:0:
303,1,53275,5,2,2:2:0:0:
133,161,53442,2,8,P|112:158|92:153,1,41.2500012588501,8|8,2:2|2:2,2:2:0:0:
30,19,53610,2,0,B|77:38|67:81|67:81|23:101|15:154,1,157.499995193482,2|0,2:2|2:2,2:2:0:0:
92,153,53945,5,8,2:2:0:0:
240,154,54113,1,2,2:2:0:0:
352,250,54280,1,8,2:2:0:0:
131,368,54448,5,2,2:2:0:0:
142,245,54616,1,0,2:2:0:0:
236,165,54783,1,8,2:2:0:0:
7,188,54951,5,0,2:2:0:0:
119,136,55119,1,0,2:2:0:0:
235,177,55286,1,8,2:2:0:0:
112,0,55453,5,0,2:2:0:0:
213,70,55621,1,0,2:2:0:0:
235,191,55788,1,8,2:2:0:0:
456,54,55956,5,0,2:2:0:0:
286,121,56124,2,8,P|314:123|332:132,1,41.2500012588501,8|8,2:2|2:2,2:2:0:0:
396,260,56291,2,0,B|365:236|378:188|378:188|408:145|399:112,1,157.499995193482,0|0,2:2|2:2,2:2:0:0:
344,51,56627,5,8,2:2:0:0:
166,16,56794,1,0,2:2:0:0:
12,113,56962,1,8,2:2:0:0:
164,0,57129,5,0,2:2:0:0:
175,156,57297,2,0,P|174:179|169:208,1,41.2500012588501,0|0,2:2|2:2,2:2:0:0:
138,344,57465,1,0,2:2:0:0:
104,278,57632,5,2,2:2:0:0:
135,267,57800,5,2,2:2:0:0:
166,270,57967,5,2,2:2:0:0:
193,289,58135,5,2,2:2:0:0:
258,370,58303,5,8,2:2:0:0:
339,384,58471,1,8,2:2:0:0:
414,352,58638,1,8,2:2:0:0:
452,278,58806,1,8,2:2:0:0:
349,217,58973,6,0,P|360:231|366:249,1,37.5,2|0,2:2|2:2,2:2:0:0:
292,271,59308,1,0,2:2:0:0:
288,260,59476,1,0,2:2:0:0:
352,139,59643,6,0,P|370:141|387:149,1,37.5,2|0,2:2|2:2,2:2:0:0:
349,217,59978,1,0,2:2:0:0:
339,212,60146,1,0,2:2:0:0:
299,82,60314,6,0,P|313:70|331:64,1,37.5,2|2,2:2|2:2,2:2:0:0:
352,139,60649,1,0,2:2:0:0:
341,142,60817,1,0,2:2:0:0:
222,80,60984,6,0,P|224:61|232:44,1,37.5,2|0,2:2|2:2,2:2:0:0:
299,82,61319,1,0,2:2:0:0:
294,92,61487,1,0,2:2:0:0:
196,227,61654,6,0,P|182:213|174:197,1,37.5,2|0,2:2|2:2,2:2:0:0:
237,159,61989,1,0,2:2:0:0:
244,167,62157,1,0,2:2:0:0:
94,201,62324,6,0,P|93:182|99:164,1,37.5,2|0,2:2|2:2,2:2:0:0:
172,185,62659,1,0,2:2:0:0:
172,196,62827,1,0,2:2:0:0:
40,115,62995,6,0,P|53:101|69:93,1,37.5,0|0,2:2|2:2,2:2:0:0:
108,157,63330,1,0,2:2:0:0:
99,165,63498,1,0,2:2:0:0:
63,15,63666,6,0,P|82:14|99:19,1,37.5,2|2,2:2|2:2,2:2:0:0:
81,92,64001,1,0,2:2:0:0:
69,92,64169,1,0,2:2:0:0:
260,5,64336,5,2,2:2:0:0:
334,5,64504,1,2,2:2:0:0:
396,52,64671,1,2,2:2:0:0:
399,62,64839,1,0,2:2:0:0:
460,130,65006,5,2,2:2:0:0:
382,135,65174,1,2,2:2:0:0:
320,182,65341,1,2,2:2:0:0:
317,192,65509,1,0,2:2:0:0:
165,217,65677,5,2,2:2:0:0:
243,222,65845,1,2,2:2:0:0:
305,269,66012,1,2,2:2:0:0:
308,279,66180,1,0,2:2:0:0:
401,292,66347,6,0,P|391:292|382:295,1,18.75,8|8,2:2|2:2,2:2:0:0:
334,358,66515,1,0,2:2:0:0:
256,345,66682,1,0,2:2:0:0:
182,373,66850,2,0,P|172:373|163:371,1,18.75,0|0,2:2|2:2,2:2:0:0:
23,351,67018,6,0,B|53:362|92:344|92:344|106:307|141:296,1,142.49999619484,2|0,2:2|2:2,2:2:0:0:
142,296,67520,5,0,2:2:0:0:
256,345,67688,1,8,2:2:0:0:
262,332,67856,5,0,2:2:0:0:
263,257,68023,1,0,2:2:0:0:
223,191,68191,1,0,2:2:0:0:
173,111,68358,5,0,2:2:0:0:
192,18,68526,1,0,2:2:0:0:
296,0,68694,1,0,2:2:0:0:
379,55,68861,6,0,P|388:68|400:77,1,18.75,8|8,2:2|2:2,2:2:0:0:
487,130,69029,2,0,B|479:108|450:115|450:115|421:148|386:141,1,104.999996795654,2|0,2:2|2:2,2:2:0:0:
220,94,69364,1,2,2:2:0:0:
261,96,69448,1,2,2:2:0:0:
293,122,69532,1,2,2:2:0:0:
308,160,69615,1,2,2:2:0:0:
302,202,69699,5,2,2:2:0:0:
168,261,69867,1,0,2:2:0:0:
400,308,70034,1,8,2:2:0:0:
400,308,70202,5,0,2:2:0:0:
109,384,70370,1,8,2:2:0:0:
43,340,70537,1,2,2:2:0:0:
168,261,70705,2,0,P|172:219|172:178,1,82.5000025177003,2|8,2:2|2:2,2:2:0:0:
128,89,71040,1,0,2:2:0:0:
263,26,71208,1,0,2:2:0:0:
408,54,71376,1,10,2:2:0:0:
436,58,71459,1,2,2:2:0:0:
463,68,71543,1,2,2:2:0:0:
486,85,71627,1,2,2:2:0:0:
506,106,71710,6,2,P|512:138|510:166,1,41.2500012588501,10|0,2:2|2:2,2:2:0:0:
508,246,71878,2,0,P|502:265|493:284,1,41.2500012588501,0|0,2:2|2:2,2:2:0:0:
385,375,72046,2,0,P|402:364|418:350,1,41.2500012588501,0|0,2:2|2:2,2:2:0:0:
428,237,72213,1,2,2:2:0:0:
286,352,72381,5,8,2:2:0:0:
138,343,72548,1,0,2:2:0:0:
34,235,72716,2,0,P|23:186|16:131,1,82.5000025177003,8|0,2:2|2:2,2:2:0:0:
40,64,72967,1,2,2:2:0:0:
61,52,73051,5,8,2:2:0:0:
236,0,73219,1,2,2:2:0:0:
216,100,73386,1,0,2:2:0:0:
324,29,73554,2,2,P|344:24|372:20,1,41.2500012588501,2|2,2:2|2:2,2:2:0:0:
484,37,73722,5,8,2:2:0:0:
360,101,73889,1,0,2:2:0:0:
289,222,74057,1,8,2:2:0:0:
273,255,74140,1,8,2:2:0:0:
267,292,74224,1,8,2:2:0:0:
271,329,74308,1,8,2:2:0:0:
284,362,74392,6,0,P|304:359|324:355,1,41.2500012588501,0|0,2:2|2:2,2:2:0:0:
396,304,74560,2,0,P|407:288|419:270,1,41.2500012588501,0|0,2:2|2:2,2:2:0:0:
446,187,74727,2,0,P|442:167|438:147,1,41.2500012588501,0|0,2:2|2:2,2:2:0:0:
477,24,74895,2,0,P|473:44|471:64,1,41.2500012588501,0|0,2:2|2:2,2:2:0:0:
501,250,75062,5,8,2:2:0:0:
362,145,75230,1,2,2:2:0:0:
190,161,75397,1,8,2:2:0:0:
377,238,75565,2,0,P|395:248|409:263,1,41.2500012588501,8|0,2:2|2:2,2:2:0:0:
303,290,75733,1,2,2:2:0:0:
292,250,75816,1,2,2:2:0:0:
299,210,75900,1,2,2:2:0:0:
322,176,75984,1,2,2:2:0:0:
358,156,76068,1,2,2:2:0:0:
439,88,76235,5,0,2:2:0:0:
230,39,76403,2,0,B|258:45|258:45|310:34,1,82.5000025177003,8|0,2:2|2:2,2:2:0:0:
151,11,76738,2,0,P|145:51|136:91,1,82.5000025177003,8|0,2:2|2:2,2:2:0:0:
70,161,76990,1,8,2:2:0:0:
64,185,77073,5,8,2:2:0:0:
135,306,77241,1,0,2:2:0:0:
271,339,77409,2,0,P|291:335|310:329,1,41.2500012588501,8|0,2:2|2:2,2:2:0:0:
422,306,77576,6,0,B|419:329|390:342|390:342|387:292|364:249|290:253,1,179.999994506836,2|0,2:2|2:2,2:2:0:0:
135,305,78079,5,8,2:2:0:0:
252,213,78247,1,0,2:2:0:0:
277,67,78414,1,8,2:2:0:0:
49,74,78582,5,0,2:2:0:0:
119,177,78750,1,0,2:2:0:0:
239,207,78917,1,8,2:2:0:0:
429,74,79085,5,0,2:2:0:0:
359,177,79253,1,0,2:2:0:0:
239,207,79420,1,8,2:2:0:0:
0,189,79587,1,2,2:2:0:0:
512,192,79755,1,2,2:2:0:0:
512,192,80090,5,8,2:2:0:0:
0,189,80258,1,8,2:2:0:0:
72,135,80425,6,0,L|89:216,1,60,0|0,2:2|2:2,2:2:0:0:
179,71,80761,2,0,L|161:152,1,60,0|0,2:2|2:2,2:2:0:0:
268,22,81096,2,0,L|285:103,1,60,0|0,2:2|2:2,2:2:0:0:
314,200,81431,1,8,2:2:0:0:
471,120,81599,2,0,B|441:108|441:108|353:121,1,120,2|0,2:2|2:2,2:2:0:0:
255,212,82101,6,0,L|313:199,1,60,0|0,2:2|2:2,2:2:0:0:
186,286,82437,2,0,L|244:298,1,60,0|8,2:2|2:2,2:2:0:0:
100,303,82772,1,0,2:2:0:0:
61,228,82939,1,0,2:2:0:0:
154,156,83107,6,0,L|141:214,1,60,2|0,2:2|2:2,2:2:0:0:
238,83,83442,2,0,L|255:164,1,60,0|0,2:2|2:2,2:2:0:0:
358,0,83777,2,0,L|340:81,1,60,0|0,2:2|2:2,2:2:0:0:
250,141,84113,1,8,2:2:0:0:
363,132,84280,2,0,B|392:120|392:120|480:133,1,120,2|0,2:2|2:2,2:2:0:0:
358,0,84783,6,0,L|345:58,1,60,0|0,2:2|2:2,2:2:0:0:
238,83,85118,2,0,L|250:141,1,60,0|8,2:2|2:2,2:2:0:0:
154,156,85453,2,0,L|141:214,1,60,8|0,2:2|2:2,2:2:0:0:
65,268,85789,5,0,2:2:0:0:
60,250,85956,1,0,2:2:0:0:
54,233,86124,1,8,2:2:0:0:
134,331,86291,5,0,2:2:0:0:
139,313,86458,1,0,2:2:0:0:
145,296,86626,1,0,2:2:0:0:
227,360,86794,5,8,2:2:0:0:
222,342,86961,1,0,2:2:0:0:
287,275,87129,5,0,2:2:0:0:
293,292,87297,1,0,2:2:0:0:
298,310,87464,1,0,2:2:0:0:
340,214,87632,5,0,2:2:0:0:
348,217,87800,1,0,2:2:0:0:
356,222,87967,1,0,2:2:0:0:
320,138,88135,5,0,2:2:0:0:
324,136,88303,1,0,2:2:0:0:
