osu file format v14

[General]
AudioFilename: audio.mp3
AudioLeadIn: 0
PreviewTime: 57038
Countdown: 1
SampleSet: Soft
StackLeniency: 0.7
Mode: 0
LetterboxInBreaks: 0
WidescreenStoryboard: 1

[Editor]
DistanceSpacing: 0.6
BeatDivisor: 4
GridSize: 8
TimelineZoom: 1

[Metadata]
Title:Sora ni Utaeba TV edit
TitleUnicode:Sora ni Utaeba TV edit
Artist:amazarashi
ArtistUnicode:amazarashi
Creator:gu0910
Version:Insane
Source:僕のヒーローアカデミア 第2期
Tags:
BeatmapID:1384786
BeatmapSetID:644807

[Difficulty]
HPDrainRate:4
CircleSize:4
OverallDifficulty:4
ApproachRate:9
SliderMultiplier:1
SliderTickRate:1

[Events]
//Background and Video events
0,0,"bg.png",0,0
Video,0,"todoizuku.avi"
//Break Periods
2,27900,28862
//Storyboard Layer 0 (Background)
//Storyboard Layer 1 (Fail)
//Storyboard Layer 2 (Pass)
//Storyboard Layer 3 (Foreground)
//Storyboard Sound Samples

[TimingPoints]
-388,294.117647058824,4,2,1,100,1,0
1817,-100,4,2,1,100,0,0
18214,-66.6666666666667,4,2,1,100,0,1
18288,-133.333333333333,4,2,1,100,0,1
18582,-100,4,2,1,100,0,1
20641,-133.333333333333,4,2,1,100,0,1
20935,-100,4,2,1,100,0,1
22994,-133.333333333333,4,2,1,100,0,1
23288,-100,4,2,1,100,0,1
25347,-133.333333333333,4,2,1,100,0,1
25641,-100,4,2,1,100,0,1
27626,-100,4,2,1,100,0,0
57112,-100,4,2,1,100,0,1
57847,-100,4,2,1,100,0,1
74759,-100,4,2,1,100,0,1
87847,-100,4,2,1,100,0,0

[HitObjects]
56,96,641,5,0,0:0:0:0:
144,128,788,2,0,L|256:176,1,100
64,312,1376,2,0,B|112:304|112:304|136:240,1,100
280,88,1817,6,0,P|256:144|280:232,1,150,4|0,0:0|0:0,0:0:0:0:
192,80,2847,6,0,B|144:80|144:80|104:112,2,100,0|4|0,0:0|0:0|0:0,0:0:0:0:
216,184,3729,2,0,P|240:232|288:256,1,100
304,168,4170,6,0,L|336:128,1,50,4|0,0:0|0:0,0:0:0:0:
232,104,4612,2,0,P|176:136|128:128,1,100
112,248,5200,6,0,L|144:208,2,50,0|0|4,0:0|0:0|0:0,0:0:0:0:
240,128,5788,2,0,P|272:184|312:192,1,100
168,184,6376,5,0,0:0:0:0:
168,184,6523,1,4,0:0:0:0:
264,200,6670,6,0,L|312:96,1,100
400,168,7259,2,0,L|352:272,1,100
96,120,7847,6,0,L|208:120,1,100,4|0,0:0|0:0,0:0:0:0:
320,200,8435,2,0,L|216:200,1,100
80,272,8876,6,0,L|80:200,1,50,4|0,0:0|0:0,0:0:0:0:
168,64,9317,6,0,P|216:120|248:120,1,100
312,200,9906,2,0,L|240:288,2,100,0|4|0,0:0|0:0|0:0,0:0:0:0:
128,208,10788,1,0,0:0:0:0:
160,56,10935,1,0,0:0:0:0:
224,216,11082,1,0,0:0:0:0:
88,128,11229,1,0,0:0:0:0:
216,184,11376,2,0,L|144:264,1,100,4|0,0:0|0:0,0:0:0:0:
248,88,11964,6,0,L|312:88,1,50
400,160,12259,2,0,L|328:160,1,50
160,288,12553,6,0,L|112:184,1,100,4|0,0:0|0:0,0:0:0:0:
200,88,13141,2,0,L|224:152,1,50
320,168,13435,2,0,L|296:112,1,50
184,280,13729,2,0,P|192:240|256:224,1,100,4|0,0:0|0:0,0:0:0:0:
312,112,14317,6,0,P|272:144|224:136,1,100
88,168,14906,2,0,P|104:200|48:248,1,100,4|0,0:0|0:0,0:0:0:0:
360,248,15494,2,0,P|288:264|280:304,1,100
160,184,16082,6,0,L|224:184,2,50,4|0|0,0:0|0:0|0:0,0:0:0:0:
240,80,16523,2,0,L|312:80,1,50
392,176,16817,2,0,L|320:176,1,50
128,272,17112,2,0,L|240:272,1,100
320,272,17553,1,4,0:0:0:0:
384,200,17700,1,0,0:0:0:0:
384,200,17847,2,0,L|272:200,1,100
72,120,18288,6,0,L|136:72,1,75.0000028610231,8|0,0:0|0:0,0:0:0:0:
168,168,18729,1,0,0:0:0:0:
232,96,18876,1,0,0:0:0:0:
288,176,19023,6,0,L|352:168,1,50
280,264,19317,2,0,L|208:272,1,50
120,328,19612,2,0,L|72:240,1,100
232,256,20200,6,0,L|296:224,1,50
352,112,20494,1,0,0:0:0:0:
360,120,20641,6,0,L|288:152,1,75.0000028610231,8|0,0:0|0:0,0:0:0:0:
64,208,21082,6,0,L|120:208,1,50
216,128,21376,2,0,L|152:128,1,50
248,272,21670,2,0,L|304:168,2,100
240,120,22553,6,0,P|176:192|176:208,1,100
40,208,22994,2,0,L|112:232,1,75.0000028610231,8|0,0:0|0:0,0:0:0:0:
160,104,23435,6,0,L|224:128,1,50
296,56,23729,2,0,L|248:40,1,50
280,144,24023,2,0,P|256:184|256:248,1,100
344,208,24612,6,0,B|352:184|352:184|376:184|424:144,1,100
64,152,25200,5,0,0:0:0:0:
152,200,25347,2,0,L|224:240,1,75.0000028610231,8|0,0:0|0:0,0:0:0:0:
384,152,25788,6,0,L|344:208,1,50
240,160,26082,2,0,B|272:112,1,50
152,136,26376,2,0,P|88:144|72:176,1,100
176,224,26964,2,0,B|192:248|192:248|224:248|264:272,1,100
208,120,27553,2,0,L|248:72,1,50
216,200,29612,6,0,L|288:200,1,50
80,80,30053,6,0,P|96:128|152:160,1,100,8|0,0:0|0:0,0:0:0:0:
176,80,30494,2,0,L|240:64,1,50
312,64,30788,6,0,P|328:120|304:168,1,100
216,176,31229,2,0,B|184:216|184:216|216:272,1,100
296,232,31670,2,0,L|368:304,1,100
200,232,32112,1,0,0:0:0:0:
120,304,32259,1,0,0:0:0:0:
120,304,32406,6,0,P|96:280|88:200,1,100,8|0,0:0|0:0,0:0:0:0:
168,232,32847,2,0,L|216:208,1,50,0|0,0:1|0:1,0:1:0:0:
168,72,33141,2,0,L|200:120,1,50
344,64,33582,6,0,P|312:96|312:160,1,100
216,136,34023,1,0,0:0:0:0:
384,176,34317,6,0,L|400:296,1,100
288,248,34759,2,0,P|256:272|176:280,1,100,8|0,0:0|0:0,0:0:0:0:
120,176,35200,2,0,L|96:128,1,50
200,112,35494,2,0,L|176:48,1,50
240,200,35788,5,0,0:0:0:0:
240,200,35935,1,0,0:0:0:0:
240,200,36082,2,0,L|288:304,1,100
136,176,36523,1,0,0:0:0:0:
136,176,36670,6,8,L|72:192,1,50,0|0,0:0|0:0,0:0:0:0:
192,64,36964,2,0,L|240:88,1,50,0|8,0:0|0:0,0:0:0:0:
344,72,37259,2,0,P|336:104|376:160,1,100
160,168,37847,5,0,0:0:0:0:
224,232,37994,1,0,0:0:0:0:
120,248,38141,2,0,P|96:312|112:352,2,100
208,152,39023,5,0,0:0:0:0:
232,248,39170,1,0,0:0:0:0:
320,224,39317,1,8,0:0:0:0:
296,128,39464,2,0,P|328:152|392:144,1,100,12|0,0:0|0:0,0:0:0:0:
152,144,39906,5,0,0:0:0:0:
152,144,40053,2,0,L|176:208,2,50
128,296,40494,1,0,0:0:0:0:
128,296,40641,2,0,P|152:240|160:280,1,150
256,136,41229,6,0,L|320:128,1,50
400,208,41523,2,0,L|328:224,2,50,0|0|8,0:0|0:0|0:0,0:0:0:0:
120,152,42406,6,0,P|128:184|152:208,2,50
224,160,42994,6,0,P|272:152|328:192,1,100
248,280,43435,2,0,L|264:232,1,50
200,152,43729,1,0,0:0:0:0:
144,216,43876,1,0,0:0:0:0:
96,144,44023,1,0,0:0:0:0:
40,208,44170,6,0,P|88:256|120:256,1,100,8|0,0:0|0:0,0:0:0:0:
144,336,44612,2,0,L|208:328,1,50
312,200,44906,2,0,P|240:208|200:224,1,100
136,104,45347,2,0,P|200:112|248:104,1,100
296,40,45788,5,0,0:0:0:0:
344,128,45935,1,0,0:0:0:0:
408,56,46082,2,0,B|448:104|448:104|416:128|424:208,1,150,0|8,0:0|0:0,0:0:0:0:
312,208,46670,2,0,L|216:264,1,100
200,144,47112,2,0,P|176:160|104:144,1,100
288,216,47553,5,0,0:0:0:0:
352,128,47700,1,0,0:0:0:0:
288,216,47847,1,0,0:0:0:0:
392,256,47994,1,0,0:0:0:0:
264,304,48141,1,0,0:0:0:0:
232,304,48288,1,0,0:0:0:0:
192,288,48435,1,0,0:0:0:0:
168,272,48582,1,0,0:0:0:0:
144,248,48729,2,0,P|120:208|128:152,1,100,0|8,0:0|0:0,0:0:0:0:
248,168,49170,6,0,L|312:160,1,50
80,72,49612,6,0,P|104:104|160:128,1,100
224,72,50053,2,0,L|272:112,1,50
216,192,50347,2,0,L|256:232,1,50
128,152,50788,1,0,0:0:0:0:
120,184,50935,1,0,0:0:0:0:
120,224,51082,1,0,0:0:0:0:
160,288,51229,5,8,0:0:0:0:
176,288,51303,1,0,0:0:0:0:
192,288,51376,2,0,P|240:296|296:320,1,100
328,216,51817,1,0,0:0:0:0:
328,216,51964,6,0,B|336:192|336:192|312:152|320:104,1,100
224,176,52406,5,0,0:0:0:0:
216,176,52479,1,0,0:0:0:0:
208,176,52553,2,0,B|208:136|208:136|176:96|184:72,1,100
128,144,53141,6,0,L|72:176,1,50
64,280,53435,2,0,L|152:232,2,100,0|8|0,0:0|0:0|0:0,0:0:0:0:
224,272,54170,5,0,0:0:0:0:
224,272,54317,1,0,0:0:0:0:
208,56,54612,6,0,L|240:104,1,50
328,160,54906,2,0,P|304:200|336:256,1,100
192,184,55347,5,0,0:0:0:0:
56,160,55494,1,0,0:0:0:0:
160,96,55641,5,0,0:0:0:0:
112,240,55788,1,0,0:0:0:0:
88,80,55935,1,0,0:0:0:0:
184,264,56082,5,0,0:0:0:0:
208,264,56156,1,0,0:0:0:0:
232,256,56229,1,0,0:0:0:0:
240,240,56303,1,0,0:0:0:0:
248,216,56376,2,0,L|248:176,8,25
184,72,57112,6,0,L|136:96,2,50,8|0|0,0:0|0:0|0:0,0:0:0:0:
72,184,57553,2,0,P|136:208|176:200,2,100
136,120,58288,6,0,P|160:96|280:104,1,150,4|0,0:0|0:0,0:0:0:0:
240,168,59023,2,0,L|272:224,1,50
384,216,59317,6,0,P|368:248|296:280,2,100
264,144,60053,1,0,0:0:0:0:
160,216,60200,6,0,L|128:272,2,50
224,88,60641,2,0,P|264:136|312:136,1,100,4|0,0:0|0:0,0:0:0:0:
408,128,61082,2,0,L|360:224,2,100
216,128,61817,5,0,0:0:0:0:
216,128,61964,2,0,L|256:176,1,50
168,208,62259,2,0,L|216:256,1,50
64,72,62553,1,0,0:0:0:0:
208,64,62700,1,0,0:0:0:0:
136,168,62847,1,0,0:0:0:0:
136,168,62994,2,0,P|160:200|232:208,1,100,4|0,0:0|0:0,0:0:0:0:
312,96,63435,2,0,L|312:128,2,25
240,168,63729,6,0,P|208:200|216:264,1,100
312,224,64170,1,0,0:0:0:0:
312,224,64317,2,0,L|392:144,1,100
288,72,64759,1,0,0:0:0:0:
288,72,64906,2,0,P|208:72|192:88,1,100
240,168,65347,2,0,P|208:200|136:200,1,100,4|0,0:0|0:0,0:0:0:0:
64,112,65788,6,0,L|80:168,1,50
192,296,66082,2,0,L|168:232,1,50
168,120,66376,2,0,P|232:144|272:144,1,100
376,128,66817,5,0,0:0:0:0:
408,264,66964,1,0,0:0:0:0:
288,232,67112,1,0,0:0:0:0:
288,232,67259,2,0,P|264:240|176:232,1,100
176,224,67627,1,0,0:0:0:0:
160,200,67700,1,0,0:0:0:0:
152,176,67774,1,0,0:0:0:0:
152,152,67847,1,4,0:0:0:0:
192,24,68141,6,0,L|312:24,1,100
344,104,68582,1,0,0:0:0:0:
344,104,68729,2,0,L|272:104,1,50
336,200,69023,2,0,L|392:200,1,50,4|0,0:0|0:0,0:0:0:0:
200,160,69317,6,0,P|176:200|184:264,1,100
40,168,69759,1,0,0:0:0:0:
40,168,69906,2,0,L|96:168,1,50
240,264,70200,2,0,L|176:264,1,50,4|0,0:0|0:0,0:0:0:0:
360,336,70494,6,0,L|296:336,2,50
320,232,70935,2,0,L|280:192,1,50
272,88,71229,2,0,P|208:120|160:120,1,100
96,208,71670,5,0,0:0:0:0:
200,192,71817,1,0,0:0:0:0:
216,288,71964,2,0,L|280:320,2,50
208,272,72332,1,0,0:0:0:0:
200,256,72406,1,0,0:0:0:0:
288,136,72553,6,0,P|256:176|192:168,2,100,4|0|0,0:0|0:0|0:0,0:0:0:0:
72,96,73435,2,0,P|72:168|96:200,1,100
192,160,74023,6,0,P|232:176|280:216,2,100
288,40,74759,6,0,P|312:80|360:104,1,100,8|0,0:0|0:0,0:0:0:0:
160,184,75200,2,0,L|192:144,1,50
304,176,75494,2,0,L|272:216,1,50
64,248,75788,1,0,0:0:0:0:
144,304,75935,1,0,0:0:0:0:
48,360,76082,1,0,0:0:0:0:
232,352,76229,1,0,0:0:0:0:
232,352,76376,6,0,L|192:248,1,100
296,272,76817,1,0,0:0:0:0:
168,168,76964,1,0,0:0:0:0:
168,168,77112,6,0,P|208:176|280:152,1,100,8|0,0:0|0:0,0:0:0:0:
376,216,77553,2,0,L|320:232,1,50
256,328,77847,2,0,L|320:312,1,50
168,96,78141,1,0,0:0:0:0:
136,184,78288,1,0,0:0:0:0:
240,160,78435,1,0,0:0:0:0:
272,72,78582,1,0,0:0:0:0:
272,72,78729,2,0,L|208:160,1,100
256,344,79170,1,0,0:0:0:0:
168,296,79317,1,0,0:0:0:0:
168,296,79464,6,0,P|128:256|112:200,1,100,8|0,0:0|0:0,0:0:0:0:
216,200,79906,2,0,L|280:184,1,50
296,72,80200,2,0,L|240:88,1,50
112,216,80494,2,0,L|96:152,1,50
192,112,80788,2,0,L|176:48,1,50
312,120,81082,2,0,L|336:184,1,50
240,248,81376,2,0,L|256:312,2,50
216,120,81817,6,0,P|176:160|120:168,1,100,8|0,0:0|0:0,0:0:0:0:
248,272,82259,2,0,L|232:224,1,50
344,208,82553,1,0,0:0:0:0:
312,112,82700,1,0,0:0:0:0:
136,192,82847,1,0,0:0:0:0:
240,184,82994,1,0,0:0:0:0:
240,184,83141,2,0,L|200:128,1,50
320,112,83435,2,0,L|296:64,1,50
280,264,83729,2,0,L|344:248,2,50
152,144,84170,6,0,P|136:168|64:192,1,100,8|0,0:0|0:0,0:0:0:0:
160,264,84612,2,0,L|200:312,1,50
248,232,84906,2,0,L|280:272,1,50
272,96,85200,1,0,0:0:0:0:
272,96,85347,6,0,P|224:128|168:120,1,100
72,136,85788,2,0,L|64:80,1,50
160,224,86082,2,0,L|168:288,1,50
232,128,86376,1,0,0:0:0:0:
232,128,86523,6,0,P|288:112|336:72,1,100
400,112,86964,2,0,L|400:168,1,50
304,248,87259,2,0,L|304:184,1,50
208,248,87553,5,0,0:0:0:0:
208,248,87626,1,0,0:0:0:0:
208,248,87700,1,0,0:0:0:0:
