osu file format v14

[General]
AudioFilename: audio.mp3
AudioLeadIn: 0
PreviewTime: 57038
Countdown: 1
SampleSet: Normal
StackLeniency: 0.7
Mode: 0
LetterboxInBreaks: 0
WidescreenStoryboard: 0

[Editor]
DistanceSpacing: 0.6
BeatDivisor: 4
GridSize: 8
TimelineZoom: 1

[Metadata]
Title:Sora ni Utaeba TV edit
TitleUnicode:Sora ni Utaeba TV edit
Artist:amazarashi
ArtistUnicode:amazarashi
Creator:gu0910
Version:sorani uta
Source:僕のヒーローアカデミア 第2期
Tags:
BeatmapID:1385409
BeatmapSetID:644807

[Difficulty]
HPDrainRate:6
CircleSize:4
OverallDifficulty:6
ApproachRate:9.5
SliderMultiplier:1.7
SliderTickRate:1

[Events]
//Background and Video events
0,0,"bg.png",0,0
Video,0,"todoizuku.avi"
//Break Periods
//Storyboard Layer 0 (Background)
//Storyboard Layer 1 (Fail)
//Storyboard Layer 2 (Pass)
//Storyboard Layer 3 (Foreground)
//Storyboard Sound Samples

[TimingPoints]
-388,294.117647058824,4,1,0,100,1,0
1817,-100,4,2,1,100,0,0
18214,-66.6666666666667,4,1,0,100,0,1
18288,-133.333333333333,4,1,0,100,0,1
18582,-100,4,1,0,100,0,1
20641,-133.333333333333,4,1,0,100,0,1
20935,-100,4,1,0,100,0,1
22994,-133.333333333333,4,1,0,100,0,1
23288,-100,4,1,0,100,0,1
25347,-133.333333333333,4,1,0,100,0,1
25641,-100,4,1,0,100,0,1
27626,-100,4,1,0,100,0,0
57112,-100,4,1,0,100,0,1
57847,-100,4,2,1,100,0,1
74759,-100,4,1,0,100,0,1
87847,-100,4,1,0,100,0,0

[HitObjects]
116,124,641,5,0,0:0:0:0:
116,124,788,2,0,P|116:168|140:240,1,85
208,288,1082,2,0,P|252:276|300:308,1,85
244,124,1376,6,0,L|260:36,1,85
360,84,1670,1,0,0:0:0:0:
360,84,1817,6,0,P|376:208|244:256,1,255,4|0,0:0|0:0,0:0:0:0:
304,168,2553,5,0,0:0:0:0:
72,72,2700,1,0,0:0:0:0:
72,72,2847,2,0,L|232:128,1,170,0|4,0:0|0:0,0:0:0:0:
208,316,3288,6,0,L|92:272,1,85
308,220,3582,1,0,0:0:0:0:
308,220,3729,2,0,P|356:208|416:320,1,170
136,108,4170,6,0,L|100:192,1,85,4|0,0:0|0:0,0:0:0:0:
136,108,4464,1,0,0:0:0:0:
328,284,4612,2,0,B|304:240|304:240|360:208|344:104,1,170
44,164,5200,6,0,B|80:188|80:188|132:188,1,85
192,76,5494,2,0,L|232:176,1,85,4|0,0:0|0:0,0:0:0:0:
128,308,5788,5,0,0:0:0:0:
272,272,5935,1,0,0:0:0:0:
320,184,6082,2,0,P|388:244|364:312,1,170
104,168,6523,5,4,0:0:0:0:
120,184,6597,1,0,0:0:0:0:
136,200,6670,1,0,0:0:0:0:
320,56,6817,2,0,L|264:120,2,85
144,208,7259,6,0,B|104:240|104:240|104:288,1,85
312,320,7553,2,0,B|264:304|264:304|232:336,1,85
328,72,7847,5,4,0:0:0:0:
304,184,7994,1,0,0:0:0:0:
328,72,8141,1,0,0:0:0:0:
112,144,8288,1,0,0:0:0:0:
112,144,8435,2,0,P|176:176|192:240,1,127.5
184,256,8729,1,0,0:0:0:0:
280,136,8876,5,0,0:0:0:0:
280,136,8950,1,0,0:0:0:0:
280,136,9023,2,0,L|336:216,1,85,4|0,0:0|0:0,0:0:0:0:
128,40,9317,6,0,P|112:96|56:104,1,85
240,48,9612,2,0,P|240:88|288:128,1,85
136,184,9906,2,0,P|176:176|224:192,1,85
144,80,10200,5,4,0:0:0:0:
136,328,10347,1,0,0:0:0:0:
144,80,10494,1,0,0:0:0:0:
296,240,10641,5,0,0:0:0:0:
296,240,10714,1,0,0:0:0:0:
296,240,10787,1,0,0:0:0:0:
288,112,10935,5,0,0:0:0:0:
72,240,11082,1,0,0:0:0:0:
288,112,11229,1,0,0:0:0:0:
72,240,11376,6,0,L|168:248,1,85,4|0,0:0|0:0,0:0:0:0:
168,144,11670,2,0,L|272:152,1,85
392,144,11964,6,0,P|360:176|368:232,1,85
224,320,12259,2,0,P|272:272|256:224,1,85
304,72,12553,5,4,0:0:0:0:
392,288,12700,1,0,0:0:0:0:
392,288,12847,2,0,B|360:248|360:248|376:200,1,85
224,184,13141,5,0,0:0:0:0:
440,112,13288,1,0,0:0:0:0:
224,184,13435,1,0,0:0:0:0:
440,112,13582,1,0,0:0:0:0:
184,56,13729,6,0,P|152:112|96:128,1,85,4|0,0:0|0:0,0:0:0:0:
144,320,14023,2,0,P|192:280|184:240,1,85
112,48,14317,5,0,0:0:0:0:
64,168,14464,1,0,0:0:0:0:
192,144,14612,1,0,0:0:0:0:
192,144,14759,6,0,P|128:160|104:200,1,85,0|4,0:0|0:0,0:0:0:0:
280,272,15053,2,0,P|264:312|272:368,1,85
152,40,15347,5,0,0:0:0:0:
168,312,15494,1,0,0:0:0:0:
344,176,15641,1,0,0:0:0:0:
168,312,15788,5,0,0:0:0:0:
80,64,15935,1,0,0:0:0:0:
136,232,16082,5,4,0:0:0:0:
144,232,16156,1,0,0:0:0:0:
152,232,16229,1,0,0:0:0:0:
232,176,16376,2,0,P|184:120|184:96,1,85
360,48,16670,6,0,L|288:104,1,85
312,232,16964,2,0,L|384:168,2,85,0|0|4,0:0|0:0|0:0,0:0:0:0:
80,256,17406,5,0,0:0:0:0:
208,64,17553,1,0,0:0:0:0:
400,264,17700,2,0,B|384:216|384:216|256:176|304:48,1,255
160,168,18288,6,0,P|120:200|112:288,1,127.500004863739,8|0,0:0|0:0,0:0:0:0:
416,200,18729,5,0,0:0:0:0:
200,240,18876,1,0,0:0:0:0:
416,200,19023,1,0,0:0:0:0:
200,240,19170,1,0,0:0:0:0:
240,72,19317,5,0,0:0:0:0:
288,176,19464,1,0,0:0:0:0:
416,80,19612,1,0,0:0:0:0:
72,208,19759,1,0,0:0:0:0:
72,208,19906,6,0,L|184:168,1,85
184,312,20200,5,0,0:0:0:0:
208,48,20347,1,0,0:0:0:0:
352,272,20494,1,0,0:0:0:0:
80,112,20641,2,0,B|144:128|144:128|144:176|168:200,1,127.500004863739,8|0,0:0|0:0,0:0:0:0:
400,128,21082,5,0,0:0:0:0:
224,56,21229,1,0,0:0:0:0:
400,128,21376,1,0,0:0:0:0:
224,56,21523,1,0,0:0:0:0:
392,280,21670,5,0,0:0:0:0:
272,232,21817,1,0,0:0:0:0:
312,128,21964,2,0,L|192:136,1,85
152,336,22259,5,0,0:0:0:0:
72,104,22406,1,0,0:0:0:0:
416,64,22553,1,0,0:0:0:0:
144,208,22700,1,0,0:0:0:0:
344,344,22847,1,0,0:0:0:0:
280,32,22994,6,0,B|272:80|272:80|312:112|312:152,1,127.500004863739,8|0,0:0|0:0,0:0:0:0:
176,336,23435,5,0,0:0:0:0:
192,120,23582,1,0,0:0:0:0:
176,336,23729,1,0,0:0:0:0:
192,120,23876,1,0,0:0:0:0:
432,128,24023,5,0,0:0:0:0:
112,248,24170,1,0,0:0:0:0:
112,248,24317,1,0,0:0:0:0:
280,80,24464,1,0,0:0:0:0:
304,336,24612,1,0,0:0:0:0:
56,152,24759,5,0,0:0:0:0:
424,176,24906,1,0,0:0:0:0:
176,96,25053,1,0,0:0:0:0:
128,312,25200,1,0,0:0:0:0:
128,312,25347,6,0,B|160:288|160:288|128:248|128:200,1,127.500004863739,8|0,0:0|0:0,0:0:0:0:
448,184,25788,5,0,0:0:0:0:
240,208,25935,1,0,0:0:0:0:
448,184,26082,1,0,0:0:0:0:
240,208,26229,1,0,0:0:0:0:
152,104,26376,6,0,P|224:72|256:88,1,85
104,296,26670,5,0,0:0:0:0:
216,160,26817,1,0,0:0:0:0:
256,288,26964,2,0,L|320:296,1,42.5
320,104,27112,2,0,L|368:112,1,42.5
120,32,27259,5,0,0:0:0:0:
184,360,27406,1,0,0:0:0:0:
184,360,27553,1,0,0:0:0:0:
448,120,27700,2,0,P|416:184|304:208,1,170,8|0,0:0|0:0,0:0:0:0:
312,112,28141,5,0,0:0:0:0:
336,304,28288,1,0,0:0:0:0:
168,224,28435,1,0,0:0:0:0:
432,136,28582,1,0,0:0:0:0:
168,224,28729,6,0,B|168:176|168:176|224:168|184:48,1,170
72,112,29170,5,0,0:0:0:0:
144,328,29317,1,0,0:0:0:0:
144,328,29464,1,0,0:0:0:0:
360,144,29612,1,0,0:0:0:0:
112,224,29759,1,0,0:0:0:0:
144,96,30053,6,0,P|216:136|224:240,1,170,8|0,0:0|0:0,0:0:0:0:
328,72,30494,1,0,0:0:0:0:
328,72,30567,1,0,0:0:0:0:
328,72,30641,1,0,0:0:0:0:
288,264,30788,6,0,L|384:216,1,85
328,80,31082,2,0,L|408:152,1,85
224,112,31376,2,0,L|208:200,1,85
96,296,31670,5,0,0:0:0:0:
288,160,31817,1,0,0:0:0:0:
96,296,31964,1,0,0:0:0:0:
288,160,32112,1,0,0:0:0:0:
128,120,32259,5,0,0:0:0:0:
128,120,32406,2,0,B|176:160|176:160|176:216|256:256,1,170,8|0,0:0|0:0,0:0:0:0:
264,152,32847,5,0,0:0:0:0:
168,288,32994,1,0,0:0:0:0:
168,288,33141,1,0,0:0:0:0:
328,96,33288,2,0,B|360:160|360:160|336:192,1,85
88,168,33582,6,0,L|160:104,1,85
416,232,33876,5,0,0:0:0:0:
248,208,34023,1,0,0:0:0:0:
416,232,34170,1,0,0:0:0:0:
248,208,34317,1,0,0:0:0:0:
240,80,34464,1,0,0:0:0:0:
384,64,34612,6,8,P|376:112|360:144,1,85,0|0,0:0|0:0,0:0:0:0:
240,80,34906,2,0,P|160:80|72:136,1,170,8|0,0:0|0:0,0:0:0:0:
184,184,35347,5,0,0:0:0:0:
304,136,35494,1,0,0:0:0:0:
184,184,35641,1,0,0:0:0:0:
208,320,35788,1,0,0:0:0:0:
304,256,35935,1,0,0:0:0:0:
304,256,36082,6,0,L|264:168,1,85
368,176,36376,2,0,L|328:88,1,85
96,80,36670,5,0,0:0:0:0:
160,232,36817,1,0,0:0:0:0:
272,40,36964,6,0,B|288:80|288:80|336:80,1,85
160,80,37259,2,0,B|176:120|176:120|136:144,1,85,8|0,0:0|0:0,0:0:0:0:
248,224,37553,2,0,B|264:176|264:176|328:184,1,85
104,112,37847,5,0,0:0:0:0:
16,192,37994,1,0,0:0:0:0:
128,208,38141,2,0,L|232:256,1,85
208,48,38435,6,0,P|168:72|160:128,1,85
272,144,38729,2,0,P|304:184|248:296,1,170,0|8,0:0|0:0,0:0:0:0:
192,208,39170,5,8,0:0:0:0:
360,72,39317,1,8,0:0:0:0:
192,208,39464,2,0,P|128:160|40:208,1,170,8|0,0:0|0:0,0:0:0:0:
384,120,39906,6,0,P|368:168|400:224,2,85
216,224,40347,1,0,0:0:0:0:
216,224,40420,1,0,0:0:0:0:
216,224,40494,2,0,P|304:264|304:272,1,85
216,48,40788,5,0,0:0:0:0:
104,160,40935,1,0,0:0:0:0:
216,48,41082,1,0,0:0:0:0:
104,160,41229,1,0,0:0:0:0:
360,120,41376,6,0,B|320:144|320:144|320:200,1,85
144,184,41670,6,0,L|176:216,1,42.5
248,24,41817,2,0,B|224:128|224:128|312:176|288:272,1,255,8|0,0:0|0:0,0:0:0:0:
88,96,42406,5,0,0:0:0:0:
88,96,42479,1,0,0:0:0:0:
88,96,42553,2,0,L|120:216,1,85
328,40,42847,5,0,0:0:0:0:
288,208,42994,2,0,B|232:168|232:168|256:112|168:80,1,170
128,288,43435,6,0,L|208:264,1,42.5
272,240,43582,1,0,0:0:0:0:
160,152,43729,1,0,0:0:0:0:
336,72,43876,2,0,L|312:168,1,85
72,160,44170,6,8,B|120:64|120:64|232:88|264:24,1,255,8|0,0:0|0:0,0:0:0:0:
208,288,44759,5,0,0:0:0:0:
392,120,44906,1,0,0:0:0:0:
288,112,45053,1,0,0:0:0:0:
456,296,45200,1,0,0:0:0:0:
336,296,45347,6,0,L|152:288,1,170
120,32,45788,5,0,0:0:0:0:
184,192,45935,1,0,0:0:0:0:
184,192,46009,1,0,0:0:0:0:
184,192,46082,1,0,0:0:0:0:
304,64,46229,2,0,P|368:88|392:136,2,85
312,312,46670,5,8,0:0:0:0:
296,176,46817,1,0,0:0:0:0:
200,216,46964,1,0,0:0:0:0:
200,216,47112,2,0,P|136:272|40:232,1,170
96,56,47553,5,0,0:0:0:0:
416,144,47700,1,0,0:0:0:0:
88,176,47847,1,0,0:0:0:0:
416,152,47994,1,0,0:0:0:0:
120,304,48141,1,0,0:0:0:0:
416,152,48289,1,0,0:0:0:0:
136,32,48435,5,0,0:0:0:0:
144,48,48508,1,0,0:0:0:0:
152,64,48582,1,0,0:0:0:0:
96,216,48729,6,0,L|192:192,1,85
328,88,49023,1,8,0:0:0:0:
320,104,49097,1,0,0:0:0:0:
312,128,49170,1,0,0:0:0:0:
192,192,49317,6,0,P|184:256|296:288,1,170
112,96,49759,5,0,0:0:0:0:
224,96,49906,1,0,0:0:0:0:
176,16,50053,1,0,0:0:0:0:
176,16,50200,2,0,L|288:16,1,85
368,112,50494,2,0,L|256:112,1,85
128,144,50788,5,0,0:0:0:0:
272,288,50935,1,0,0:0:0:0:
320,64,51082,1,0,0:0:0:0:
320,64,51156,1,0,0:0:0:0:
320,64,51229,1,0,0:0:0:0:
272,288,51376,6,0,B|232:216|232:216|264:112,1,170,8|0,0:0|0:0,0:0:0:0:
48,160,51817,5,0,0:0:0:0:
144,248,51964,2,0,P|208:208|248:208,1,85
272,80,52259,2,0,P|232:104|184:112,1,85
168,112,52480,1,0,0:0:0:0:
136,104,52553,1,0,0:0:0:0:
64,160,52700,2,0,L|120:232,1,85
304,168,52994,5,0,0:0:0:0:
288,192,53068,1,0,0:0:0:0:
288,216,53141,2,0,P|224:232|200:240,1,85
168,144,53435,6,0,L|216:56,1,85
312,40,53729,2,0,L|272:120,1,85,8|0,0:0|0:0,0:0:0:0:
352,144,54023,5,0,0:0:0:0:
392,232,54170,1,0,0:0:0:0:
288,224,54317,2,0,L|200:224,2,85
176,128,54759,6,0,L|96:192,1,85
128,64,55053,2,0,L|192:8,1,85
256,296,55347,5,0,0:0:0:0:
272,80,55494,1,0,0:0:0:0:
416,264,55641,1,0,0:0:0:0:
192,208,55788,1,0,0:0:0:0:
400,136,55935,1,0,0:0:0:0:
112,264,56082,5,8,0:0:0:0:
120,280,56156,1,0,0:0:0:0:
128,296,56229,1,0,0:0:0:0:
384,48,56376,5,0,0:0:0:0:
48,216,56523,1,0,0:0:0:0:
424,136,56670,1,0,0:0:0:0:
112,120,56817,1,0,0:0:0:0:
128,152,56891,1,0,0:0:0:0:
144,184,56964,1,0,0:0:0:0:
168,224,57038,5,0,0:0:0:0:
168,224,57112,2,0,L|240:288,2,85
280,80,57553,2,0,L|208:168,1,85
416,176,57847,2,0,P|328:184|280:256,1,170
128,104,58288,5,4,0:0:0:0:
136,120,58362,1,0,0:0:0:0:
144,136,58435,1,0,0:0:0:0:
376,112,58582,1,0,0:0:0:0:
128,312,58729,1,0,0:0:0:0:
144,192,58876,2,0,L|160:80,1,85
248,160,59170,1,0,0:0:0:0:
232,40,59317,6,0,L|320:88,1,85
288,224,59612,1,4,0:0:0:0:
152,160,59759,1,0,0:0:0:0:
152,160,59906,2,0,L|136:72,1,85
48,232,60200,5,0,0:0:0:0:
344,64,60347,1,0,0:0:0:0:
264,320,60494,1,0,0:0:0:0:
264,320,60567,1,0,0:0:0:0:
264,320,60641,1,0,0:0:0:0:
288,72,60788,6,0,L|208:104,1,85,4|0,0:0|0:0,0:0:0:0:
144,216,61082,2,0,L|336:144,1,170
392,184,61523,5,0,0:0:0:0:
160,88,61670,1,0,0:0:0:0:
160,88,61817,1,0,0:0:0:0:
256,96,61964,6,0,L|352:104,1,85,4|0,0:0|0:0,0:0:0:0:
88,256,62259,2,0,L|200:264,1,85
280,64,62553,1,0,0:0:0:0:
352,280,62700,5,0,0:0:0:0:
168,136,62847,1,0,0:0:0:0:
392,112,62994,1,0,0:0:0:0:
224,272,63141,1,4,0:0:0:0:
224,272,63288,2,0,L|128:272,1,85
224,160,63582,5,0,0:0:0:0:
352,24,63729,6,0,P|368:80|408:80,1,85
208,88,64023,2,0,P|240:128|224:160,1,85
320,200,64317,2,0,P|360:160|408:176,1,85,4|0,0:0|0:0,0:0:0:0:
104,200,64612,5,0,0:0:0:0:
104,200,64685,1,0,0:0:0:0:
104,200,64759,1,0,0:0:0:0:
184,288,64906,2,0,L|224:224,1,42.5
160,64,65053,2,0,L|136:112,1,42.5
336,152,65200,5,0,0:0:0:0:
336,152,65347,2,0,L|336:64,1,85,0|4,0:0|0:0,0:0:0:0:
240,192,65641,1,0,0:0:0:0:
240,192,65788,6,0,L|176:272,1,85
64,200,66082,2,0,L|136:120,1,85
232,40,66376,6,0,B|272:80|272:80|320:56,1,85
336,64,66597,1,0,0:0:0:0:
360,96,66670,1,0,0:0:0:0:
360,136,66744,1,0,0:0:0:0:
336,168,66817,1,0,0:0:0:0:
328,200,66891,1,0,0:0:0:0:
352,240,66964,6,0,L|264:264,1,85
72,112,67259,5,0,0:0:0:0:
88,128,67332,1,0,0:0:0:0:
104,144,67406,1,0,0:0:0:0:
280,288,67553,2,0,L|216:232,1,85
288,88,67847,5,0,0:0:0:0:
288,88,67994,1,0,0:0:0:0:
184,152,68141,6,0,L|256:216,1,85
240,312,68435,2,0,L|168:248,1,85,4|0,0:0|0:0,0:0:0:0:
368,144,68729,5,0,0:0:0:0:
112,160,68876,1,0,0:0:0:0:
368,144,69023,1,0,0:0:0:0:
112,160,69170,1,0,0:0:0:0:
208,80,69317,6,0,L|208:176,1,85
288,272,69612,2,0,L|288:168,1,85,4|0,0:0|0:0,0:0:0:0:
144,56,69906,5,0,0:0:0:0:
152,304,70053,1,0,0:0:0:0:
144,56,70200,1,0,0:0:0:0:
152,304,70347,1,0,0:0:0:0:
80,160,70494,6,0,L|176:152,1,85
304,80,70788,2,0,L|240:88,2,42.5,4|0|0,0:0|0:0|0:0,0:0:0:0:
352,152,71082,5,0,0:0:0:0:
64,168,71229,1,0,0:0:0:0:
184,232,71376,1,0,0:0:0:0:
184,240,71523,2,0,L|184:136,1,85
312,264,71817,5,0,0:0:0:0:
328,264,71891,1,0,0:0:0:0:
344,264,71964,1,4,0:0:0:0:
200,136,72112,2,0,L|280:56,1,85
80,64,72406,5,0,0:0:0:0:
64,120,72479,1,0,0:0:0:0:
96,168,72553,1,0,0:0:0:0:
256,64,72847,6,0,L|368:64,1,85
472,152,73141,2,0,L|368:152,2,85,4|0|0,0:0|0:0|0:0,0:0:0:0:
128,192,74023,6,0,P|192:160|296:192,2,170,0|4|0,0:0|0:0|0:0,0:0:0:0:
184,360,74759,6,0,B|160:328|160:328|232:312|232:200,1,170,8|0,0:0|0:0,0:0:0:0:
88,48,75200,5,0,0:0:0:0:
128,256,75347,1,0,0:0:0:0:
312,128,75494,1,0,0:0:0:0:
128,256,75641,1,0,0:0:0:0:
88,136,75788,5,0,0:0:0:0:
336,320,75935,1,0,0:0:0:0:
144,56,76082,5,0,0:0:0:0:
264,368,76229,1,0,0:0:0:0:
240,64,76376,5,0,0:0:0:0:
160,344,76523,1,0,0:0:0:0:
320,128,76670,5,0,0:0:0:0:
72,288,76817,1,0,0:0:0:0:
312,240,76964,5,0,0:0:0:0:
312,240,77112,2,0,P|280:200|328:88,1,170,8|0,0:0|0:0,0:0:0:0:
104,64,77553,5,0,0:0:0:0:
192,280,77700,1,0,0:0:0:0:
224,192,77847,5,0,0:0:0:0:
16,224,77994,1,0,0:0:0:0:
336,64,78141,5,0,0:0:0:0:
336,88,78214,1,0,0:0:0:0:
336,112,78288,1,0,0:0:0:0:
80,128,78435,5,0,0:0:0:0:
336,208,78582,1,0,0:0:0:0:
80,128,78729,1,0,0:0:0:0:
336,208,78876,1,0,0:0:0:0:
48,224,79023,6,0,L|160:224,1,85
248,112,79317,1,0,0:0:0:0:
256,128,79391,1,0,0:0:0:0:
272,144,79464,6,0,B|312:176|312:176|240:272|336:296,1,170,8|0,0:0|0:0,0:0:0:0:
128,112,79906,5,0,0:0:0:0:
192,320,80053,1,0,0:0:0:0:
400,264,80200,1,0,0:0:0:0:
336,48,80347,1,0,0:0:0:0:
96,200,80494,5,0,0:0:0:0:
360,312,80641,1,0,0:0:0:0:
336,48,80788,1,0,0:0:0:0:
312,48,80862,1,0,0:0:0:0:
288,48,80935,1,0,0:0:0:0:
200,288,81082,5,0,0:0:0:0:
184,120,81229,1,0,0:0:0:0:
184,120,81376,2,0,L|192:208,2,85
352,176,81817,6,0,B|328:136|328:136|376:88|352:16,1,170,8|0,0:0|0:0,0:0:0:0:
88,88,82259,5,0,0:0:0:0:
336,216,82406,1,0,0:0:0:0:
64,200,82553,1,0,0:0:0:0:
304,336,82700,1,0,0:0:0:0:
256,56,82847,5,0,0:0:0:0:
88,304,82994,1,0,0:0:0:0:
152,200,83141,1,0,0:0:0:0:
240,296,83289,5,0,0:0:0:0:
192,32,83436,1,0,0:0:0:0:
64,192,83583,1,0,0:0:0:0:
328,176,83730,1,0,0:0:0:0:
176,120,83876,1,0,0:0:0:0:
184,136,83950,1,0,0:0:0:0:
192,152,84023,1,0,0:0:0:0:
200,168,84097,1,0,0:0:0:0:
208,184,84170,6,0,B|248:216|248:216|328:168|392:224,1,170,8|0,0:0|0:0,0:0:0:0:
168,48,84612,6,0,L|88:96,1,85
224,144,84906,2,0,L|304:96,1,85
136,272,85200,5,0,0:0:0:0:
136,272,85347,2,0,L|296:208,1,170,8|0,0:0|0:0,0:0:0:0:
160,152,85788,6,0,P|144:88|168:48,1,85
304,160,86082,2,0,L|240:224,1,85
64,280,86376,5,0,0:0:0:0:
168,160,86523,2,0,L|128:112,2,42.5,8|0|0,0:0|0:0|0:0,0:0:0:0:
224,288,86817,6,0,L|296:224,1,85
328,96,87112,2,0,L|240:152,2,85
56,216,87553,5,0,0:0:0:0:
216,288,87700,1,8,0:0:0:0:
216,272,87773,1,0,0:0:0:0:
216,256,87847,1,0,0:0:0:0:
