osu file format v14

[General]
AudioFilename: audio.mp3
AudioLeadIn: 0
PreviewTime: 57038
Countdown: 1
SampleSet: Soft
StackLeniency: 0.7
Mode: 0
LetterboxInBreaks: 0
WidescreenStoryboard: 1

[Editor]
DistanceSpacing: 0.6
BeatDivisor: 4
GridSize: 8
TimelineZoom: 1

[Metadata]
Title:Sora ni Utaeba TV edit
TitleUnicode:Sora ni Utaeba TV edit
Artist:amazarashi
ArtistUnicode:amazarashi
Creator:gu0910
Version:Normal
Source:僕のヒーローアカデミア 第2期
Tags:
BeatmapID:1385408
BeatmapSetID:644807

[Difficulty]
HPDrainRate:4
CircleSize:3
OverallDifficulty:4
ApproachRate:7
SliderMultiplier:1
SliderTickRate:1

[Events]
//Background and Video events
0,0,"bg.png",0,0
Video,0,"todoizuku.avi"
//Break Periods
//Storyboard Layer 0 (Background)
//Storyboard Layer 1 (Fail)
//Storyboard Layer 2 (Pass)
//Storyboard Layer 3 (Foreground)
//Storyboard Sound Samples

[TimingPoints]
-388,294.117647058824,4,2,1,100,1,0
18288,-133.333333333333,4,1,1,100,0,1
27554,-100,4,1,1,100,0,0
57264,-100,4,2,1,100,0,0
72553,-100,4,2,1,100,0,0
74832,-100,4,2,1,100,0,1
87847,-100,4,2,1,100,0,0

[HitObjects]
136,200,641,6,0,L|192:160,1,50
256,104,1082,2,0,P|280:144|328:160,2,100,0|0|0,0:0|0:0|0:0,0:0:0:0:
80,288,1817,6,0,P|152:240|304:280,1,250,4|0,0:0|0:0,0:0:0:0:
144,144,2847,5,0,0:0:0:0:
256,160,3141,2,0,P|328:184|424:104,1,200,4|0,0:0|0:0,0:0:0:0:
112,176,4023,5,0,0:0:0:0:
112,176,4170,2,4,P|184:272|304:240,1,250,4|0,0:0|0:0,0:0:0:0:
232,64,5200,5,0,0:0:0:0:
208,160,5347,1,0,0:0:0:0:
184,256,5494,2,0,L|256:264,1,50,4|0,0:0|0:0,0:0:0:0:
296,192,5788,2,0,L|360:200,1,50
400,120,6082,2,0,L|472:128,1,50
296,112,6376,6,0,L|280:64,1,50,0|4,0:0|0:0,0:0:0:0:
160,144,6964,6,0,P|136:160|48:176,1,100
208,232,7553,2,0,P|280:280|296:288,1,100,0|4,0:0|0:0,0:0:0:0:
120,296,8141,2,0,L|24:336,1,100
224,128,8729,5,0,0:0:0:0:
224,128,8876,2,0,L|336:152,1,100,4|0,0:0|0:0,0:0:0:0:
272,232,9317,2,0,P|216:264|208:312,1,100
128,192,9906,2,0,P|104:224|32:240,2,100,0|4|0,0:0|0:0|0:0,0:0:0:0:
184,72,10788,6,0,L|296:72,1,100
400,72,11229,2,0,L|400:144,1,50,0|4,0:0|0:0,0:0:0:0:
368,240,11670,6,0,P|280:224|256:232,1,100
56,120,12259,2,0,P|112:136|160:120,1,100,0|4,0:0|0:0,0:0:0:0:
120,328,12847,6,0,L|240:328,1,100
352,232,13435,2,0,L|248:232,1,100,0|4,0:0|0:0,0:0:0:0:
56,104,14023,6,0,L|112:104,1,50
152,104,14317,2,0,P|112:160|128:184,1,100
240,144,14906,2,0,P|288:112|344:128,1,100,4|0,0:0|0:0,0:0:0:0:
128,304,15494,6,0,L|152:256,1,50
272,240,15788,2,0,L|240:304,1,50
416,240,16082,6,0,P|392:176|416:136,1,100,4|0,0:0|0:0,0:0:0:0:
288,64,16523,2,0,L|240:104,1,50
152,64,16817,2,0,L|120:112,1,50
64,192,17112,6,0,L|8:192,1,50,0|4,0:0|0:0,0:0:0:0:
80,288,17406,2,0,L|144:288,2,50
232,256,17847,2,0,P|256:208|312:192,1,100
160,112,18288,6,0,P|224:80|224:32,1,112.500004291535
272,336,19023,2,0,L|320:264,1,75.0000028610231
248,184,19612,2,0,L|200:256,1,75.0000028610231
136,120,20200,1,0,0:0:0:0:
136,120,20347,1,0,0:0:0:0:
72,240,20641,6,0,B|72:320|72:320|112:344,1,112.500004291535
192,264,21376,2,0,P|232:256|272:264,1,75.0000028610231
384,208,21964,2,0,P|360:184|352:128,1,75.0000028610231
224,136,22553,5,0,0:0:0:0:
224,136,22700,2,0,L|176:144,1,37.5000014305115
136,56,22994,6,0,P|88:104|64:152,1,112.500004291535,0|0,0:1|0:1,0:1:0:0:
256,304,23729,2,0,L|192:248,1,75.0000028610231
72,240,24317,2,0,L|128:296,1,75.0000028610231
312,224,24906,2,0,L|352:232,1,37.5000014305115
200,72,25347,6,0,P|184:136|152:176,1,112.500004291535
56,296,26082,2,0,P|96:272|128:272,1,75.0000028610231
264,256,26670,2,0,L|264:176,1,75.0000028610231
104,112,27259,6,0,L|144:112,2,37.5000014305115
288,128,27700,6,0,P|328:176|328:264,1,150
128,288,28435,2,0,P|216:328|240:336,1,100
208,192,29023,5,0,0:0:0:0:
112,96,29317,1,0,0:0:0:0:
256,72,29612,6,0,L|296:104,1,50
384,192,30053,2,0,P|368:232|368:296,1,100,8|0,0:0|0:0,0:0:0:0:
248,312,30494,6,0,P|192:328|144:320,1,100
216,120,31082,2,0,P|176:168|168:208,1,100
152,32,31670,2,0,P|112:72|48:72,1,100
8,168,32112,6,0,L|80:176,1,50
192,112,32406,2,0,P|208:152|320:160,1,150,8|0,0:0|0:0,0:0:0:0:
120,320,33141,6,0,L|208:240,1,100
368,224,33729,2,0,L|280:304,1,100
272,112,34317,2,0,P|216:120|184:152,1,100
48,128,34759,1,8,0:0:0:0:
48,128,34906,2,0,P|56:208|72:232,1,100
160,192,35494,6,0,L|224:184,1,50
312,168,35788,2,0,B|320:232,1,50
416,312,36082,2,0,P|368:304|328:352,1,100
88,256,36670,2,0,P|128:288|184:272,1,100
120,128,37112,5,8,0:0:0:0:
120,128,37259,2,0,L|176:32,1,100
256,192,37847,1,0,0:0:0:0:
256,192,38141,2,0,P|272:160|352:152,2,100
312,312,39023,6,0,L|240:328,1,50
232,240,39317,2,0,L|176:248,1,50,0|8,0:0|0:0,0:0:0:0:
120,176,39906,6,0,P|136:112|184:96,1,100
288,168,40494,2,0,P|344:208|384:208,1,100
256,40,41082,2,0,P|208:64|176:112,1,100
80,184,41523,1,0,0:0:0:0:
80,200,41670,1,0,0:0:0:0:
80,216,41817,2,0,P|104:200|184:216,1,100,8|0,0:0|0:0,0:0:0:0:
168,320,42259,6,0,L|160:264,1,50
256,240,42553,2,0,P|312:208|352:224,1,100
400,48,43141,2,0,P|376:96|368:160,1,100
224,112,43729,2,0,L|168:144,1,50
120,264,44023,2,0,L|168:240,1,50,0|8,0:0|0:0,0:0:0:0:
328,248,44317,6,0,P|368:288|424:296,1,100
320,56,44906,2,0,P|288:104|272:152,1,100
152,120,45347,1,0,0:0:0:0:
152,120,45494,2,0,P|160:144|144:224,1,100
128,336,45935,6,0,L|192:320,1,50
192,232,46229,2,0,L|256:216,1,50
248,112,46523,1,8,0:0:0:0:
248,112,46670,2,0,P|280:136|352:120,1,100
456,144,47259,6,0,P|448:216|432:248,1,100
336,240,47847,6,0,L|280:264,1,50
200,208,48141,2,0,L|136:232,1,50
64,144,48435,1,0,0:0:0:0:
64,144,48582,2,0,L|120:120,1,50
232,88,48876,1,0,0:0:0:0:
232,88,49023,2,0,P|256:128|320:136,1,100
200,280,49612,6,0,P|264:248|312:240,1,100
448,344,50200,2,0,L|424:240,1,100
464,88,50788,2,0,L|352:128,1,100
144,120,51229,2,0,B|156:124|184:104,1,25
152,128,51376,2,0,L|256:88,1,100
112,344,51964,6,0,P|80:288|72:232,1,100
192,88,52553,2,0,P|216:160|216:192,1,100
336,216,53141,2,0,P|304:256|272:304,1,100
440,280,53729,6,0,P|480:216|480:176,1,100
360,88,54170,1,0,0:0:0:0:
360,88,54317,2,0,L|304:112,2,50
72,208,54759,2,0,L|128:160,1,50
248,208,55053,2,0,L|200:248,1,50
192,96,55347,5,0,0:0:0:0:
376,96,55494,1,0,0:0:0:0:
384,144,55641,1,0,0:0:0:0:
368,184,55788,1,0,0:0:0:0:
344,208,55935,2,0,L|288:232,2,50
312,312,56376,1,0,0:0:0:0:
280,328,56523,1,0,0:0:0:0:
240,336,56670,1,0,0:0:0:0:
208,336,56744,2,0,L|176:336,5,25
104,192,57259,6,0,L|96:136,1,50
184,56,57553,2,0,P|200:120|240:128,2,100
336,56,58288,2,0,P|376:104|392:208,1,150,4|0,0:0|0:0,0:0:0:0:
144,208,59023,2,0,L|192:176,2,50
272,232,59612,6,0,P|320:288|360:296,1,100
352,136,60200,2,0,P|320:72|288:32,1,100
216,144,60641,2,0,L|176:192,1,50,4|0,0:0|0:0,0:0:0:0:
192,304,61082,2,0,P|248:256|288:248,1,100
80,120,61670,6,0,L|136:96,1,50
192,48,61964,2,0,P|216:88|224:152,1,100
336,160,62553,2,0,P|352:224|344:280,1,100
200,200,62994,5,4,0:0:0:0:
200,200,63141,2,0,L|96:240,1,100
96,88,63729,6,0,P|168:80|200:88,1,100
328,88,64317,2,0,P|360:144|360:192,1,100
224,208,64906,2,0,P|200:264|152:288,1,100
136,152,65347,2,0,L|80:192,1,50,4|0,0:0|0:0,0:0:0:0:
256,80,65788,6,0,P|336:136|352:136,1,100
440,200,66376,2,0,P|400:232|368:296,1,100
248,248,66964,2,0,L|184:256,1,50
200,144,67259,2,0,L|136:152,1,50
192,56,67553,2,0,L|224:56,4,25,4|0|0|0|0,0:0|0:0|0:0|0:0|0:0,0:0:0:0:
376,120,68141,6,0,P|360:160|352:216,1,100
256,168,68729,2,0,P|240:232|240:280,1,100
56,160,69317,6,0,P|72:120|80:64,1,100
176,112,69905,2,0,P|192:48|192:0,1,100
120,248,70494,6,0,P|200:288|224:280,2,100
240,208,71376,2,0,P|320:200|352:200,1,100
408,104,71964,2,0,P|336:96|312:112,2,100
216,112,74023,5,0,0:0:0:0:
144,272,74317,1,0,0:0:0:0:
328,248,74612,1,0,0:0:0:0:
328,248,74759,6,0,P|352:200|352:96,1,150,8|0,0:0|0:0,0:0:0:0:
232,136,75494,2,0,P|184:136|136:160,1,100
64,272,76082,2,0,P|96:272|184:248,1,100
272,320,76670,2,0,L|336:312,2,50
352,232,77112,6,0,P|384:200|376:88,1,150,8|0,0:0|0:0,0:0:0:0:
280,128,77847,2,0,P|208:120|176:104,1,100
40,200,78435,2,0,P|104:208|144:232,1,100
224,304,79023,2,0,L|256:200,1,100
392,72,79464,6,0,P|336:88|248:56,1,150,8|0,0:0|0:0,0:0:0:0:
176,240,80200,2,0,P|224:192|264:160,1,100
408,232,80788,2,0,P|336:296|320:304,1,100
72,176,81376,2,0,L|128:184,2,50
152,96,81817,6,0,P|232:112|280:160,1,150,8|0,0:0|0:0,0:0:0:0:
208,248,82553,2,0,P|208:288|232:344,1,100
64,200,83141,2,0,P|80:168|136:120,1,100
208,200,83582,1,0,0:0:0:0:
280,232,83729,1,0,0:0:0:0:
352,264,83876,1,0,0:0:0:0:
424,296,84023,1,0,0:0:0:0:
408,128,84170,6,0,P|376:88|280:104,1,150,8|0,0:0|0:0,0:0:0:0:
56,128,84906,2,0,L|144:184,1,100
184,320,85347,6,0,P|200:264|280:224,1,150,8|0,0:0|0:0,0:0:0:0:
192,72,86082,2,0,P|160:120|104:144,1,100
288,144,86523,6,0,L|408:240,1,150,8|0,0:0|0:0,0:0:0:0:
176,216,87259,2,0,P|120:264|104:304,1,100
64,112,87700,2,0,L|56:48,1,50,8|0,0:0|0:0,0:0:0:0:
