osu file format v14

[General]
AudioFilename: audio.mp3
AudioLeadIn: 0
PreviewTime: 56976
Countdown: 0
SampleSet: Normal
StackLeniency: 0.7
Mode: 0
LetterboxInBreaks: 0
WidescreenStoryboard: 1

[Editor]
Bookmarks: 31828,58152
DistanceSpacing: 1.2
BeatDivisor: 2
GridSize: 16
TimelineZoom: 1.8

[Metadata]
Title:Sora ni Utaeba -TV edit.-
TitleUnicode:空に歌えば -TV edit.-
Artist:amazarashi
ArtistUnicode:amazarashi
Creator:Ryuusei Aika
Version:gary00737's Easy
Source:僕のヒーローアカデミア
Tags:Boku no my hero academia ヒロアカ heroaca 2期 第2期 第2クール second season op opening theme size gary00737 pata-mon Left Firis Mistlud kurantemelodii
BeatmapID:1377771
BeatmapSetID:637150

[Difficulty]
HPDrainRate:2
CircleSize:3
OverallDifficulty:2
ApproachRate:3
SliderMultiplier:0.7
SliderTickRate:1

[Events]
//Background and Video events
0,0,"BG.jpg",0,0
Video,250,"Sora Ni Utaeba.avi"
//Break Periods
//Storyboard Layer 0 (Background)
//Storyboard Layer 1 (Fail)
//Storyboard Layer 2 (Pass)
//Storyboard Layer 3 (Foreground)
//Storyboard Sound Samples

[TimingPoints]
-524,294.117647058824,4,1,1,30,1,0
505,-100,4,1,1,30,0,0
1681,-100,4,1,1,40,0,0
11240,-100,4,1,1,50,0,0
16534,-100,4,1,2,50,0,0
17417,-100,4,1,1,50,0,0
18152,-100,4,1,2,65,0,0
18299,-100,4,1,1,65,0,0
27564,-100,4,1,1,30,0,0
29917,-100,4,1,1,40,0,0
39328,-100,4,1,2,40,0,0
39476,-100,4,1,1,50,0,0
57123,-100,4,1,1,40,0,0
58152,-100,4,1,2,65,0,1
58299,-100,4,1,1,65,0,1
67711,-100,4,1,2,65,0,1
67784,-100,4,1,1,65,0,1
72417,-100,4,1,1,30,0,1
74623,-100,4,1,2,55,0,0
74770,-100,4,1,1,55,0,0
79328,-100,4,1,2,65,0,0
79402,-100,4,1,1,65,0,0
84034,-100,4,1,1,50,0,0
84181,-100,4,1,1,30,0,0
87564,-100,4,1,2,70,0,0

[Colours]
Combo1 : 211,220,197
Combo2 : 216,239,32
Combo3 : 114,134,108
Combo4 : 138,153,0

[HitObjects]
68,56,1681,6,0,P|184:41|240:164,1,245,4|0,0:0|0:0,0:0:0:0:
234,222,3005,2,0,L|488:241,2,245,4|4|0,0:0|0:0|0:0,0:0:0:0:
149,217,5357,6,0,P|129:289|176:352,1,140,4|0,0:0|0:0,0:0:0:0:
282,310,6387,2,0,B|388:318,1,105,4|0,0:0|0:0,0:0:0:0:
456,365,7122,2,0,P|468:322|460:274,1,70,2|2,0:0|0:0,0:0:0:0:
430,221,7710,1,6,0:0:0:0:
465,145,8004,1,2,0:0:0:0:
421,73,8298,6,0,P|356:50|290:87,1,140,2|0,0:0|0:0,0:0:0:0:
255,153,9181,2,0,L|261:234,2,70,2|2|2,0:0|0:0|0:0,0:0:0:0:
211,80,10063,2,0,B|188:52|118:35|118:35|63:81|53:118,1,210,4|8,0:0|0:0,0:0:0:0:
33,199,11239,5,6,0:0:0:0:
103,245,11534,2,0,L|184:239,2,70,2|8|2,0:0|0:0|0:0,0:0:0:0:
39,300,12416,1,2,0:0:0:0:
99,357,12710,2,0,L|180:363,1,70,0|8,0:0|0:0,0:0:0:0:
252,372,13299,1,2,0:0:0:0:
318,321,13593,5,2,0:0:0:0:
401,313,13887,2,0,L|482:307,1,70,0|8,0:0|0:0,0:0:0:0:
439,230,14475,2,0,B|426:191|426:191|438:91,1,140,2|2,0:0|0:0,0:0:0:0:
359,62,15357,2,0,L|349:143,1,70,8|2,0:0|0:0,0:0:0:0:
339,214,15946,6,0,B|300:227|300:227|200:215,1,140,2|2,0:0|0:0,0:0:0:0:
212,131,16828,2,0,L|220:61,2,70,2|0|8,0:0|0:0|0:0,0:0:0:0:
400,223,18152,6,0,B|345:204|345:204|204:221,1,175,4|2,0:0|0:0,0:0:0:0:
181,287,19181,1,8,0:0:0:0:
119,230,19475,2,0,P|74:231|28:246,1,70,2|8,0:0|0:0,0:0:0:0:
6,309,20064,1,2,0:0:0:0:
121,358,20505,6,0,B|176:340|176:340|317:357,1,175,4|2,0:0|0:0,0:0:0:0:
375,369,21534,1,8,0:0:0:0:
360,287,21828,2,0,P|361:242|376:196,1,70,2|8,0:0|0:0,0:0:0:0:
399,140,22417,1,8,0:0:0:0:
476,41,22857,6,0,L|292:28,1,175,4|2,0:0|0:0,0:0:0:0:
218,19,23887,1,8,0:0:0:0:
252,97,24181,2,0,P|251:142|236:188,1,70,2|8,0:0|0:0,0:0:0:0:
195,234,24770,1,2,0:0:0:0:
268,336,25210,6,0,P|357:356|456:316,1,175,4|2,0:0|0:0,0:0:0:0:
489,267,26240,1,8,0:0:0:0:
424,212,26534,2,0,L|430:120,1,70,10|10,0:0|0:0,0:0:0:0:
479,75,27123,2,0,L|474:19,2,35,10|2|2,0:0|0:0|0:0,0:0:0:0:
374,33,29916,6,0,P|387:84|381:140,1,105,6|8,0:0|0:0,0:0:0:0:
309,177,30651,2,0,P|309:214|315:258,1,70,2|8,0:0|0:0,0:0:0:0:
395,262,31239,2,0,P|395:299|389:343,1,70,0|8,0:0|0:0,0:0:0:0:
312,362,31828,1,2,0:0:0:0:
185,356,32270,6,0,L|58:347,1,105,2|8,0:0|0:0,0:0:0:0:
23,286,33005,2,0,P|13:233|20:167,2,105,2|2|8,0:0|0:0|0:0,0:0:0:0:
80,348,34181,1,2,0:0:0:0:
205,338,34623,6,0,L|332:329,1,105,2|8,0:0|0:0,0:0:0:0:
284,250,35358,2,0,L|214:254,1,70,2|8,0:0|0:0,0:0:0:0:
130,264,35945,2,0,P|130:227|136:183,1,70,2|8,0:0|0:0,0:0:0:0:
192,133,36533,1,2,0:0:0:0:
161,55,36828,6,0,L|79:49,2,70,8|0|8,0:0|0:0|0:0,0:0:0:0:
244,62,37710,1,2,0:0:0:0:
327,56,38004,2,0,L|409:50,2,70,8|2|8,0:0|0:0|0:0,0:0:0:0:
292,132,38887,1,8,0:0:0:0:
187,202,39328,6,0,P|167:143|174:90,1,105,6|8,0:0|0:0,0:0:0:0:
244,62,40063,2,0,L|104:52,1,140,2|2,0:0|0:0,0:0:0:0:
20,42,40945,1,8,0:0:0:0:
9,126,41240,1,2,0:0:0:0:
134,145,41681,6,0,P|154:204|147:257,1,105,2|8,0:0|0:0,0:0:0:0:
111,320,42417,2,0,L|-8:311,2,105,2|2|8,0:0|0:0|0:0,0:0:0:0:
194,326,43593,1,2,0:0:0:0:
319,334,44034,6,0,P|370:352|423:339,1,105,6|8,0:0|0:0,0:0:0:0:
467,273,44769,2,0,P|472:232|465:197,1,70,2|8,0:0|0:0,0:0:0:0:
395,160,45358,2,0,P|390:125|395:90,1,70,0|8,0:0|0:0,0:0:0:0:
445,24,45946,1,2,0:0:0:0:
319,24,46387,6,0,P|264:25|211:57,1,105,6|8,0:0|0:0,0:0:0:0:
165,111,47123,2,0,P|168:154|180:197,1,70,2|8,0:0|0:0,0:0:0:0:
255,199,47711,2,0,L|335:189,1,70,8|2,0:0|0:0,0:0:0:0:
327,274,48299,2,0,L|257:282,1,70,8|0,0:0|0:0,0:0:0:0:
176,265,48887,5,12,0:0:0:0:
176,348,49181,1,2,0:0:0:0:
102,306,49476,2,0,P|65:301|-11:323,2,105,0|8|0,0:0|0:0|0:0,0:0:0:0:
176,348,50652,2,0,L|246:343,1,70,8|8,0:0|0:0,0:0:0:0:
329,333,51240,6,0,P|403:306|434:252,1,140,4|0,0:0|0:0,0:0:0:0:
446,172,52123,1,2,0:0:0:0:
383,115,52417,2,0,L|313:120,1,70,4|2,0:0|0:0,0:0:0:0:
246,69,53005,2,0,L|176:64,1,70,4|2,0:0|0:0,0:0:0:0:
100,28,53593,6,0,L|30:33,1,70,6|8,0:0|0:0,0:0:0:0:
17,115,54181,1,0,0:0:0:0:
89,157,54476,1,0,0:0:0:0:
135,226,54770,2,0,P|143:274|133:318,1,70,2|2,0:0|0:0,0:0:0:0:
90,362,55358,2,0,L|20:356,1,70,2|2,0:0|0:0,0:0:0:0:
16,272,55946,6,0,B|93:278|93:278|156:268|156:268|306:280,1,280,8|0,0:0|0:0,0:0:0:0:
482,52,58152,6,0,P|434:28|375:32,1,105,4|8,0:0|0:0,0:0:0:0:
320,84,58887,2,0,L|250:79,1,70,2|8,0:0|0:0,0:0:0:0:
178,122,59476,2,0,B|127:130|127:130|38:119,1,140,2|2,0:0|0:0,0:0:0:0:
11,242,60505,6,0,L|143:259,1,105,2|8,0:0|0:0,0:0:0:0:
197,269,61240,1,2,0:0:0:0:
279,255,61534,1,8,0:0:0:0:
339,196,61828,2,0,P|359:124|312:61,1,140,2|2,0:0|0:0,0:0:0:0:
205,106,62858,6,0,B|150:115|150:115|100:110,1,105,2|8,0:0|0:0,0:0:0:0:
33,62,63593,2,0,P|18:97|27:148,1,70,2|8,0:0|0:0,0:0:0:0:
69,195,64181,1,2,0:0:0:0:
31,270,64475,1,8,0:0:0:0:
86,332,64769,6,0,P|151:355|217:318,1,140,2|0,0:0|0:0,0:0:0:0:
244,247,65652,2,0,L|238:166,2,70,8|2|8,0:0|0:0|0:0,0:0:0:0:
295,313,66534,2,0,B|318:341|388:358|388:358|443:312|453:275,1,210,2|10,0:0|0:0,0:0:0:0:
468,194,67710,5,4,0:0:0:0:
388,166,68005,2,0,L|307:172,2,70,2|8|2,0:0|0:0|0:0,0:0:0:0:
453,113,68887,1,2,0:0:0:0:
382,67,69181,2,0,L|301:61,1,70,2|8,0:0|0:0,0:0:0:0:
228,53,69770,1,2,0:0:0:0:
203,133,70064,5,2,0:0:0:0:
119,124,70358,2,0,L|38:118,1,70,8|2,0:0|0:0,0:0:0:0:
10,193,70946,1,8,0:0:0:0:
10,276,71240,2,0,L|91:282,1,70,0|8,0:0|0:0,0:0:0:0:
135,344,71828,2,0,L|216:350,1,70,0|10,0:0|0:0,0:0:0:0:
288,359,72417,5,4,0:0:0:0:
288,359,74623,6,0,B|269:304|269:304|286:163,1,175,4|2,0:0|0:0,0:0:0:0:
300,105,75652,1,8,0:0:0:0:
363,159,75946,2,0,P|408:158|454:143,1,70,2|8,0:0|0:0,0:0:0:0:
506,113,76534,1,2,0:0:0:0:
410,31,76976,6,0,B|355:49|355:49|214:32,1,175,4|2,0:0|0:0,0:0:0:0:
156,20,78005,1,8,0:0:0:0:
171,102,78299,2,0,P|170:147|155:193,1,70,2|8,0:0|0:0,0:0:0:0:
121,243,78887,1,8,0:0:0:0:
37,337,79328,6,0,L|221:350,1,175,4|8,0:0|0:0,0:0:0:0:
295,359,80358,1,8,0:0:0:0:
261,281,80652,2,0,P|262:236|277:190,1,70,8|8,0:0|0:0,0:0:0:0:
318,145,81240,1,8,0:0:0:0:
237,48,81681,6,0,P|148:28|49:68,1,175,4|8,0:0|0:0,0:0:0:0:
23,123,82711,1,8,0:0:0:0:
93,170,83005,2,0,L|87:262,1,70,10|10,0:0|0:0,0:0:0:0:
33,302,83593,2,0,L|38:358,2,35,10|8|8,0:0|0:0|0:0,0:0:0:0:
256,192,84181,12,8,87564,0:0:0:0:
