osu file format v14

[General]
AudioFilename: audio.mp3
AudioLeadIn: 0
PreviewTime: 56976
Countdown: 0
SampleSet: Normal
StackLeniency: 0.7
Mode: 0
LetterboxInBreaks: 0
WidescreenStoryboard: 1

[Editor]
DistanceSpacing: 1
BeatDivisor: 2
GridSize: 16
TimelineZoom: 1.8

[Metadata]
Title:Sora ni Utaeba -TV edit.-
TitleUnicode:空に歌えば -TV edit.-
Artist:amazarashi
ArtistUnicode:amazarashi
Creator:Ryuusei Aika
Version:Normal
Source:僕のヒーローアカデミア
Tags:Boku no my hero academia ヒロアカ heroaca 2期 第2期 第2クール second season op opening theme size gary00737 pata-mon Left Firis Mistlud kurantemelodii
BeatmapID:1357769
BeatmapSetID:637150

[Difficulty]
HPDrainRate:3
CircleSize:3.5
OverallDifficulty:4
ApproachRate:5.5
SliderMultiplier:1.1
SliderTickRate:1

[Events]
//Background and Video events
0,0,"BG.jpg",0,0
Video,250,"Sora Ni Utaeba.avi"
//Break Periods
//Storyboard Layer 0 (Background)
//Storyboard Layer 1 (Fail)
//Storyboard Layer 2 (Pass)
//Storyboard Layer 3 (Foreground)
//Storyboard Sound Samples

[TimingPoints]
-524,294.117647058824,4,1,1,40,1,0
505,-100,4,1,1,40,0,0
1681,-100,4,1,1,50,0,0
11240,-100,4,1,1,60,0,0
16534,-100,4,1,2,60,0,0
17417,-100,4,1,1,60,0,0
18152,-100,4,1,2,80,0,0
18299,-100,4,1,1,80,0,0
27564,-100,4,1,1,40,0,0
29917,-100,4,1,1,50,0,0
39328,-100,4,1,2,60,0,0
39476,-100,4,1,1,60,0,0
57123,-100,4,1,1,50,0,0
58152,-100,4,1,2,80,0,1
58299,-100,4,1,1,80,0,1
67711,-100,4,1,2,80,0,1
67784,-100,4,1,1,80,0,1
72417,-100,4,1,1,50,0,0
74623,-100,4,1,2,80,0,0
74770,-100,4,1,1,80,0,0
79328,-100,4,1,2,100,0,0
79402,-100,4,1,1,100,0,0
84034,-100,4,1,1,60,0,0
84181,-100,4,1,1,30,0,0
87417,-100,4,1,1,70,0,0
87564,-100,4,1,2,70,0,0

[Colours]
Combo1 : 211,220,197
Combo2 : 216,239,32
Combo3 : 114,134,108
Combo4 : 138,153,0

[HitObjects]
96,96,505,5,0,0:0:0:0:
132,135,652,2,0,L|278:105,1,110,2|0,0:0|0:0,0:0:0:0:
328,49,1240,2,0,P|345:82|336:164,1,110,2|0,0:0|0:0,0:0:0:0:
322,204,1681,2,0,L|468:173,1,110,4|0,0:0|0:0,0:0:0:0:
465,220,2123,1,0,0:0:0:0:
293,357,2711,1,0,0:0:0:0:
231,266,3005,6,0,P|177:258|126:279,1,110,4|0,0:0|0:0,0:0:0:0:
23,303,3593,2,0,P|30:249|9:198,1,110,0|0,0:0|0:0,0:0:0:0:
24,147,4034,2,0,L|170:116,1,110,4|0,0:0|0:0,0:0:0:0:
146,73,4476,1,0,0:0:0:0:
355,124,5064,2,0,L|372:52,1,55,0|0,0:0|0:0,0:0:0:0:
404,30,5358,6,0,L|288:33,2,110,4|0|0,0:0|0:0|0:0,0:0:0:0:
460,119,6240,1,8,0:0:0:0:
496,158,6387,2,0,L|499:273,1,110,4|0,0:0|0:0,0:0:0:0:
462,306,6828,1,2,0:0:0:0:
356,274,7123,6,0,P|303:260|250:275,1,110,2|2,0:0|0:0,0:0:0:0:
147,308,7711,2,0,P|94:321|41:306,1,110,6|2,0:0|0:0,0:0:0:0:
98,212,8299,2,0,L|105:103,1,110,2|8,0:0|0:0,0:0:0:0:
146,66,8740,6,0,L|282:69,1,110,4|0,0:0|0:0,0:0:0:0:
301,99,9181,1,2,0:0:0:0:
395,45,9476,2,0,P|409:99|393:154,1,110,2|2,0:0|0:0,0:0:0:0:
303,205,10064,1,4,0:0:0:0:
210,259,10358,2,0,L|130:260,1,55,2|0,0:0|0:0,0:0:0:0:
118,298,10652,2,0,P|131:245|117:192,1,110,8|8,0:0|0:0,0:0:0:0:
88,88,11240,5,6,0:0:0:0:
192,54,11534,2,0,L|301:55,1,110,2|8,0:0|0:0,0:0:0:0:
394,0,12123,2,0,P|408:53|395:106,1,110,2|2,0:0|0:0,0:0:0:0:
302,165,12711,2,0,L|303:274,1,110,2|8,0:0|0:0,0:0:0:0:
210,335,13299,2,0,P|156:347|102:334,1,110,2|2,0:0|0:0,0:0:0:0:
11,274,13887,6,0,L|11:219,1,55,2|0,0:0|0:0,0:0:0:0:
56,187,14181,2,0,P|68:133|56:80,1,110,8|2,0:0|0:0,0:0:0:0:
11,48,14623,2,0,L|121:36,1,110
169,64,15064,2,0,L|224:69,1,55,2|2,0:0|0:0,0:0:0:0:
276,54,15358,2,0,L|281:-1,2,55,8|2|2,0:0|0:0|0:0,0:0:0:0:
339,142,15946,5,2,0:0:0:0:
262,220,16240,2,0,L|262:282,1,55,2|2,0:0|0:0,0:0:0:0:
264,329,16534,2,0,P|316:315|369:328,1,110,2|0,0:0|0:0,0:0:0:0:
386,379,16976,2,0,L|420:247,1,110,2|0,0:0|0:0,0:0:0:0:
439,224,17417,2,0,L|504:241,2,55,8|8|0,0:0|0:0|0:0,0:0:0:0:
322,107,18152,6,0,P|264:90|203:110,1,110,4|0,0:0|0:0,0:0:0:0:
192,150,18593,2,0,L|83:168,1,110,8|2,0:0|0:0,0:0:0:0:
0,239,19181,1,8,0:0:0:0:
37,341,19476,2,0,L|146:360,1,110,2|8,0:0|0:0,0:0:0:0:
198,264,20064,2,0,P|256:247|317:267,1,110,2|8,0:0|0:0,0:0:0:0:
328,307,20505,6,0,L|436:288,1,110,4|0,0:0|0:0,0:0:0:0:
484,262,20946,2,0,P|495:208|478:157,1,110,8|2,0:0|0:0,0:0:0:0:
382,105,21534,1,8,0:0:0:0:
286,53,21828,2,0,P|232:64|181:47,1,110,2|8,0:0|0:0,0:0:0:0:
85,99,22417,2,0,L|66:208,1,110,8|8,0:0|0:0,0:0:0:0:
40,255,22858,6,0,P|94:244|145:261,1,110,4|0,0:0|0:0,0:0:0:0:
171,308,23299,2,0,L|280:289,1,110,8|2,0:0|0:0,0:0:0:0:
374,237,23887,1,8,0:0:0:0:
470,185,24181,2,0,L|477:74,1,110,2|8,0:0|0:0,0:0:0:0:
381,23,24770,2,0,P|327:12|276:29,1,110,2|8,0:0|0:0,0:0:0:0:
237,68,25211,6,0,L|126:75,1,110,4|0,0:0|0:0,0:0:0:0:
80,48,25652,2,0,P|96:99|85:152,1,110,8|2,0:0|0:0,0:0:0:0:
30,250,26240,1,8,0:0:0:0:
121,308,26534,2,0,P|172:324|225:313,1,110,10|10,0:0|0:0,0:0:0:0:
318,254,27123,2,0,L|428:261,1,110,10|2,0:0|0:0,0:0:0:0:
474,289,27564,6,0,L|467:179,1,110,4|0,0:0|0:0,0:0:0:0:
494,132,28005,1,8,0:0:0:0:
400,78,28299,2,0,P|346:66|294:82,1,110,2|8,0:0|0:0,0:0:0:0:
240,176,28887,2,0,P|186:188|134:172,1,110,2|8,0:0|0:0,0:0:0:0:
84,81,29476,1,8,0:0:0:0:
84,81,29623,1,8,0:0:0:0:
26,173,29917,6,0,P|14:240|29:286,1,110,6|0,0:0|0:0,0:0:0:0:
66,316,30358,1,8,0:0:0:0:
130,227,30652,2,0,L|240:220,1,110,2|8,0:0|0:0,0:0:0:0:
304,309,31240,2,0,L|414:316,1,110,0|8,0:0|0:0,0:0:0:0:
477,226,31828,2,0,L|480:171,1,55,2|2,0:0|0:0,0:0:0:0:
500,122,32123,1,8,0:0:0:0:
500,122,32270,6,0,P|446:134|393:121,1,110,2|0,0:0|0:0,0:0:0:0:
357,82,32711,1,8,0:0:0:0:
315,183,33005,2,0,L|192:189,1,110,2|8,0:0|0:0,0:0:0:0:
163,223,33446,2,0,P|171:169|157:116,1,110,0|2,0:0|0:0,0:0:0:0:
110,87,33887,1,8,0:0:0:0:
38,176,34181,2,0,L|35:231,1,55,2|2,0:0|0:0,0:0:0:0:
12,283,34476,1,8,0:0:0:0:
12,283,34623,6,0,L|122:289,1,110,2|0,0:0|0:0,0:0:0:0:
143,340,35064,1,8,0:0:0:0:
224,266,35358,2,0,P|278:254|331:266,1,110,2|8,0:0|0:0,0:0:0:0:
411,339,35946,2,0,L|434:230,1,110,2|8,0:0|0:0,0:0:0:0:
456,125,36534,2,0,L|444:70,1,55,2|2,0:0|0:0,0:0:0:0:
397,48,36828,1,8,0:0:0:0:
397,48,36976,6,0,P|343:60|290:48,1,110,2|0,0:0|0:0,0:0:0:0:
243,25,37417,1,8,0:0:0:0:
144,71,37711,2,0,L|89:64,2,55,2|2|8,0:0|0:0|0:0,0:0:0:0:
220,150,38299,2,0,L|214:205,2,55,2|2|8,0:0|0:0|0:0,0:0:0:0:
328,172,38887,2,0,L|334:116,2,55,8|2|2,0:0|0:0|0:0,0:0:0:0:
359,217,39328,6,0,P|413:229|466:217,1,110,6|0,0:0|0:0,0:0:0:0:
496,172,39770,1,8,0:0:0:0:
412,97,40064,2,0,L|300:85,1,110,2|8,0:0|0:0,0:0:0:0:
218,11,40652,2,0,L|106:23,1,110,2|8,0:0|0:0,0:0:0:0:
24,96,41240,2,0,L|18:152,1,55,2|2,0:0|0:0,0:0:0:0:
0,205,41534,1,8,0:0:0:0:
0,205,41681,6,0,P|53:193|106:205,1,110,2|0,0:0|0:0,0:0:0:0:
148,242,42123,1,8,0:0:0:0:
232,316,42417,2,0,L|226:370,2,55,2|2|8,0:0|0:0|0:0,0:0:0:0:
273,279,42858,2,0,L|384:291,1,110,2|0,0:0|0:0,0:0:0:0:
423,254,43299,1,8,0:0:0:0:
497,170,43593,2,0,L|491:116,1,55,2|2,0:0|0:0,0:0:0:0:
477,67,43887,1,8,0:0:0:0:
477,67,44034,6,0,L|347:81,1,110,6|0,0:0|0:0,0:0:0:0:
326,43,44476,1,8,0:0:0:0:
242,117,44770,2,0,L|236:171,2,55,2|0|8,0:0|0:0|0:0,0:0:0:0:
201,80,45211,2,0,P|147:67|94:80,1,110,2|0,0:0|0:0,0:0:0:0:
52,117,45652,1,8,0:0:0:0:
15,225,45946,2,0,L|21:279,1,55,2|2,0:0|0:0,0:0:0:0:
0,332,46240,1,8,0:0:0:0:
0,332,46387,6,0,L|118:318,1,110,6|2,0:0|0:0,0:0:0:0:
153,354,46828,1,8,0:0:0:0:
253,303,47123,2,0,L|247:249,2,55,2|2|8,0:0|0:0|0:0,0:0:0:0:
353,253,47711,2,0,L|407:247,2,55,8|2|2,0:0|0:0|0:0,0:0:0:0:
357,143,48299,2,0,L|351:89,2,55,8|2|2,0:0|0:0|0:0,0:0:0:0:
313,177,48740,1,8,0:0:0:0:
313,177,48887,6,0,L|259:183,2,55,12|8|2,0:0|0:0|0:0,0:0:0:0:
173,265,49623,2,0,L|118:259,2,55,8|8|8,0:0|0:0|0:0,0:0:0:0:
94,65,50505,1,8,0:0:0:0:
94,65,50652,2,0,L|100:11,2,55,8|8|8,0:0|0:0|0:0,0:0:0:0:
48,95,51093,6,0,L|42:149,1,55,8|4,0:0|0:0,0:0:0:0:
90,248,51534,2,0,L|96:302,2,55,8|8|0,0:0|0:0|0:0,0:0:0:0:
139,149,52123,2,0,P|192:161|244:148,1,110,2|4,0:0|0:0,0:0:0:0:
288,248,52711,2,0,L|282:301,1,55,2|0,0:0|0:0,0:0:0:0:
252,350,53005,2,0,P|306:337|359:350,1,110,4|2,0:0|0:0,0:0:0:0:
452,293,53593,5,6,0:0:0:0:
473,185,53887,2,0,L|477:113,1,55,8|8,0:0|0:0,0:0:0:0:
505,83,54181,2,0,P|451:96|398:83,1,110
304,27,54770,2,0,P|250:14|198:27,1,110
90,47,55358,2,0,P|103:101|90:154,1,110,2|2,0:0|0:0,0:0:0:0:
65,204,55799,1,2,0:0:0:0:
65,204,55946,6,0,P|119:191|172:204,1,110,8|8,0:0|0:0,0:0:0:0:
269,252,56534,1,8,0:0:0:0:
378,243,56828,1,8,0:0:0:0:
412,139,57123,2,0,P|422:84|401:29,2,110
309,105,58005,1,0,0:0:0:0:
257,88,58152,6,0,L|148:96,1,110,4|0,0:0|0:0,0:0:0:0:
113,139,58593,1,8,0:0:0:0:
65,238,58887,2,0,L|10:242,2,55,2|2|8,0:0|0:0|0:0,0:0:0:0:
81,348,59476,2,0,L|135:342,1,55,2|2,0:0|0:0,0:0:0:0:
185,320,59770,2,0,L|294:330,1,110,8|2,0:0|0:0,0:0:0:0:
400,302,60358,1,8,0:0:0:0:
441,268,60505,6,0,P|456:215|442:162,1,110,2|0,0:0|0:0,0:0:0:0:
412,117,60946,1,8,0:0:0:0:
321,54,61240,2,0,L|317:-1,2,55,2|2|8,0:0|0:0|0:0,0:0:0:0:
236,125,61828,2,0,L|121:139,1,110,2|8,0:0|0:0,0:0:0:0:
127,248,62417,2,0,L|181:254,1,55,2|2,0:0|0:0,0:0:0:0:
236,280,62711,1,8,0:0:0:0:
236,280,62858,6,0,P|288:266|340:281,1,110,2|0,0:0|0:0,0:0:0:0:
384,315,63299,1,8,0:0:0:0:
450,227,63593,2,0,L|505:234,2,55,2|2|8,0:0|0:0|0:0,0:0:0:0:
375,146,64181,2,0,L|381:91,2,55,2|2|8,0:0|0:0|0:0,0:0:0:0:
266,127,64770,2,0,L|260:182,1,55,2|2,0:0|0:0,0:0:0:0:
218,217,65064,1,8,0:0:0:0:
218,217,65211,6,0,L|109:207,1,110,2|0,0:0|0:0,0:0:0:0:
66,171,65652,1,8,0:0:0:0:
3,262,65946,2,0,P|-11:321|7:375,1,110,2|8,0:0|0:0,0:0:0:0:
94,316,66534,2,0,L|203:326,1,110,2|8,0:0|0:0,0:0:0:0:
282,248,67123,2,0,P|334:233|386:248,1,110,2|10,0:0|0:0,0:0:0:0:
474,314,67711,5,4,0:0:0:0:
487,205,68005,2,0,P|502:153|487:101,1,110,2|8,0:0|0:0,0:0:0:0:
393,43,68593,2,0,L|329:51,1,55,2|8,0:0|0:0,0:0:0:0:
288,74,68887,2,0,L|224:66,1,55,2|0,0:0|0:0,0:0:0:0:
188,99,69181,2,0,P|136:114|84:99,1,110,2|8,0:0|0:0,0:0:0:0:
42,201,69770,2,0,L|106:209,1,55,2|8,0:0|0:0,0:0:0:0:
147,232,70064,6,0,L|211:224,1,55,2|0,0:0|0:0,0:0:0:0:
247,257,70358,1,8,0:0:0:0:
288,359,70652,2,0,L|397:369,1,110,2|8,0:0|0:0,0:0:0:0:
443,340,71093,2,0,P|428:288|443:236,1,110,2|0,0:0|0:0,0:0:0:0:
489,206,71534,2,0,L|479:97,1,110,8|0,0:0|0:0,0:0:0:0:
501,47,71976,2,0,L|447:52,1,55,2|10,0:0|0:0,0:0:0:0:
362,123,72417,6,0,B|132:144|132:144|213:87,1,330,4|0,0:0|0:0,0:0:0:0:
280,296,73887,2,0,L|171:306,1,110,0|0,0:0|0:0,0:0:0:0:
77,363,74476,1,0,0:0:0:0:
77,363,74623,6,0,P|60:305|80:244,1,110,4|2,0:0|0:0,0:0:0:0:
120,233,75064,2,0,L|102:124,1,110,8|2,0:0|0:0,0:0:0:0:
165,34,75652,1,8,0:0:0:0:
256,98,75946,2,0,P|309:109|360:92,1,110,2|8,0:0|0:0,0:0:0:0:
451,28,76534,2,0,L|469:137,1,110,2|10,0:0|0:0,0:0:0:0:
439,182,76976,6,0,L|421:291,1,110,4|2,0:0|0:0,0:0:0:0:
450,336,77417,2,0,P|396:324|345:341,1,110,8|2,0:0|0:0,0:0:0:0:
256,277,78005,1,8,0:0:0:0:
166,341,78299,2,0,L|57:323,1,110,2|8,0:0|0:0,0:0:0:0:
127,237,78887,2,0,P|138:183|121:132,1,110,8|8,0:0|0:0,0:0:0:0:
91,86,79328,6,0,P|145:98|196:81,1,110,4|2,0:0|0:0,0:0:0:0:
242,50,79770,2,0,L|296:59,1,55,8|2,0:0|0:0,0:0:0:0:
343,90,80064,2,0,L|397:81,1,55,8|2,0:0|0:0,0:0:0:0:
444,50,80358,2,0,L|462:159,1,110,8|8,0:0|0:0,0:0:0:0:
377,229,80946,1,8,0:0:0:0:
292,299,81240,2,0,L|301:353,2,55,8|8|8,0:0|0:0|0:0,0:0:0:0:
249,261,81681,6,0,P|195:249|144:266,1,110,4|2,0:0|0:0,0:0:0:0:
103,228,82123,2,0,L|94:173,1,55,8|2,0:0|0:0,0:0:0:0:
53,136,82417,2,0,L|62:81,1,55,8|2,0:0|0:0,0:0:0:0:
101,41,82711,2,0,P|155:29|206:46,1,110,8|10,0:0|0:0,0:0:0:0:
295,109,83299,1,10,0:0:0:0:
396,64,83593,2,0,L|405:9,2,55,10|8|8,0:0|0:0|0:0,0:0:0:0:
438,98,84034,6,0,P|508:204|416:289,1,275,4|0,0:0|0:0,0:0:0:0:
252,260,85211,6,0,B|167:250|167:250|91:337|91:337|5:326,1,275
46,165,86387,6,0,P|71:40|196:45,1,275,0|0,0:0|0:0,0:0:0:0:
277,126,87417,5,8,0:0:0:0:
277,126,87564,1,8,0:0:0:0:
