osu file format v14

[General]
AudioFilename: audio.mp3
AudioLeadIn: 0
PreviewTime: 56976
Countdown: 0
SampleSet: Normal
StackLeniency: 0.7
Mode: 0
LetterboxInBreaks: 0
WidescreenStoryboard: 1

[Editor]
DistanceSpacing: 1.4
BeatDivisor: 4
GridSize: 8
TimelineZoom: 2.899999

[Metadata]
Title:Sora ni Utaeba -TV edit.-
TitleUnicode:空に歌えば -TV edit.-
Artist:amazarashi
ArtistUnicode:amazarashi
Creator:Ryuusei Aika
Version:Insane
Source:僕のヒーローアカデミア
Tags:Boku no my hero academia ヒロアカ heroaca 2期 第2期 第2クール second season op opening theme size gary00737 pata-mon Left Firis Mistlud kurantemelodii
BeatmapID:1379738
BeatmapSetID:637150

[Difficulty]
HPDrainRate:6
CircleSize:4
OverallDifficulty:7.5
ApproachRate:9
SliderMultiplier:1.6
SliderTickRate:1

[Events]
//Background and Video events
0,0,"BG.jpg",0,0
Video,250,"Sora Ni Utaeba.avi"
//Break Periods
//Storyboard Layer 0 (Background)
//Storyboard Layer 1 (Fail)
//Storyboard Layer 2 (Pass)
//Storyboard Layer 3 (Foreground)
//Storyboard Sound Samples

[TimingPoints]
-524,294.117647058824,4,1,1,40,1,0
505,-125,4,1,1,40,0,0
1681,-125,4,1,1,50,0,0
11240,-100,4,1,1,60,0,0
16534,-100,4,1,2,60,0,0
17417,-100,4,1,1,60,0,0
18152,-83.3333333333333,4,1,2,80,0,0
18299,-83.3333333333333,4,1,1,80,0,0
27564,-125,4,1,1,40,0,0
29917,-125,4,1,1,50,0,0
39328,-100,4,1,2,60,0,0
39476,-100,4,1,1,60,0,0
57123,-100,4,1,1,50,0,0
58152,-83.3333333333333,4,1,2,80,0,1
58299,-83.3333333333333,4,1,1,80,0,1
67711,-83.3333333333333,4,1,2,80,0,1
67784,-83.3333333333333,4,1,1,80,0,1
72417,-125,4,1,1,50,0,0
74623,-83.3333333333333,4,1,2,80,0,0
74770,-83.3333333333333,4,1,1,80,0,0
79328,-83.3333333333333,4,1,2,100,0,0
79402,-83.3333333333333,4,1,1,100,0,0
84034,-125,4,1,1,60,0,0
84181,-125,4,1,1,30,0,0
87417,-125,4,1,1,70,0,0
87564,-83.3333333333333,4,1,2,70,0,0

[Colours]
Combo1 : 211,220,197
Combo2 : 216,239,32
Combo3 : 114,134,108
Combo4 : 138,153,0

[HitObjects]
91,314,505,5,0,0:0:0:0:
91,314,652,2,0,L|232:299,1,128,2|0,0:0|0:0,0:0:0:0:
207,179,1240,2,0,P|195:241|218:300,1,128,2|0,0:0|0:0,0:0:0:0:
298,231,1681,2,0,P|311:169|288:111,1,128,4|0,0:0|0:0,0:0:0:0:
188,74,2123,2,0,L|59:86,1,128
207,179,2711,1,0,0:0:0:0:
288,111,3005,6,0,L|429:126,1,128,4|0,0:0|0:0,0:0:0:0:
405,246,3593,2,0,P|393:183|416:125,1,128,0|0,0:0|0:0,0:0:0:0:
496,193,4034,2,0,P|508:255|485:314,1,128,4|0,0:0|0:0,0:0:0:0:
386,348,4476,2,0,L|257:336,1,128,0|0,0:0|0:0,0:0:0:0:
106,145,5063,1,0,0:0:0:0:
106,145,5210,1,0,0:0:0:0:
106,145,5357,6,0,P|141:143|180:150,1,64,4|0,0:0|0:0,0:0:0:0:
135,249,5652,2,0,P|100:251|61:244,1,64
122,129,5946,2,0,P|157:127|196:134,1,64
263,234,6240,1,8,0:0:0:0:
340,131,6387,2,0,L|357:-5,1,128,4|0,0:0|0:0,0:0:0:0:
432,106,6828,2,0,P|434:141|421:184,1,64,0|0,0:0|0:0,0:0:0:0:
350,225,7123,6,0,P|348:260|361:303,1,64,2|0,0:0|0:0,0:0:0:0:
498,277,7417,2,0,P|472:259|442:250,1,64,2|0,0:0|0:0,0:0:0:0:
378,380,7711,2,0,P|406:366|430:344,1,64,6|0,0:0|0:0,0:0:0:0:
350,225,8005,2,0,L|286:217,1,64,2|0,0:0|0:0,0:0:0:0:
211,273,8299,2,0,L|147:280,1,64,2|0,0:0|0:0,0:0:0:0:
72,225,8593,1,8,0:0:0:0:
72,225,8740,6,0,P|94:166|82:104,1,128,4|0,0:0|0:0,0:0:0:0:
7,49,9181,2,0,L|-2:129,1,64,2|0,0:0|0:0,0:0:0:0:
167,66,9476,2,0,L|176:-14,1,64,2|0,0:0|0:0,0:0:0:0:
242,121,9770,2,0,L|233:201,1,64,2|0,0:0|0:0,0:0:0:0:
327,83,10064,6,0,P|389:71|447:94,1,128,4|2,0:0|0:0,0:0:0:0:
486,194,10505,1,0,0:0:0:0:
417,277,10652,1,8,0:0:0:0:
380,176,10799,1,8,0:0:0:0:
417,277,10946,1,8,0:0:0:0:
380,176,11093,1,8,0:0:0:0:
486,194,11240,1,6,0:0:0:0:
245,341,11534,6,0,L|161:336,1,80,2|0,0:0|0:0,0:0:0:0:
172,184,11828,2,0,P|190:261|165:335,1,160,8|2,0:0|0:0,0:0:0:0:
60,253,12417,1,2,0:0:0:0:
184,21,12711,2,0,L|267:26,1,80,0|0,0:0|0:0,0:0:0:0:
258,178,13005,2,0,P|239:101|265:26,1,160,8|2,0:0|0:0,0:0:0:0:
370,109,13593,1,2,0:0:0:0:
424,317,13887,6,0,L|506:323,1,80,0|0,0:0|0:0,0:0:0:0:
374,241,14181,2,0,L|291:247,1,80,8|0,0:0|0:0,0:0:0:0:
244,170,14476,1,2,0:0:0:0:
194,94,14623,2,0,P|213:171|187:246,1,160,0|0,0:0|0:0,0:0:0:0:
131,321,15064,2,0,L|44:311,1,80,2|2,0:0|0:0,0:0:0:0:
13,224,15358,2,0,L|93:234,1,80,8|2,0:0|0:0,0:0:0:0:
133,155,15652,2,0,P|173:151|219:163,1,80,2|0,0:0|0:0,0:0:0:0:
331,228,15946,6,0,L|251:238,1,80,2|2,0:0|0:0,0:0:0:0:
370,305,16240,2,0,L|290:315,1,80,2|2,0:0|0:0,0:0:0:0:
370,151,16534,1,2,0:0:0:0:
409,228,16681,2,0,P|447:237|485:228,1,80,2|0,0:0|0:0,0:0:0:0:
370,151,16976,2,0,P|389:227|369:304,1,160,2|0,0:0|0:0,0:0:0:0:
236,355,17417,5,8,0:0:0:0:
116,233,17564,1,8,0:0:0:0:
116,233,18152,6,0,L|140:40,1,191.999994140625,4|0,0:0|0:0,0:0:0:0:
219,144,18593,2,0,P|173:152|127:137,1,95.9999970703126,8|0,0:0|0:0,0:0:0:0:
317,105,18887,6,0,P|325:151|310:197,1,95.9999970703126,2|2,0:0|0:0,0:0:0:0:
218,247,19181,2,0,P|210:294|225:340,1,95.9999970703126,8|0,0:0|0:0,0:0:0:0:
316,287,19476,6,0,L|411:298,1,95.9999970703126,2|0,0:0|0:0,0:0:0:0:
309,197,19770,2,0,L|405:209,1,95.9999970703126,8|0,0:0|0:0,0:0:0:0:
398,117,20064,5,2,0:0:0:0:
316,287,20211,1,2,0:0:0:0:
210,131,20358,1,8,0:0:0:0:
13,225,20505,6,0,L|203:248,1,191.999994140625,4|0,0:0|0:0,0:0:0:0:
114,145,20946,2,0,P|121:191|106:237,1,95.9999970703126,8|0,0:0|0:0,0:0:0:0:
74,48,21240,6,0,P|120:40|166:55,1,95.9999970703126,2|0,0:0|0:0,0:0:0:0:
218,147,21534,2,0,P|264:154|310:139,1,95.9999970703126,0|8,0:0|0:0,0:0:0:0:
361,46,21828,6,0,L|457:34,1,95.9999970703126,2|0,0:0|0:0,0:0:0:0:
415,136,22123,2,0,L|511:124,1,95.9999970703126,8|0,0:0|0:0,0:0:0:0:
364,228,22417,5,8,0:0:0:0:
215,83,22564,1,8,0:0:0:0:
164,285,22711,1,8,0:0:0:0:
309,136,22858,6,0,L|499:113,1,191.999994140625,4|0,0:0|0:0,0:0:0:0:
420,215,23299,2,0,P|401:172|403:124,1,95.9999970703126,8|0,0:0|0:0,0:0:0:0:
493,287,23593,6,0,P|452:313|406:318,1,95.9999970703126,2|2,0:0|0:0,0:0:0:0:
323,253,23887,2,0,P|282:226|236:221,1,95.9999970703126,8|0,0:0|0:0,0:0:0:0:
153,287,24181,6,0,L|58:275,1,95.9999970703126,2|0,0:0|0:0,0:0:0:0:
136,181,24476,2,0,L|41:169,1,95.9999970703126,8|0,0:0|0:0,0:0:0:0:
119,75,24770,5,2,0:0:0:0:
236,220,24917,1,0,0:0:0:0:
304,47,25064,1,8,0:0:0:0:
512,130,25212,6,0,L|322:153,1,191.999994140625,4|0,0:0|0:0,0:0:0:0:
407,233,25652,2,0,P|400:185|415:140,1,95.9999970703126,8|0,0:0|0:0,0:0:0:0:
480,303,25946,6,0,P|438:327|391:332,1,95.9999970703126,2|2,0:0|0:0,0:0:0:0:
311,269,26240,2,0,P|270:244|223:237,1,95.9999970703126,8|0,0:0|0:0,0:0:0:0:
143,303,26534,6,0,L|48:315,1,95.9999970703126,10|0,0:0|0:0,0:0:0:0:
128,202,26828,2,0,L|32:214,1,95.9999970703126,10|2,0:0|0:0,0:0:0:0:
209,137,27123,5,10,0:0:0:0:
358,280,27270,1,2,0:0:0:0:
409,81,27417,1,2,0:0:0:0:
326,167,27564,6,0,P|393:206|446:202,1,128,4|0,0:0|0:0,0:0:0:0:
512,125,28005,5,8,0:0:0:0:
408,103,28299,1,2,0:0:0:0:
304,81,28593,1,8,0:0:0:0:
200,59,28887,1,2,0:0:0:0:
96,37,29181,1,8,0:0:0:0:
329,189,29476,5,8,0:0:0:0:
304,81,29623,1,8,0:0:0:0:
355,298,29917,6,0,L|219:292,1,128,6|0,0:0|0:0,0:0:0:0:
175,354,30358,1,8,0:0:0:0:
108,152,30652,2,0,P|123:91|105:30,1,128,2|8,0:0|0:0,0:0:0:0:
47,204,31240,6,0,L|174:198,1,128,0|8,0:0|0:0,0:0:0:0:
354,223,31828,2,0,L|357:291,1,64,2|2,0:0|0:0,0:0:0:0:
426,184,32123,1,8,0:0:0:0:
426,184,32270,6,0,P|441:115|413:47,1,128,2|0,0:0|0:0,0:0:0:0:
361,10,32711,1,8,0:0:0:0:
242,153,33005,2,0,L|178:150,1,64,2|0,0:0|0:0,0:0:0:0:
122,88,33299,1,8,0:0:0:0:
122,88,33446,6,0,P|140:149|126:211,1,128,2|0,0:0|0:0,0:0:0:0:
66,265,33887,1,8,0:0:0:0:
247,224,34181,2,0,L|311:227,1,64,2|2,0:0|0:0,0:0:0:0:
367,289,34475,1,8,0:0:0:0:
367,289,34622,6,0,P|349:228|363:166,1,128,2|0,0:0|0:0,0:0:0:0:
423,112,35064,1,8,0:0:0:0:
367,289,35358,1,2,0:0:0:0:
242,153,35652,1,8,0:0:0:0:
419,209,35946,5,2,0:0:0:0:
237,249,36240,1,8,0:0:0:0:
292,72,36534,1,2,0:0:0:0:
292,72,36681,1,2,0:0:0:0:
292,72,36828,2,0,L|221:65,1,64,8|2,0:0|0:0,0:0:0:0:
167,120,37123,6,0,L|103:125,1,64,0|2,0:0|0:0,0:0:0:0:
103,124,37417,1,8,0:0:0:0:
15,283,37711,2,0,L|85:289,1,64,2|2,0:0|0:0,0:0:0:0:
78,288,38005,1,8,0:0:0:0:
235,227,38299,5,2,0:0:0:0:
235,227,38446,1,0,0:0:0:0:
235,227,38593,2,0,L|305:221,1,64,8|2,0:0|0:0,0:0:0:0:
360,275,38887,2,0,L|431:281,1,64,8|2,0:0|0:0,0:0:0:0:
485,227,39181,1,2,0:0:0:0:
485,227,39328,6,0,P|462:150|480:73,1,160,6|0,0:0|0:0,0:0:0:0:
406,10,39770,2,0,L|326:16,1,80,8|0,0:0|0:0,0:0:0:0:
253,80,40064,2,0,L|173:73,1,80,2|0,0:0|0:0,0:0:0:0:
20,130,40358,2,0,L|99:136,1,80,8|2,0:0|0:0,0:0:0:0:
170,273,40652,6,0,P|180:235|172:197,1,80,2|0,0:0|0:0,0:0:0:0:
130,357,40946,2,0,P|168:367|206:359,1,80,8|0,0:0|0:0,0:0:0:0:
263,284,41240,2,0,L|343:290,1,80,2|2,0:0|0:0,0:0:0:0:
398,364,41534,1,8,0:0:0:0:
454,290,41681,6,0,P|477:213|459:136,1,160,2|0,0:0|0:0,0:0:0:0:
400,60,42123,2,0,P|362:70|324:62,1,80,8|0,0:0|0:0,0:0:0:0:
232,23,42417,2,0,L|152:29,1,80,2|2,0:0|0:0,0:0:0:0:
62,66,42711,1,8,0:0:0:0:
56,218,42858,6,0,P|79:143|62:66,1,160,2|0,0:0|0:0,0:0:0:0:
127,144,43299,2,0,P|165:154|203:146,1,80,8|0,0:0|0:0,0:0:0:0:
275,71,43593,2,0,P|313:61|351:69,1,80,2|2,0:0|0:0,0:0:0:0:
423,144,43887,1,8,0:0:0:0:
494,69,44034,6,0,P|471:144|488:221,1,160,6|0,0:0|0:0,0:0:0:0:
410,284,44476,2,0,L|330:278,1,80,8|0,0:0|0:0,0:0:0:0:
240,316,44770,2,0,P|201:324|162:314,1,80,2|0,0:0|0:0,0:0:0:0:
72,276,45064,1,8,0:0:0:0:
60,116,45211,6,0,L|72:276,1,160,2|0,0:0|0:0,0:0:0:0:
113,192,45652,2,0,P|152:184|191:194,1,80,8|0,0:0|0:0,0:0:0:0:
280,231,45946,2,0,L|360:225,1,80,2|2,0:0|0:0,0:0:0:0:
449,263,46240,1,8,0:0:0:0:
488,174,46387,6,0,L|476:14,1,160,6|2,0:0|0:0,0:0:0:0:
378,122,46828,2,0,P|339:130|300:120,1,80,8|0,0:0|0:0,0:0:0:0:
210,82,47123,2,0,L|130:88,1,80,2|2,0:0|0:0,0:0:0:0:
40,125,47417,1,8,0:0:0:0:
223,179,47711,6,0,L|143:185,1,80,8|2,0:0|0:0,0:0:0:0:
53,222,48005,1,2,0:0:0:0:
236,276,48299,2,0,L|156:282,1,80,8|0,0:0|0:0,0:0:0:0:
223,179,48593,1,0,0:0:0:0:
326,313,48740,1,8,0:0:0:0:
389,156,48887,5,12,0:0:0:0:
389,156,49034,2,0,P|398:117|389:79,1,80,8|2,0:0|0:0,0:0:0:0:
169,114,49476,1,0,0:0:0:0:
168,113,49624,2,0,P|157:74|165:36,2,80,8|8|8,0:0|0:0|0:0,0:0:0:0:
209,199,50064,5,0,0:0:0:0:
5,287,50358,2,0,P|-4:326|5:364,1,80,0|8,0:0|0:0,0:0:0:0:
88,325,50652,2,0,P|126:332|164:321,1,80,8|8,0:0|0:0,0:0:0:0:
248,282,50946,1,8,0:0:0:0:
287,365,51093,1,8,0:0:0:0:
287,365,51167,1,8,0:0:0:0:
287,365,51240,5,4,0:0:0:0:
393,215,51534,1,8,0:0:0:0:
449,138,51681,2,0,L|455:58,1,80,8|0,0:0|0:0,0:0:0:0:
299,225,52123,1,2,0:0:0:0:
355,302,52270,1,2,0:0:0:0:
355,302,52343,1,2,0:0:0:0:
355,302,52417,5,4,0:0:0:0:
205,215,52711,5,2,0:0:0:0:
261,138,52858,2,0,P|268:100|257:62,1,80,0|4,0:0|0:0,0:0:0:0:
111,205,53299,1,2,0:0:0:0:
55,282,53446,1,2,0:0:0:0:
55,282,53520,1,2,0:0:0:0:
55,282,53593,5,6,0:0:0:0:
27,97,53887,1,8,0:0:0:0:
122,84,54034,2,0,L|201:90,1,80,8|0,0:0|0:0,0:0:0:0:
392,60,54476,2,0,L|386:139,1,80,0|0,0:0|0:0,0:0:0:0:
425,221,54770,6,0,P|386:231|348:222,1,80,2|2,0:0|0:0,0:0:0:0:
294,148,55064,2,0,P|255:138|217:147,1,80,2|2,0:0|0:0,0:0:0:0:
163,221,55358,2,0,P|124:231|86:222,1,80,2|2,0:0|0:0,0:0:0:0:
2,184,55652,2,0,P|-5:222|4:261,1,80,2|2,0:0|0:0,0:0:0:0:
13,279,55873,1,2,0:0:0:0:
22,297,55946,5,8,0:0:0:0:
22,297,56093,1,8,0:0:0:0:
163,221,56240,1,8,0:0:0:0:
163,221,56387,1,8,0:0:0:0:
304,297,56534,1,8,0:0:0:0:
304,297,56681,1,8,0:0:0:0:
445,221,56828,2,0,L|448:181,1,40,8|8,0:0|0:0,0:0:0:0:
392,106,56976,2,0,L|395:66,1,40,8|8,0:0|0:0,0:0:0:0:
317,161,57123,6,0,P|278:171|240:162,1,80
156,35,57417,2,0,P|165:73|157:111,1,80
31,196,57711,2,0,P|69:186|107:194,1,80
203,293,58005,1,0,0:0:0:0:
112,350,58152,6,0,P|205:326|296:347,1,191.999994140625,4|0,0:0|0:0,0:0:0:0:
390,304,58593,2,0,L|397:209,1,95.9999970703126,8|0,0:0|0:0,0:0:0:0:
407,64,58887,1,2,0:0:0:0:
474,141,59034,1,2,0:0:0:0:
330,131,59181,2,0,P|282:132|241:156,1,95.9999970703126,8|0,0:0|0:0,0:0:0:0:
75,197,59476,6,0,P|116:221|164:222,1,95.9999970703126,2|2,0:0|0:0,0:0:0:0:
330,131,59770,2,0,L|323:36,1,95.9999970703126,8|0,0:0|0:0,0:0:0:0:
269,218,60064,2,0,L|276:313,1,95.9999970703126,2|2,0:0|0:0,0:0:0:0:
356,353,60358,1,8,0:0:0:0:
453,220,60505,6,0,P|360:196|269:217,1,191.999994140625,2|0,0:0|0:0,0:0:0:0:
189,283,60946,2,0,L|94:276,1,95.9999970703126,8|0,0:0|0:0,0:0:0:0:
26,199,61240,1,2,0:0:0:0:
59,101,61387,1,2,0:0:0:0:
127,179,61534,2,0,L|222:186,1,95.9999970703126,8|0,0:0|0:0,0:0:0:0:
390,116,61828,6,0,P|343:104|297:117,1,95.9999970703126,2|2,0:0|0:0,0:0:0:0:
344,196,62123,2,0,P|390:207|436:194,1,95.9999970703126,8|0,0:0|0:0,0:0:0:0:
376,102,62417,2,0,P|329:90|283:103,1,95.9999970703126,2|2,0:0|0:0,0:0:0:0:
208,172,62711,1,8,0:0:0:0:
132,242,62858,6,0,L|117:48,1,191.999994140625,2|0,0:0|0:0,0:0:0:0:
39,118,63299,2,0,L|32:214,1,95.9999970703126,8|0,0:0|0:0,0:0:0:0:
223,240,63593,2,0,P|178:228|132:241,1,95.9999970703126,2|2,0:0|0:0,0:0:0:0:
178,321,63887,2,0,P|223:333|269:320,1,95.9999970703126,8|0,0:0|0:0,0:0:0:0:
359,160,64181,6,0,P|314:172|268:160,1,95.9999970703126,2|2,0:0|0:0,0:0:0:0:
223,80,64476,2,0,P|268:68|314:80,1,95.9999970703126,8|0,0:0|0:0,0:0:0:0:
495,237,64770,2,0,P|450:225|404:238,1,95.9999970703126,2|2,0:0|0:0,0:0:0:0:
450,318,65064,1,8,0:0:0:0:
495,237,65211,6,0,L|510:43,1,191.999994140625,2|0,0:0|0:0,0:0:0:0:
416,90,65652,2,0,P|371:102|325:89,1,95.9999970703126,8|0,0:0|0:0,0:0:0:0:
183,16,65946,2,0,L|278:9,1,95.9999970703126,2|2,0:0|0:0,0:0:0:0:
136,95,66240,2,0,P|90:108|45:97,1,95.9999970703126,8|0,0:0|0:0,0:0:0:0:
183,16,66534,5,2,0:0:0:0:
215,142,66681,1,2,0:0:0:0:
341,110,66828,2,0,L|397:96,3,47.9999985351563,8|0|0|0,0:0|0:0|0:0|0:0,0:0:0:0:
294,189,67123,2,0,L|308:245,3,47.9999985351563,2|2|2|2,0:0|0:0|0:0|0:0,0:0:0:0:
213,232,67417,2,0,L|225:278,3,47.9999985351563,10|2|2|2,0:0|0:0|0:0|0:0,0:0:0:0:
136,185,67711,5,4,0:0:0:0:
136,185,67858,1,2,0:0:0:0:
136,185,68005,2,0,P|148:140|135:94,1,95.9999970703126,2|0,0:0|0:0,0:0:0:0:
136,185,68299,2,0,L|231:178,1,95.9999970703126,8|0,0:0|0:0,0:0:0:0:
315,81,68593,2,0,P|360:67|406:79,1,95.9999970703126,2|8,0:0|0:0,0:0:0:0:
489,176,68887,5,2,0:0:0:0:
489,176,69034,1,0,0:0:0:0:
489,176,69181,2,0,P|477:221|490:267,1,95.9999970703126,2|0,0:0|0:0,0:0:0:0:
489,176,69476,2,0,L|394:183,1,95.9999970703126,8|0,0:0|0:0,0:0:0:0:
310,280,69770,2,0,P|265:294|219:282,1,95.9999970703126,2|8,0:0|0:0,0:0:0:0:
135,184,70064,5,2,0:0:0:0:
135,184,70211,1,2,0:0:0:0:
135,184,70358,2,0,L|40:191,1,95.9999970703126,8|0,0:0|0:0,0:0:0:0:
135,184,70652,2,0,P|121:139|133:93,1,95.9999970703126,2|0,0:0|0:0,0:0:0:0:
258,27,70946,1,8,0:0:0:0:
485,179,71093,6,0,L|294:165,1,191.999994140625,2|0,0:0|0:0,0:0:0:0:
401,128,71534,2,0,P|407:174|392:220,1,95.9999970703126,8|0,0:0|0:0,0:0:0:0:
324,321,71828,1,0,0:0:0:0:
224,254,71976,2,0,L|154:268,1,47.9999985351563,2|2,0:0|0:0,0:0:0:0:
122,201,72123,2,0,L|108:131,1,47.9999985351563,10|2,0:0|0:0,0:0:0:0:
58,91,72270,2,0,L|-12:105,1,47.9999985351563,2|2,0:0|0:0,0:0:0:0:
139,76,72417,6,0,B|304:45|304:45|223:9,1,256,4|0,0:0|0:0,0:0:0:0:
258,170,73299,2,0,P|321:173|380:150,1,128,0|0,0:0|0:0,0:0:0:0:
475,32,73887,5,0,0:0:0:0:
490,182,74181,2,0,L|477:255,1,64,0|0,0:0|0:0,0:0:0:0:
429,304,74476,1,0,0:0:0:0:
370,255,74623,6,0,P|277:231|186:252,1,191.999994140625,4|2,0:0|0:0,0:0:0:0:
283,135,75064,2,0,L|277:231,1,95.9999970703126,8|0,0:0|0:0,0:0:0:0:
106,62,75358,6,0,L|202:70,1,95.9999970703126,2|2,0:0|0:0,0:0:0:0:
305,35,75652,1,8,0:0:0:0:
185,172,75799,1,8,0:0:0:0:
277,231,75946,6,0,P|293:185|287:131,1,95.9999970703126,2|0,0:0|0:0,0:0:0:0:
185,172,76240,2,0,P|169:218|175:272,1,95.9999970703126,8|0,0:0|0:0,0:0:0:0:
254,339,76534,5,2,0:0:0:0:
329,190,76681,1,2,0:0:0:0:
420,330,76828,1,10,0:0:0:0:
231,235,76976,6,0,P|138:211|47:232,1,191.999994140625,4|2,0:0|0:0,0:0:0:0:
144,115,77417,2,0,L|138:211,1,95.9999970703126,8|0,0:0|0:0,0:0:0:0:
322,42,77711,6,0,L|226:50,1,95.9999970703126,2|2,0:0|0:0,0:0:0:0:
128,12,78005,1,8,0:0:0:0:
242,152,78152,1,8,0:0:0:0:
138,211,78299,6,0,P|130:258|140:304,1,95.9999970703126,2|0,0:0|0:0,0:0:0:0:
240,255,78593,2,0,P|286:244|333:252,1,95.9999970703126,8|0,0:0|0:0,0:0:0:0:
433,301,78887,5,8,0:0:0:0:
276,159,79034,1,8,0:0:0:0:
232,366,79181,1,8,0:0:0:0:
390,190,79328,6,0,P|412:97|388:5,1,191.999994140625,4|2,0:0|0:0,0:0:0:0:
508,92,79770,2,0,L|412:98,1,95.9999970703126,8|2,0:0|0:0,0:0:0:0:
294,184,80064,6,0,L|390:190,1,95.9999970703126,8|2,0:0|0:0,0:0:0:0:
272,92,80358,2,0,L|176:98,1,95.9999970703126,8|2,0:0|0:0,0:0:0:0:
61,180,80652,6,0,L|157:186,1,95.9999970703126,8|2,0:0|0:0,0:0:0:0:
286,78,80946,2,0,L|190:84,1,95.9999970703126,8|2,0:0|0:0,0:0:0:0:
27,78,81240,5,8,0:0:0:0:
104,221,81387,1,8,0:0:0:0:
190,83,81534,1,8,0:0:0:0:
355,186,81681,6,0,P|377:279|353:371,1,191.999994140625,4|2,0:0|0:0,0:0:0:0:
473,284,82123,2,0,L|377:278,1,95.9999970703126,8|2,0:0|0:0,0:0:0:0:
257,376,82417,6,0,L|353:370,1,95.9999970703126,8|2,0:0|0:0,0:0:0:0:
237,284,82711,2,0,L|141:278,1,95.9999970703126,8|2,0:0|0:0,0:0:0:0:
39,342,83005,5,10,0:0:0:0:
92,161,83152,1,2,0:0:0:0:
223,297,83299,2,0,L|127:291,1,95.9999970703126,10|2,0:0|0:0,0:0:0:0:
214,102,83593,5,10,0:0:0:0:
287,197,83740,2,0,L|354:191,1,47.9999985351563,8|8,0:0|0:0,0:0:0:0:
360,101,83887,2,0,L|427:106,1,47.9999985351563,8|8,0:0|0:0,0:0:0:0:
480,192,84034,6,0,L|469:327,1,128,4|0,0:0|0:0,0:0:0:0:
469,319,84476,1,0,0:0:0:0:
328,342,84770,2,0,L|337:214,1,128
365,200,85210,6,0,L|355:330,1,128
355,327,85652,1,0,0:0:0:0:
213,350,85946,2,0,L|222:222,1,128
250,208,86387,6,0,L|240:338,1,128,0|0,0:0|0:0,0:0:0:0:
240,335,86828,1,0,0:0:0:0:
73,308,87123,2,0,L|78:245,1,64
137,176,87417,5,8,0:0:0:0:
1,198,87564,1,8,0:0:0:0:
