osu file format v14

[General]
AudioFilename: audio.mp3
AudioLeadIn: 0
PreviewTime: 56976
Countdown: 0
SampleSet: Normal
StackLeniency: 0.5
Mode: 0
LetterboxInBreaks: 0
WidescreenStoryboard: 1

[Editor]
DistanceSpacing: 1
BeatDivisor: 4
GridSize: 8
TimelineZoom: 3.499999

[Metadata]
Title:Sora ni Utaeba -TV edit.-
TitleUnicode:空に歌えば -TV edit.-
Artist:amazarashi
ArtistUnicode:amazarashi
Creator:Ryuusei Aika
Version:Plus Ultra
Source:僕のヒーローアカデミア
Tags:Boku no my hero academia ヒロアカ heroaca 2期 第2期 第2クール second season op opening theme size gary00737 pata-mon Left Firis Mistlud kurantemelodii
BeatmapID:1351722
BeatmapSetID:637150

[Difficulty]
HPDrainRate:6
CircleSize:4
OverallDifficulty:9
ApproachRate:9.4
SliderMultiplier:1.8
SliderTickRate:1

[Events]
//Background and Video events
0,0,"BG.jpg",0,0
Video,250,"Sora Ni Utaeba.avi"
//Break Periods
//Storyboard Layer 0 (Background)
//Storyboard Layer 1 (Fail)
//Storyboard Layer 2 (Pass)
//Storyboard Layer 3 (Foreground)
//Storyboard Sound Samples

[TimingPoints]
-524,294.117647058824,4,1,1,40,1,0
505,-125,4,1,1,40,0,0
1681,-125,4,1,1,50,0,0
11240,-100,4,1,1,60,0,0
16534,-100,4,1,2,60,0,0
17417,-100,4,1,1,60,0,0
17490,-100,4,1,1,5,0,0
17564,-100,4,1,1,60,0,0
18152,-83.3333333333333,4,1,2,80,0,0
18299,-83.3333333333333,4,1,1,80,0,0
20137,-83.3333333333333,4,1,1,5,0,0
20211,-83.3333333333333,4,1,1,80,0,0
22490,-83.3333333333333,4,1,1,5,0,0
22564,-83.3333333333333,4,1,1,80,0,0
22637,-83.3333333333333,4,1,1,5,0,0
22711,-83.3333333333333,4,1,1,80,0,0
22784,-83.3333333333333,4,1,1,5,0,0
22858,-83.3333333333333,4,1,1,80,0,0
24843,-83.3333333333333,4,1,1,5,0,0
24917,-83.3333333333333,4,1,1,80,0,0
26902,-83.3333333333333,4,1,1,5,0,0
26976,-83.3333333333333,4,1,1,80,0,0
27049,-83.3333333333333,4,1,1,5,0,0
27123,-83.3333333333333,4,1,1,80,0,0
27196,-83.3333333333333,4,1,1,5,0,0
27270,-83.3333333333333,4,1,1,80,0,0
27343,-83.3333333333333,4,1,1,5,0,0
27417,-83.3333333333333,4,1,1,80,0,0
27564,-125,4,1,1,40,0,0
29476,-83.3333333333333,4,1,1,40,0,0
29549,-83.3333333333333,4,1,1,5,0,0
29623,-83.3333333333333,4,1,1,40,0,0
29696,-83.3333333333333,4,1,1,5,0,0
29917,-125,4,1,1,50,0,0
39328,-100,4,1,2,60,0,0
39476,-100,4,1,1,60,0,0
57123,-100,4,1,1,50,0,0
58152,-83.3333333333333,4,1,2,80,0,1
58299,-83.3333333333333,4,1,1,80,0,1
67711,-83.3333333333333,4,1,2,80,0,1
67784,-83.3333333333333,4,1,1,80,0,1
72417,-125,4,1,1,50,0,0
74623,-83.3333333333333,4,1,2,80,0,0
74696,-83.3333333333333,4,1,1,80,0,0
76608,-83.3333333333333,4,1,1,5,0,0
76681,-83.3333333333333,4,1,1,80,0,0
78961,-83.3333333333333,4,1,1,5,0,0
79034,-83.3333333333333,4,1,1,80,0,0
79108,-83.3333333333333,4,1,1,5,0,0
79181,-83.3333333333333,4,1,1,80,0,0
79255,-83.3333333333333,4,1,1,5,0,0
79328,-83.3333333333333,4,1,2,100,0,0
79402,-83.3333333333333,4,1,1,100,0,0
79843,-83.3333333333333,4,1,1,5,0,0
79917,-83.3333333333333,4,1,1,100,0,0
80137,-83.3333333333333,4,1,1,5,0,0
80211,-83.3333333333333,4,1,1,100,0,0
80431,-83.3333333333333,4,1,1,5,0,0
80505,-83.3333333333333,4,1,1,100,0,0
80726,-83.3333333333333,4,1,1,5,0,0
80799,-83.3333333333333,4,1,1,100,0,0
81020,-83.3333333333333,4,1,1,5,0,0
81093,-83.3333333333333,4,1,1,100,0,0
81314,-83.3333333333333,4,1,1,5,0,0
81387,-83.3333333333333,4,1,1,100,0,0
82196,-83.3333333333333,4,1,1,5,0,0
82270,-83.3333333333333,4,1,1,100,0,0
82490,-83.3333333333333,4,1,1,5,0,0
82564,-83.3333333333333,4,1,1,100,0,0
82784,-83.3333333333333,4,1,1,5,0,0
82858,-83.3333333333333,4,1,1,100,0,0
83373,-83.3333333333333,4,1,1,5,0,0
83446,-83.3333333333333,4,1,1,100,0,0
83520,-83.3333333333333,4,1,1,5,0,0
83593,-83.3333333333333,4,1,1,100,0,0
83667,-83.3333333333333,4,1,1,5,0,0
83740,-83.3333333333333,4,1,1,100,0,0
84034,-166.666666666667,4,1,1,30,0,0
87417,-83.3333333333333,4,1,1,70,0,0
87564,-83.3333333333333,4,1,2,70,0,0
87784,-83.3333333333333,4,1,1,5,0,0

[Colours]
Combo1 : 211,220,197
Combo2 : 216,239,32
Combo3 : 114,134,108
Combo4 : 138,153,0

[HitObjects]
86,152,505,5,0,0:0:0:0:
215,119,652,2,0,P|144:112|86:152,1,144,2|0,0:0|0:0,0:0:0:0:
185,359,1240,2,0,L|170:216,1,144,2|0,0:0|0:0,0:0:0:0:
145,112,1681,2,0,P|215:118|273:78,1,144,4|0,0:0|0:0,0:0:0:0:
335,167,2123,2,0,L|478:152,1,144,0|0,0:0|0:0,0:0:0:0:
426,346,2711,1,0,0:0:0:0:
225,335,3005,6,0,P|155:328|97:368,1,144,4|0,0:0|0:0,0:0:0:0:
16,145,3593,2,0,P|87:152|145:112,1,144,0|0,0:0|0:0,0:0:0:0:
207,201,4034,2,0,L|350:216,1,144,4|0,0:0|0:0,0:0:0:0:
397,118,4476,2,0,P|446:168|454:238,1,144,0|0,0:0|0:0,0:0:0:0:
265,367,5064,1,0,0:0:0:0:
265,367,5211,1,0,0:0:0:0:
264,367,5358,6,0,P|225:372|193:361,1,72,4|0,0:0|0:0,0:0:0:0:
207,216,5652,2,0,P|230:242|238:277,1,72,0|0,0:0|0:0,0:0:0:0:
102,344,5946,2,0,P|114:311|140:287,1,72,0|0,0:0|0:0,0:0:0:0:
207,216,6240,1,8,0:0:0:0:
345,217,6387,2,0,B|276:238|276:238|207:216,1,144,4|0,0:0|0:0,0:0:0:0:
276,96,6828,1,0,0:0:0:0:
276,96,7123,6,0,L|193:96,1,72,2|0,0:0|0:0,0:0:0:0:
132,156,7417,2,0,L|49:156,1,72,2|0,0:0|0:0,0:0:0:0:
27,243,7711,2,0,P|67:250|108:236,1,72,6|0,0:0|0:0,0:0:0:0:
188,230,8005,2,0,P|228:223|269:237,1,72,2|0,0:0|0:0,0:0:0:0:
349,243,8299,6,0,L|421:243,1,72,2|0,0:0|0:0,0:0:0:0:
472,313,8593,1,8,0:0:0:0:
487,186,8740,2,0,P|507:253|472:313,1,144,4|0,0:0|0:0,0:0:0:0:
386,323,9181,6,0,L|314:323,1,72,2|0,0:0|0:0,0:0:0:0:
167,379,9476,2,0,L|239:379,1,72,2|0,0:0|0:0,0:0:0:0:
314,323,9770,2,0,P|321:283|307:242,1,72,2|0,0:0|0:0,0:0:0:0:
240,183,10064,1,4,0:0:0:0:
240,183,10358,6,0,P|200:190|159:176,1,72,2|0,0:0|0:0,0:0:0:0:
206,95,10652,1,8,0:0:0:0:
100,266,10799,1,8,0:0:0:0:
5,89,10946,1,8,0:0:0:0:
100,266,11093,1,8,0:0:0:0:
143,190,11240,6,0,P|101:178|58:190,1,90,6|0,0:0|0:0,0:0:0:0:
186,267,11534,2,0,L|293:257,1,90,2|0,0:0|0:0,0:0:0:0:
407,325,11828,2,0,L|317:333,1,90,8|0,0:0|0:0,0:0:0:0:
275,258,12123,2,0,P|259:216|264:172,1,90,2|0,0:0|0:0,0:0:0:0:
306,98,12417,1,2,0:0:0:0:
306,98,12711,6,0,P|262:88|219:100,1,90,0|0,0:0|0:0,0:0:0:0:
91,181,13005,2,0,P|134:190|177:178,1,90,8|0,0:0|0:0,0:0:0:0:
219,99,13299,2,0,L|229:-8,1,90,2|0,0:0|0:0,0:0:0:0:
141,47,13593,1,2,0:0:0:0:
141,47,13887,6,0,L|34:37,1,90,0|0,0:0|0:0,0:0:0:0:
88,144,14181,2,0,P|79:187|91:230,1,90,8|0,0:0|0:0,0:0:0:0:
144,327,14476,1,2,0:0:0:0:
317,331,14623,2,0,B|254:341|254:341|201:317|201:317|144:327,1,180,0|0,0:0|0:0,0:0:0:0:
234,178,15064,5,2,0:0:0:0:
234,178,15211,1,2,0:0:0:0:
275,254,15358,1,8,0:0:0:0:
275,254,15505,1,2,0:0:0:0:
409,174,15652,2,0,L|503:174,1,90,2|0,0:0|0:0,0:0:0:0:
361,256,15946,5,2,0:0:0:0:
365,92,16093,1,2,0:0:0:0:
221,170,16240,1,2,0:0:0:0:
315,172,16387,5,2,0:0:0:0:
309,6,16534,1,2,0:0:0:0:
169,92,16681,2,0,P|125:102|82:90,1,90,2|0,0:0|0:0,0:0:0:0:
35,9,16976,2,0,L|35:189,1,180,2|0,0:0|0:0,0:0:0:0:
228,336,17417,6,0,P|240:316|246:290,1,45,8|0,0:0|2:0,0:0:0:0:
263,94,17564,1,8,0:0:0:0:
453,83,18152,6,0,P|355:45|263:94,1,215.999993408203,4|0,0:0|0:0,0:0:0:0:
289,287,18593,1,8,0:0:0:0:
305,189,18740,1,0,0:0:0:0:
196,323,18887,1,2,0:0:0:0:
134,162,19034,1,2,0:0:0:0:
10,248,19181,2,0,L|117:260,1,107.999996704102,8|0,0:0|0:0,0:0:0:0:
211,225,19476,5,2,0:0:0:0:
134,162,19623,1,0,0:0:0:0:
196,323,19770,1,8,0:0:0:0:
305,189,19917,1,0,0:0:0:0:
98,67,20064,6,0,P|73:79|52:97,1,53.9999983520508,2|0,0:0|2:0,0:0:0:0:
197,84,20211,2,0,P|214:104|226:128,1,53.9999983520508,2|0,0:0|0:0,0:0:0:0:
287,288,20358,1,8,0:0:0:0:
393,16,20505,6,0,P|442:108|404:206,1,215.999993408203,4|0,0:0|0:0,0:0:0:0:
189,271,20946,1,8,0:0:0:0:
154,177,21093,1,0,0:0:0:0:
124,347,21240,1,2,0:0:0:0:
287,288,21387,2,0,P|339:280|388:301,1,107.999996704102,0|0,0:0|0:0,0:0:0:0:
465,365,21681,1,8,0:0:0:0:
450,223,21828,5,2,0:0:0:0:
326,379,21976,1,0,0:0:0:0:
248,197,22123,1,8,0:0:0:0:
388,301,22270,1,0,0:0:0:0:
186,275,22417,6,0,P|160:265|138:250,1,53.9999983520508,8|0,0:0|2:0,0:0:0:0:
335,77,22564,2,0,P|325:101|310:124,1,53.9999983520508,8|0,0:0|2:0,0:0:0:0:
97,110,22711,2,0,P|158:134|180:149,1,53.9999983520508,8|0,0:0|2:0,0:0:0:0:
284,289,22858,6,0,P|381:326|474:277,1,215.999993408203,4|0,0:0|0:0,0:0:0:0:
453,100,23299,1,8,0:0:0:0:
375,203,23446,1,0,0:0:0:0:
350,22,23593,1,2,0:0:0:0:
463,188,23740,1,2,0:0:0:0:
271,124,23887,2,0,P|218:116|169:137,1,107.999996704102,8|0,0:0|0:0,0:0:0:0:
241,311,24181,5,2,0:0:0:0:
230,214,24328,1,0,0:0:0:0:
162,369,24476,1,8,0:0:0:0:
330,350,24623,1,0,0:0:0:0:
92,198,24770,6,0,P|78:174|71:148,1,53.9999983520508,2|0,0:0|2:0,0:0:0:0:
116,14,24917,2,0,P|109:40|109:67,1,53.9999983520508,2|0,0:0|0:0,0:0:0:0:
230,214,25064,1,8,0:0:0:0:
457,119,25211,6,0,P|360:82|267:131,1,215.999993408203,4|0,0:0|0:0,0:0:0:0:
241,311,25652,1,8,0:0:0:0:
320,253,25799,1,0,0:0:0:0:
151,272,25946,1,2,0:0:0:0:
162,369,26093,1,2,0:0:0:0:
230,214,26240,1,8,0:0:0:0:
330,350,26387,1,0,0:0:0:0:
73,331,26534,5,10,0:0:0:0:
217,117,26681,1,0,0:0:0:0:
458,270,26828,6,0,P|435:284|409:292,1,53.9999983520508,10|0,0:0|2:0,0:0:0:0:
328,164,26976,2,0,P|342:186|350:212,1,53.9999983520508,2|0,0:0|2:0,0:0:0:0:
124,344,27123,2,0,P|109:321|101:295,1,53.9999983520508,10|0,0:0|2:0,0:0:0:0:
230,214,27270,2,0,P|207:228|181:236,1,53.9999983520508,2|0,0:0|2:0,0:0:0:0:
41,215,27417,1,2,0:0:0:0:
269,92,27564,6,0,P|341:72|401:106,1,144,4|0,0:0|0:0,0:0:0:0:
311,334,28005,1,8,0:0:0:0:
230,214,28299,1,2,0:0:0:0:
447,286,28593,1,8,0:0:0:0:
366,166,28887,1,2,0:0:0:0:
175,382,29181,1,8,0:0:0:0:
94,262,29476,6,0,P|89:235|91:208,1,53.9999983520508,8|0,0:0|2:0,0:0:0:0:
278,145,29623,2,0,P|282:118|280:91,1,53.9999983520508,8|0,0:0|2:0,0:0:0:0:
275,71,29917,6,0,P|346:64|414:98,1,144,6|0,0:0|0:0,0:0:0:0:
444,204,30358,1,8,0:0:0:0:
450,225,30652,2,0,L|293:229,1,144,2|8,0:0|0:0,0:0:0:0:
89,297,31240,6,0,L|84:153,1,144,0|8,0:0|0:0,0:0:0:0:
90,132,31828,1,2,0:0:0:0:
170,45,31976,1,2,0:0:0:0:
205,158,32123,1,8,0:0:0:0:
287,71,32270,6,0,L|430:67,1,144,2|0,0:0|0:0,0:0:0:0:
465,180,32711,1,8,0:0:0:0:
471,201,33005,2,0,P|399:194|331:227,1,144,2|8,0:0|0:0,0:0:0:0:
256,307,33446,6,0,L|85:294,1,144,2|0,0:0|0:0,0:0:0:0:
54,197,33887,1,8,0:0:0:0:
60,176,34181,1,2,0:0:0:0:
128,268,34328,1,2,0:0:0:0:
175,161,34476,1,8,0:0:0:0:
245,256,34623,6,0,P|315:260|379:229,1,144,2|0,0:0|0:0,0:0:0:0:
449,134,35064,1,8,0:0:0:0:
423,366,35358,1,2,0:0:0:0:
327,154,35652,2,0,L|313:66,1,72,8|0,0:0|0:0,0:0:0:0:
216,24,35946,6,0,L|204:95,1,72,2|0,0:0|0:0,0:0:0:0:
101,146,36240,1,8,0:0:0:0:
107,125,36534,1,2,0:0:0:0:
76,238,36681,1,2,0:0:0:0:
190,269,36828,1,8,0:0:0:0:
220,155,36976,1,2,0:0:0:0:
312,238,37123,6,0,P|352:241|391:226,1,72,0|0,0:0|0:0,0:0:0:0:
479,138,37417,1,8,0:0:0:0:
473,117,37711,1,2,0:0:0:0:
339,147,37858,1,2,0:0:0:0:
432,249,38005,1,8,0:0:0:0:
426,228,38299,5,2,0:0:0:0:
324,341,38446,1,2,0:0:0:0:
472,374,38593,2,0,P|494:340|501:299,1,72,8|0,0:0|0:0,0:0:0:0:
444,121,38887,1,8,0:0:0:0:
309,153,39034,1,2,0:0:0:0:
331,244,39181,1,2,0:0:0:0:
369,82,39328,6,0,L|194:40,1,180,6|0,0:0|0:0,0:0:0:0:
69,114,39770,2,0,P|59:157|71:205,1,90,8|0,0:0|0:0,0:0:0:0:
227,201,40064,2,0,P|194:170|152:158,1,90,2|0,0:0|0:0,0:0:0:0:
72,294,40358,1,8,0:0:0:0:
152,158,40505,1,2,0:0:0:0:
230,296,40652,6,0,L|326:271,1,90,2|0,0:0|0:0,0:0:0:0:
343,103,40946,2,0,B|365:190,1,90,8|0,0:0|0:0,0:0:0:0:
399,321,41240,1,2,0:0:0:0:
495,227,41387,1,2,0:0:0:0:
365,190,41534,1,8,0:0:0:0:
461,96,41681,6,0,P|406:9|326:13,1,180,2|0,0:0|0:0,0:0:0:0:
250,97,42123,2,0,L|155:107,1,90,8|0,0:0|0:0,0:0:0:0:
30,143,42417,1,2,0:0:0:0:
126,237,42564,1,2,0:0:0:0:
160,106,42711,1,8,0:0:0:0:
31,238,42858,6,0,P|88:324|168:324,1,180,2|0,0:0|0:0,0:0:0:0:
307,269,43299,2,0,L|219:255,1,90,8|0,0:0|0:0,0:0:0:0:
412,352,43593,1,2,0:0:0:0:
432,218,43740,1,2,0:0:0:0:
307,269,43887,1,8,0:0:0:0:
149,106,44034,6,0,L|327:135,1,180,6|0,0:0|0:0,0:0:0:0:
61,136,44476,2,0,P|58:92|75:51,1,90,8|0,0:0|0:0,0:0:0:0:
238,120,44770,2,0,L|219:234,1,90,2|0,0:0|0:0,0:0:0:0:
119,281,45064,1,8,0:0:0:0:
223,208,45211,6,0,B|280:198|280:198|333:222|333:222|396:212,1,180,2|0,0:0|0:0,0:0:0:0:
471,99,45652,2,0,L|452:9,1,90,8|0,0:0|0:0,0:0:0:0:
377,117,45946,1,2,0:0:0:0:
489,192,46093,1,2,0:0:0:0:
471,99,46240,1,8,0:0:0:0:
395,211,46387,6,0,P|388:254|403:296,1,90,6|0,0:0|0:0,0:0:0:0:
499,379,46681,1,2,0:0:0:0:
404,297,46828,2,0,L|302:304,1,90,8|0,0:0|0:0,0:0:0:0:
219,385,47123,1,2,0:0:0:0:
195,260,47270,1,2,0:0:0:0:
99,344,47417,2,0,P|57:359|13:352,1,90,8|0,0:0|0:0,0:0:0:0:
111,163,47711,5,8,0:0:0:0:
195,260,47858,1,2,0:0:0:0:
238,139,48005,2,0,L|340:146,1,90,2|0,0:0|0:0,0:0:0:0:
425,228,48299,1,8,0:0:0:0:
448,102,48446,2,0,L|455:0,1,90,0|0,0:0|0:0,0:0:0:0:
330,48,48740,1,8,0:0:0:0:
296,241,48887,5,12,0:0:0:0:
92,154,49034,2,0,P|81:110|92:66,1,90,8|2,0:0|0:0,0:0:0:0:
237,69,49328,2,0,P|247:112|236:156,1,90,0|0,0:0|0:0,0:0:0:0:
162,280,49623,1,8,0:0:0:0:
237,156,49770,1,8,0:0:0:0:
308,283,49917,1,8,0:0:0:0:
308,283,50064,6,0,L|413:268,2,90,0|0|0,0:0|0:0|0:0,0:0:0:0:
180,354,50505,1,8,0:0:0:0:
183,208,50652,1,8,0:0:0:0:
264,355,50799,1,8,0:0:0:0:
139,280,50946,1,8,0:0:0:0:
267,209,51093,1,8,0:0:0:0:
267,209,51167,1,8,0:0:0:0:
267,209,51240,6,0,L|356:195,1,90,4|0,0:0|0:0,0:0:0:0:
178,66,51534,1,8,0:0:0:0:
98,214,51681,1,8,0:0:0:0:
242,126,51828,2,0,L|336:111,1,90,0|0,0:0|0:0,0:0:0:0:
416,132,52123,1,2,0:0:0:0:
333,280,52270,1,2,0:0:0:0:
333,280,52343,1,2,0:0:0:0:
333,280,52417,6,0,L|322:368,1,90,4|0,0:0|0:0,0:0:0:0:
449,304,52711,2,0,L|440:216,1,90,2|0,0:0|0:0,0:0:0:0:
232,196,53005,2,0,P|187:192|146:209,1,90,4|0,0:0|0:0,0:0:0:0:
40,314,53299,1,2,0:0:0:0:
65,168,53446,1,2,0:0:0:0:
65,168,53520,1,2,0:0:0:0:
65,168,53593,6,0,L|71:79,1,90,6|0,0:0|0:0,0:0:0:0:
200,15,53887,1,8,0:0:0:0:
264,144,54034,2,0,L|258:233,1,90,8|0,0:0|0:0,0:0:0:0:
128,296,54328,1,0,0:0:0:0:
257,233,54476,2,0,P|301:228|342:246,1,90,0|0,0:0|0:0,0:0:0:0:
404,375,54770,5,2,0:0:0:0:
484,256,54917,1,2,0:0:0:0:
335,328,55064,1,2,0:0:0:0:
478,338,55211,1,2,0:0:0:0:
416,210,55358,5,2,0:0:0:0:
261,365,55505,1,2,0:0:0:0:
205,154,55652,1,2,0:0:0:0:
489,174,55799,1,2,0:0:0:0:
489,174,55873,1,2,0:0:0:0:
489,174,55946,5,8,0:0:0:0:
266,283,56093,1,8,0:0:0:0:
287,37,56240,1,8,0:0:0:0:
410,292,56387,1,8,0:0:0:0:
431,46,56534,1,8,0:0:0:0:
130,238,56681,1,8,0:0:0:0:
34,1,56828,5,8,0:0:0:0:
75,16,56902,1,8,0:0:0:0:
117,31,56976,1,8,0:0:0:0:
158,46,57050,1,8,0:0:0:0:
200,61,57123,6,0,P|212:106|206:149,1,90,0|0,0:0|0:0,0:0:0:0:
279,99,57417,2,0,P|246:131|205:148,1,90,0|0,0:0|0:0,0:0:0:0:
285,186,57711,2,0,P|240:173|205:147,1,90,0|0,0:0|0:0,0:0:0:0:
34,1,58005,1,0,0:0:0:0:
130,238,58152,6,0,P|90:142|164:37,1,215.999993408203,4|0,0:0|0:0,0:0:0:0:
308,133,58593,2,0,P|258:152|205:147,1,107.999996704102,8|0,0:0|0:0,0:0:0:0:
359,28,58887,1,2,0:0:0:0:
424,124,59034,1,2,0:0:0:0:
243,36,59181,2,0,P|190:30|140:50,1,107.999996704102,8|0,0:0|0:0,0:0:0:0:
268,243,59476,6,0,L|374:250,1,107.999996704102,2|2,0:0|0:0,0:0:0:0:
219,369,59770,2,0,L|112:361,1,107.999996704102,8|0,0:0|0:0,0:0:0:0:
25,255,60064,1,2,0:0:0:0:
162,244,60211,1,2,0:0:0:0:
219,369,60358,1,8,0:0:0:0:
370,160,60505,6,0,P|316:70|212:56,1,215.999993408203,2|0,0:0|0:0,0:0:0:0:
15,90,60946,2,0,P|58:121|111:129,1,107.999996704102,8|0,0:0|0:0,0:0:0:0:
213,55,61240,1,2,0:0:0:0:
201,244,61387,1,2,0:0:0:0:
370,160,61534,1,8,0:0:0:0:
262,154,61681,1,0,0:0:0:0:
358,348,61828,5,2,0:0:0:0:
419,258,61976,1,2,0:0:0:0:
250,342,62123,2,0,P|197:353|146:340,1,107.999996704102,8|0,0:0|0:0,0:0:0:0:
68,106,62417,1,2,0:0:0:0:
144,193,62564,1,2,0:0:0:0:
311,109,62711,1,8,0:0:0:0:
512,254,62858,6,0,L|300:296,1,215.999993408203,2|0,0:0|0:0,0:0:0:0:
94,271,63299,2,0,P|58:232|51:180,1,107.999996704102,8|0,0:0|0:0,0:0:0:0:
205,51,63593,1,2,0:0:0:0:
309,203,63740,1,2,0:0:0:0:
144,193,63887,2,0,P|182:156|235:148,1,107.999996704102,8|0,0:0|0:0,0:0:0:0:
408,225,64181,5,2,0:0:0:0:
224,242,64328,1,2,0:0:0:0:
316,103,64476,2,0,P|329:154|309:204,1,107.999996704102,8|0,0:0|0:0,0:0:0:0:
156,316,64770,1,2,0:0:0:0:
234,148,64917,1,2,0:0:0:0:
341,299,65064,1,8,0:0:0:0:
136,167,65211,6,0,P|171:70|273:57,1,215.999993408203,2|0,0:0|0:0,0:0:0:0:
440,121,65652,2,0,L|333:136,1,107.999996704102,8|0,0:0|0:0,0:0:0:0:
261,322,65946,1,2,0:0:0:0:
136,167,66093,1,2,0:0:0:0:
322,239,66240,2,0,L|429:224,1,107.999996704102,8|0,0:0|0:0,0:0:0:0:
197,85,66534,5,2,0:0:0:0:
126,271,66681,1,2,0:0:0:0:
317,111,66828,2,0,L|357:76,3,53.9999983520508,8|0|0|0,0:0|0:0|0:0|0:0,0:0:0:0:
296,128,67123,5,2,0:0:0:0:
290,154,67196,1,2,0:0:0:0:
291,181,67270,1,2,0:0:0:0:
301,206,67343,1,2,0:0:0:0:
319,227,67417,1,10,0:0:0:0:
342,241,67490,1,2,0:0:0:0:
368,247,67564,1,2,0:0:0:0:
394,245,67637,1,2,0:0:0:0:
419,235,67711,6,0,L|545:248,1,107.999996704102,4|2,0:0|0:0,0:0:0:0:
296,128,68005,2,0,L|170:115,1,107.999996704102,2|0,0:0|0:0,0:0:0:0:
312,358,68299,1,8,0:0:0:0:
312,358,68593,1,2,0:0:0:0:
304,243,68740,1,8,0:0:0:0:
208,308,68887,6,0,P|148:315|97:288,1,107.999996704102,2|0,0:0|0:0,0:0:0:0:
45,107,69181,2,0,P|105:100|156:127,1,107.999996704102,2|0,0:0|0:0,0:0:0:0:
304,243,69476,1,8,0:0:0:0:
304,243,69770,1,2,0:0:0:0:
355,138,69917,1,8,0:0:0:0:
466,189,70064,5,2,0:0:0:0:
436,108,70211,1,2,0:0:0:0:
277,165,70358,2,0,P|237:197|225:256,1,107.999996704102,8|0,0:0|0:0,0:0:0:0:
351,331,70652,2,0,P|343:280|298:240,1,107.999996704102,2|0,0:0|0:0,0:0:0:0:
171,313,70946,1,8,0:0:0:0:
95,147,71093,6,0,B|168:67|168:67|275:44,1,215.999993408203,2|0,0:0|0:0,0:0:0:0:
459,117,71534,2,0,L|446:243,1,107.999996704102,8|0,0:0|0:0,0:0:0:0:
388,372,71828,1,0,0:0:0:0:
290,247,71976,1,2,0:0:0:0:
263,230,72049,1,2,0:0:0:0:
231,227,72123,1,10,0:0:0:0:
201,239,72196,1,2,0:0:0:0:
173,256,72270,1,2,0:0:0:0:
141,258,72343,1,2,0:0:0:0:
111,246,72417,6,0,B|126:57|126:57|63:135,1,288,4|0,0:0|0:0,0:0:0:0:
262,360,73299,2,0,P|288:294|239:212,1,144,0|0,0:0|0:0,0:0:0:0:
126,57,73887,5,0,0:0:0:0:
261,229,74181,2,0,P|296:236|332:229,1,72,0|0,0:0|0:0,0:0:0:0:
438,176,74476,1,0,0:0:0:0:
260,104,74623,6,0,L|28:135,1,215.999993408203,4|2,0:0|0:0,0:0:0:0:
177,304,75064,1,8,0:0:0:0:
164,211,75211,1,0,0:0:0:0:
103,361,75358,1,2,0:0:0:0:
264,339,75505,1,2,0:0:0:0:
71,224,75652,1,8,0:0:0:0:
257,198,75799,1,8,0:0:0:0:
433,258,75946,5,2,0:0:0:0:
346,293,76093,1,0,0:0:0:0:
446,165,76240,1,8,0:0:0:0:
507,315,76387,1,0,0:0:0:0:
370,106,76534,6,0,L|359:24,1,53.9999983520508,2|0,0:0|2:0,0:0:0:0:
249,144,76681,2,0,L|257:198,1,53.9999983520508,2|0,0:0|0:0,0:0:0:0:
218,323,76828,1,10,0:0:0:0:
35,116,76976,6,0,L|249:144,1,215.999993408203,4|2,0:0|0:0,0:0:0:0:
346,293,77417,1,8,0:0:0:0:
359,201,77564,1,0,0:0:0:0:
260,328,77711,1,2,0:0:0:0:
420,351,77858,1,2,0:0:0:0:
445,166,78005,1,8,0:0:0:0:
272,235,78152,1,8,0:0:0:0:
89,198,78299,5,2,0:0:0:0:
213,59,78446,1,0,0:0:0:0:
395,96,78593,1,8,0:0:0:0:
432,258,78740,1,2,0:0:0:0:
309,50,78887,6,0,P|318:24|334:2,1,53.9999983520508,8|0,0:0|2:0,0:0:0:0:
222,148,79034,2,0,P|220:175|225:202,1,53.9999983520508,8|0,0:0|2:0,0:0:0:0:
185,383,79181,2,0,P|168:363|157:339,1,53.9999983520508,8|0,0:0|2:0,0:0:0:0:
101,29,79328,6,0,L|119:262,1,215.999993408203,4|2,0:0|0:0,0:0:0:0:
16,151,79770,6,0,P|43:148|68:138,1,53.9999983520508,8|0,0:0|2:0,0:0:0:0:
198,11,79917,1,2,0:0:0:0:
80,282,80064,6,0,P|101:267|117:245,1,53.9999983520508,8|0,0:0|2:0,0:0:0:0:
177,97,80211,1,2,0:0:0:0:
196,361,80358,6,0,P|208:336|210:309,1,53.9999983520508,8|0,0:0|2:0,0:0:0:0:
252,143,80505,1,2,0:0:0:0:
338,371,80652,6,0,P|336:344|326:319,1,53.9999983520508,8|0,0:0|2:0,0:0:0:0:
318,85,80799,1,2,0:0:0:0:
466,308,80946,6,0,P|450:285|429:269,1,53.9999983520508,8|0,0:0|2:0,0:0:0:0:
284,4,81093,1,2,0:0:0:0:
266,277,81240,6,0,L|212:280,1,53.9999983520508,8|0,0:0|2:0,0:0:0:0:
177,106,81387,2,0,L|231:102,1,53.9999983520508,8|0,0:0|0:0,0:0:0:0:
336,172,81534,1,8,0:0:0:0:
33,206,81681,6,0,L|249:190,1,215.999993408203,4|2,0:0|0:0,0:0:0:0:
103,19,82123,6,0,P|91:44|87:70,1,53.9999983520508,8|0,0:0|2:0,0:0:0:0:
212,279,82270,1,2,0:0:0:0:
394,80,82417,6,0,P|406:105|410:131,1,53.9999983520508,8|0,0:0|2:0,0:0:0:0:
285,340,82564,1,2,0:0:0:0:
171,102,82711,6,0,P|160:127|158:153,1,53.9999983520508,8|0,0:0|2:0,0:0:0:0:
357,288,82858,1,2,0:0:0:0:
279,61,83005,5,10,0:0:0:0:
122,242,83152,1,2,0:0:0:0:
423,344,83299,6,0,L|477:341,1,53.9999983520508,10|0,0:0|2:0,0:0:0:0:
291,232,83446,2,0,L|237:235,1,53.9999983520508,2|0,0:0|2:0,0:0:0:0:
390,86,83593,2,0,P|383:112|368:134,1,53.9999983520508,10|0,0:0|2:0,0:0:0:0:
171,102,83740,5,8,0:0:0:0:
136,63,83813,1,8,0:0:0:0:
84,50,83887,1,8,0:0:0:0:
34,67,83960,1,8,0:0:0:0:
3,110,84034,6,0,L|3:223,1,107.999996704102,4|0,0:0|0:0,0:0:0:0:
90,279,84476,1,0,0:0:0:0:
90,279,84770,1,0,0:0:0:0:
85,301,85064,5,0,0:0:0:0:
171,102,85211,6,0,L|171:215,1,107.999996704102,0|0,0:0|0:0,0:0:0:0:
258,271,85653,1,0,0:0:0:0:
258,271,85947,1,0,0:0:0:0:
253,293,86241,5,0,0:0:0:0:
303,91,86387,6,0,L|303:204,1,107.999996704102,0|0,0:0|0:0,0:0:0:0:
390,260,86829,1,0,0:0:0:0:
390,260,87123,1,0,0:0:0:0:
385,282,87417,5,0,0:0:0:0:
435,79,87564,2,0,P|401:26|384:90,1,161.999995056153,8|0,0:0|2:0,0:0:0:0:
