osu file format v14

[General]
AudioFilename: audio.mp3
AudioLeadIn: 0
PreviewTime: 56976
Countdown: 0
SampleSet: Soft
StackLeniency: 0.3
Mode: 0
LetterboxInBreaks: 0
WidescreenStoryboard: 1

[Editor]
Bookmarks: 11289,18201,29966,39377,48936,58201,74672,84083
DistanceSpacing: 1.2
BeatDivisor: 2
GridSize: 32
TimelineZoom: 1.8

[Metadata]
Title:Sora ni Utaeba -TV edit.-
TitleUnicode:空に歌えば -TV edit.-
Artist:amazarashi
ArtistUnicode:amazarashi
Creator:Ryuusei Aika
Version:Pata-Mon's Hard
Source:僕のヒーローアカデミア
Tags:Boku no my hero academia ヒロアカ heroaca 2期 第2期 第2クール second season op opening theme size gary00737 pata-mon Left Firis Mistlud kurantemelodii
BeatmapID:1358852
BeatmapSetID:637150

[Difficulty]
HPDrainRate:5
CircleSize:3.8
OverallDifficulty:6
ApproachRate:7.5
SliderMultiplier:1.4
SliderTickRate:1

[Events]
//Background and Video events
0,0,"BG.jpg",0,0
Video,250,"Sora Ni Utaeba.avi"
//Break Periods
//Storyboard Layer 0 (Background)
//Storyboard Layer 1 (Fail)
//Storyboard Layer 2 (Pass)
//Storyboard Layer 3 (Foreground)
//Storyboard Sound Samples

[TimingPoints]
-524,294.117647058824,4,2,0,40,1,0
1681,-166.666666666667,4,2,0,40,0,0
6387,-125,4,2,0,50,0,0
17417,-125,4,2,0,60,0,0
18152,-100,4,2,0,60,0,0
27564,-125,4,2,0,60,0,0
39328,-100,4,2,0,60,0,0
48887,-125,4,2,0,60,0,0
55946,-100,4,2,0,60,0,0
58152,-100,4,2,0,60,0,1
74623,-100,4,2,0,60,0,0

[Colours]
Combo1 : 211,220,197
Combo2 : 216,239,32
Combo3 : 114,134,108
Combo4 : 138,153,0

[HitObjects]
131,130,1681,6,0,P|275:194|389:117,1,293.999991027832,6|0,0:0|0:0,0:0:0:0:
181,37,3005,6,0,P|320:85|320:5,1,251.999992309571,6|0,0:0|0:0,0:0:0:0:
256,45,4034,6,0,L|256:365,1,293.999991027832,6|0,0:0|0:0,0:0:0:0:
130,192,5358,6,0,L|382:192,1,251.999992309571,6|0,0:0|0:0,0:0:0:0:
470,111,6387,6,0,P|460:158|474:257,1,112,6|0,0:0|0:0,0:0:0:0:
512,284,6828,2,0,L|505:393,1,56,2|0,0:0|0:0,0:0:0:0:
435,371,7123,2,0,P|379:373|323:367,1,112,2|2,0:0|0:0,0:0:0:0:
166,367,7711,6,0,P|110:372|54:370,1,112,6|2,0:0|0:0,0:0:0:0:
48,213,8299,2,0,P|103:207|159:209,1,112,2|2,0:0|0:0,0:0:0:0:
229,245,8740,6,0,L|317:242,1,56,0|2,1:0|0:0,0:0:0:0:
466,200,9181,2,0,L|378:197,1,56,2|0,0:0|0:0,0:0:0:0:
361,260,9476,2,0,P|368:310|416:390,1,112,2|2,0:0|0:0,0:0:0:0:
410,198,10064,6,0,L|407:131,1,56,6|0,0:0|0:0,0:0:0:0:
329,151,10358,2,0,L|332:84,1,56,2|0,0:0|0:0,0:0:0:0:
255,75,10652,1,0,1:0:0:0:
255,75,10799,1,0,1:0:0:0:
186,112,10946,1,0,1:0:0:0:
186,112,11093,1,0,1:0:0:0:
109,94,11240,6,0,L|112:161,1,56,2|0,0:0|0:0,0:0:0:0:
115,228,11534,1,2,0:0:0:0:
266,271,11828,2,0,P|266:185|237:129,1,112,0|0,1:0|0:0,0:0:0:0:
115,228,12417,5,2,0:0:0:0:
154,380,12711,1,2,0:0:0:0:
266,271,13005,2,0,P|320:259|400:286,1,112,0|0,1:0|0:0,0:0:0:0:
487,380,13593,5,2,0:0:0:0:
441,229,13887,2,0,L|452:126,1,56,2|0,0:0|0:0,0:0:0:0:
456,95,14181,2,0,P|396:58|326:55,1,112,0|0,1:0|0:0,0:0:0:0:
277,67,14623,1,2,0:0:0:0:
221,122,14770,6,0,L|123:129,1,56,2|0,0:0|0:0,0:0:0:0:
96,88,15064,2,0,L|-2:95,1,56,2|0,0:0|0:0,0:0:0:0:
0,159,15358,2,0,P|1:230|18:305,1,112,0|0,1:0|0:0,0:0:0:0:
143,349,15946,6,0,L|241:342,1,56,2|0,0:0|0:0,0:0:0:0:
257,292,16240,2,0,L|355:285,1,56,2|0,0:0|0:0,0:0:0:0:
383,321,16534,2,0,P|441:319|507:265,1,112,0|0,1:0|0:0,0:0:0:0:
461,217,16976,6,0,P|454:171|459:105,1,112,2|0,0:0|0:0,0:0:0:0:
478,30,17417,1,0,1:0:0:0:
383,83,17564,1,0,1:0:0:0:
383,83,18152,6,0,P|305:82|201:68,1,140,6|0,0:0|0:0,0:0:0:0:
184,16,18593,2,0,L|58:25,1,70,0|0,1:0|0:0,0:0:0:0:
50,75,18887,2,0,P|35:135|39:252,1,140,2|0,0:0|1:0,0:0:0:0:
134,347,19476,6,0,L|231:340,1,70,2|0,0:0|0:0,0:0:0:0:
263,283,19770,2,0,L|360:290,1,70,0|0,1:0|0:0,0:0:0:0:
400,237,20064,2,0,P|410:176|408:89,1,140,2|0,0:0|1:0,0:0:0:0:
494,175,20505,6,0,P|504:236|502:323,1,140,6|0,0:0|0:0,0:0:0:0:
441,371,20946,2,0,L|344:364,1,70,0|0,1:0|0:0,0:0:0:0:
301,319,21240,2,0,P|230:316|123:341,1,140,2|0,0:0|1:0,0:0:0:0:
82,353,21681,1,0,0:0:0:0:
30,286,21828,6,0,P|22:246|23:202,1,70,2|0,0:0|0:0,0:0:0:0:
91,169,22123,2,0,P|99:129|98:85,1,70,0|0,1:0|0:0,0:0:0:0:
78,18,22417,2,0,L|6:13,2,70,2|2|0,0:0|0:0|1:0,0:0:0:0:
183,98,22858,6,0,P|248:91|369:57,1,140,6|0,0:0|0:0,0:0:0:0:
389,26,23299,2,0,L|499:31,1,70,0|0,1:0|0:0,0:0:0:0:
494,105,23593,2,0,P|494:188|451:288,1,140,2|0,0:0|1:0,0:0:0:0:
363,365,24181,6,0,P|306:358|264:348,1,70,2|0,0:0|0:0,0:0:0:0:
252,281,24476,2,0,P|206:247|174:216,1,70,0|0,1:0|0:0,0:0:0:0:
197,152,24770,2,0,P|174:99|161:56,2,70,2|2|0,0:0|0:0|1:0,0:0:0:0:
227,26,25211,6,0,P|101:40|100:134,1,140,6|0,0:0|0:0,0:0:0:0:
92,120,25652,2,0,P|94:169|85:218,1,70,0|0,1:0|0:0,0:0:0:0:
166,228,25946,2,0,P|220:244|304:246,1,140,2|0,0:0|1:0,0:0:0:0:
385,230,26387,1,0,0:0:0:0:
432,160,26534,6,0,P|431:125|428:90,1,70,2|0,0:0|0:0,0:0:0:0:
344,84,26828,2,0,P|346:118|347:153,1,70,0|0,1:0|0:0,0:0:0:0:
264,148,27123,2,0,P|263:113|260:78,2,70,2|2|0,0:0|0:0|1:0,0:0:0:0:
205,200,27564,6,0,P|198:270|276:320,1,112,2|0,0:0|0:0,0:0:0:0:
290,337,28005,1,0,1:0:0:0:
136,319,28299,1,0,3:0:0:0:
271,242,28593,1,0,1:0:0:0:
206,384,28887,5,0,3:0:0:0:
177,231,29181,1,0,1:0:0:0:
290,337,29476,1,0,1:0:0:0:
290,337,29623,1,0,1:0:0:0:
177,231,29917,6,0,P|171:177|173:76,1,112,2|0,0:0|0:0,0:0:0:0:
174,41,30358,1,0,1:0:0:0:
327,74,30652,2,0,P|333:128|331:229,1,112,2|0,0:0|1:0,0:0:0:0:
330,264,31093,1,0,0:0:0:0:
330,264,31240,6,0,P|383:273|445:274,1,112,2|0,0:0|1:0,0:0:0:0:
510,141,31828,2,0,P|509:104|503:40,1,56,2|0,0:0|0:0,0:0:0:0:
498,6,32123,1,0,1:0:0:0:
498,6,32270,6,0,P|443:21|343:24,1,112,2|0,0:0|0:0,0:0:0:0:
311,11,32711,1,0,1:0:0:0:
229,144,33005,2,0,L|231:215,2,56,2|0|0,0:0|0:0|1:0,0:0:0:0:
304,113,33446,6,0,L|308:255,1,112,2|0,0:0|0:0,0:0:0:0:
309,303,33887,1,0,1:0:0:0:
159,348,34181,2,0,P|117:341|74:317,1,56,2|0,0:0|0:0,0:0:0:0:
47,282,34476,1,0,1:0:0:0:
47,282,34623,6,0,L|43:140,1,112,2|0,0:0|0:0,0:0:0:0:
42,92,35064,1,0,1:0:0:0:
188,36,35358,2,0,P|246:35|333:49,1,112,2|0,0:0|1:0,0:0:0:0:
361,91,35799,1,0,0:0:0:0:
361,91,35946,6,0,P|419:92|506:78,1,112,2|0,0:0|1:0,0:0:0:0:
512,237,36534,2,0,P|510:273|501:339,1,56,2|0,0:0|0:0,0:0:0:0:
468,360,36828,1,0,1:0:0:0:
468,360,36976,6,0,P|409:350|321:354,1,112,2|0,0:0|0:0,0:0:0:0:
280,366,37417,1,0,1:0:0:0:
137,301,37711,2,0,P|99:296|39:301,1,56,2|0,0:0|0:0,0:0:0:0:
49,224,38005,2,0,P|87:219|147:224,1,56,0|0,1:0|0:0,0:0:0:0:
181,231,38299,6,0,P|191:195|188:131,1,56,2|0,0:0|0:0,0:0:0:0:
152,109,38593,2,0,P|192:49|250:29,2,112,0|2|0,1:0|0:0|1:0,0:0:0:0:
264,143,39328,6,0,P|311:149|414:146,1,140,6|0,0:0|0:0,0:0:0:0:
485,128,39770,1,0,1:0:0:0:
454,293,40064,2,0,P|407:299|304:296,1,140,2|0,0:0|1:0,0:0:0:0:
233,282,40505,1,0,0:0:0:0:
233,282,40652,6,0,L|239:118,1,140,2|0,0:0|1:0,0:0:0:0:
138,7,41240,2,0,P|104:8|53:24,1,70,2|0,0:0|0:0,0:0:0:0:
4,70,41534,1,0,1:0:0:0:
4,70,41681,6,0,L|10:234,1,140,2|0,0:0|0:0,0:0:0:0:
14,294,42123,1,0,1:0:0:0:
176,336,42417,2,0,P|227:326|271:303,2,70,2|0|0,0:0|0:0|1:0,0:0:0:0:
258,235,42858,6,0,P|315:238|409:274,1,140,2|0,0:0|0:0,0:0:0:0:
459,317,43299,2,0,P|475:247|448:201,1,70,0|0,1:0|0:0,0:0:0:0:
423,186,43593,2,0,P|407:116|434:70,1,70,2|0,0:0|0:0,0:0:0:0:
436,41,43887,1,0,1:0:0:0:
436,41,44034,6,0,P|377:47|250:47,1,140,2|0,0:0|0:0,0:0:0:0:
212,42,44476,1,0,1:0:0:0:
89,157,44770,2,0,P|89:234|119:320,1,140,2|0,0:0|1:0,0:0:0:0:
159,359,45211,1,0,0:0:0:0:
159,359,45358,6,0,P|218:353|345:353,1,140,2|0,0:0|1:0,0:0:0:0:
376,382,45799,1,0,0:0:0:0:
376,382,45946,2,0,L|477:377,2,70,2|0|0,0:0|0:0|1:0,0:0:0:0:
365,299,46387,1,2,0:0:0:0:
365,299,46534,6,0,P|365:255|385:202,1,70
428,168,46828,2,0,P|428:124|408:71,1,70,0|0,1:0|0:0,0:0:0:0:
367,33,47123,2,0,L|263:42,1,70,2|0,0:0|0:0,0:0:0:0:
235,96,47417,2,0,L|131:87,1,70,0|0,1:0|0:0,0:0:0:0:
79,52,47711,6,0,L|84:128,1,70,2|0,0:0|0:0,0:0:0:0:
150,173,48005,2,0,P|166:247|139:324,1,140,0|2,1:0|0:0,0:0:0:0:
206,369,48446,2,0,L|301:363,1,70,2|0,0:0|0:0,0:0:0:0:
359,357,48740,1,0,1:0:0:0:
411,290,48887,6,0,L|506:296,2,56,2|0|0,1:2|1:0|0:0,0:0:0:0:
268,223,49476,2,0,L|173:229,2,56,2|0|0,0:0|1:0|1:0,0:0:0:0:
346,215,49917,1,0,1:0:0:0:
396,155,50064,6,0,P|405:116|370:35,1,112,2|0,0:0|0:0,0:0:0:0:
318,4,50505,1,0,0:0:0:0:
243,26,50652,2,0,L|85:15,2,112,2|2|2,0:0|0:0|0:0,0:0:0:0:
192,174,51534,6,0,L|113:168,1,56,2|0,0:0|0:0,0:0:0:0:
72,215,51828,2,0,P|71:126|127:92,1,112,2|2,0:0|0:0,0:0:0:0:
159,95,52270,1,0,0:0:0:0:
159,95,52417,6,0,L|238:101,1,56,2|0,0:0|0:0,0:0:0:0:
272,152,52711,2,0,L|351:146,1,56,2|0,0:0|0:0,0:0:0:0:
375,85,53005,2,0,P|463:103|484:164,1,112,2|2,0:0|0:0,0:0:0:0:
475,195,53446,1,0,0:0:0:0:
406,157,53593,6,0,P|392:213|404:295,1,112,2|2,0:0|0:0,0:0:0:0:
452,320,54034,2,0,L|448:389,1,56,0|0,1:0|0:0,0:0:0:0:
314,294,54476,2,0,L|310:225,1,56,2|0,0:0|0:0,0:0:0:0:
271,170,54770,6,0,P|244:163|216:162,1,56,2|0,0:0|0:0,0:0:0:0:
137,161,55064,2,0,P|108:162|75:173,1,56,2|0,0:0|0:0,0:0:0:0:
82,247,55358,2,0,P|109:254|137:255,1,56,2|0,0:0|0:0,0:0:0:0:
215,256,55652,2,0,P|244:255|277:244,1,56,2|0,0:0|0:0,0:0:0:0:
321,114,55946,6,0,L|321:210,1,70,6|2,0:0|0:0,0:0:0:0:
405,184,56240,2,0,L|405:88,1,70,2|2,0:0|0:0,0:0:0:0:
363,41,56534,1,0,1:0:0:0:
363,41,56681,1,0,1:0:0:0:
279,41,56828,1,0,1:0:0:0:
279,41,56976,1,0,1:0:0:0:
328,264,58152,6,0,P|342:186|345:91,1,140,6|2,0:0|0:0,0:0:0:0:
338,41,58593,1,0,1:0:0:0:
173,9,58887,1,2,0:0:0:0:
93,33,59034,1,2,0:0:0:0:
13,57,59181,2,0,P|7:100|8:154,1,70,0|0,1:0|0:0,0:0:0:0:
135,186,59476,6,0,P|103:181|45:195,1,70,2|0,0:0|0:0,0:0:0:0:
24,259,59770,2,0,P|36:289|77:332,1,70,0|0,1:0|0:0,0:0:0:0:
143,318,60064,2,0,P|163:293|180:236,1,70,2|0,0:0|0:0,0:0:0:0:
135,186,60358,1,0,1:0:0:0:
259,242,60505,6,0,P|307:239|398:211,1,140,6|2,0:0|0:0,0:0:0:0:
457,156,60946,1,0,1:0:0:0:
370,12,61240,1,2,0:0:0:0:
292,44,61387,1,2,0:0:0:0:
214,12,61534,2,0,P|179:7|90:11,1,70,0|0,1:0|0:0,0:0:0:0:
21,77,61828,6,0,P|56:75|91:71,1,70,2|0,0:0|0:0,0:0:0:0:
96,155,62123,2,0,P|61:158|26:160,1,70,0|0,1:0|0:0,0:0:0:0:
32,245,62417,2,0,P|67:243|102:239,1,70,2|0,0:0|0:0,0:0:0:0:
185,234,62711,1,0,1:0:0:0:
279,157,62858,6,0,P|268:228|279:303,1,140,6|2,0:0|0:0,0:0:0:0:
332,358,63299,2,0,L|417:350,1,70,0|0,1:0|0:0,0:0:0:0:
475,309,63593,2,0,P|485:238|475:163,1,140,2|0,0:0|1:0,0:0:0:0:
417,13,64181,6,0,L|332:21,1,70,2|0,0:0|0:0,0:0:0:0:
282,73,64476,2,0,L|197:64,1,70,0|0,1:0|0:0,0:0:0:0:
147,13,64770,2,0,L|62:21,1,70,2|0,0:0|0:0,0:0:0:0:
12,73,65064,1,0,1:0:0:0:
45,150,65211,6,0,P|55:215|49:308,1,140,2|2,0:0|0:0,0:0:0:0:
26,369,65652,1,0,1:0:0:0:
190,331,65946,1,2,0:0:0:0:
215,251,66093,1,2,0:0:0:0:
190,171,66240,2,0,P|183:139|195:57,1,70,0|0,1:0|0:0,0:0:0:0:
215,24,66534,6,0,L|333:32,1,70,2|0,0:0|0:0,0:0:0:0:
342,89,66828,2,0,L|460:81,1,70,0|0,1:0|0:0,0:0:0:0:
468,21,67123,2,0,P|451:101|455:178,1,140,2|0,0:0|1:0,0:0:0:0:
481,238,67564,1,2,0:0:0:0:
452,317,67711,6,0,P|460:360|512:424,1,70,6|0,0:0|0:0,0:0:0:0:
481,238,68005,2,0,L|385:238,1,70,2|0,0:0|0:0,0:0:0:0:
339,194,68299,2,0,P|263:192|169:217,1,140,0|2,1:0|0:0,0:0:0:0:
127,246,68740,1,2,0:0:0:0:
175,314,68887,6,0,P|215:320|281:315,1,70,2|0,0:0|0:0,0:0:0:0:
127,246,69181,2,0,P|92:246|57:252,1,70,2|0,0:0|0:0,0:0:0:0:
5,185,69476,2,0,P|0:119|5:45,1,140,0|2,1:0|0:0,0:0:0:0:
82,15,69917,1,2,0:0:0:0:
130,84,70064,6,0,P|132:119|130:154,1,70,2|0,0:0|0:0,0:0:0:0:
186,216,70358,2,0,P|221:225|277:226,1,70,2|0,0:0|0:0,0:0:0:0:
338,227,70652,2,0,P|372:224|411:214,1,70,0|0,1:0|0:0,0:0:0:0:
464,154,70946,1,2,0:0:0:0:
385,66,71093,6,0,L|382:136,1,70,2|0,0:0|0:0,0:0:0:0:
406,216,71387,1,2,0:0:0:0:
428,296,71534,2,0,L|425:366,1,70,2|0,0:0|0:0,0:0:0:0:
343,384,71828,2,0,P|277:381|180:361,1,140,0|2,1:0|0:0,0:0:0:0:
81,252,72417,5,6,0:0:0:0:
81,252,74623,6,0,P|174:251|266:234,1,140,6|0,0:0|0:0,0:0:0:0:
280,186,75064,2,0,L|386:198,1,70,0|0,1:0|0:0,0:0:0:0:
403,258,75358,2,0,L|509:246,1,70,2|0,0:0|0:0,0:0:0:0:
501,171,75652,2,0,P|505:132|495:82,1,70,0|0,1:0|0:0,0:0:0:0:
472,23,75946,5,2,0:0:0:0:
472,23,76093,1,0,0:0:0:0:
394,55,76240,2,0,L|287:62,1,70,0|0,1:0|0:0,0:0:0:0:
252,15,76534,2,0,L|145:22,1,70,2|0,0:0|0:0,0:0:0:0:
98,27,76828,1,0,1:0:0:0:
155,147,76976,6,0,L|369:133,1,140,2|0,0:0|0:0,0:0:0:0:
363,187,77417,2,0,P|372:257|332:306,1,70,0|0,1:0|0:0,0:0:0:0:
298,293,77711,2,0,P|289:363|329:412,2,70,2|0|0,0:0|0:0|1:0,0:0:0:0:
369,338,78152,1,0,0:0:0:0:
444,300,78299,6,0,P|453:230|413:181,1,70,2|0,0:0|0:0,0:0:0:0:
393,173,78593,2,0,P|384:103|424:54,1,70,0|0,1:0|0:0,0:0:0:0:
396,22,78887,2,0,L|265:37,1,70,2|0,0:0|0:0,0:0:0:0:
243,40,79181,1,0,1:0:0:0:
124,11,79328,6,0,P|162:62|179:170,1,140,6|0,0:0|0:0,0:0:0:0:
126,199,79770,2,0,P|118:233|118:287,1,70,0|0,1:0|0:0,0:0:0:0:
135,350,80064,1,2,0:0:0:0:
135,350,80211,1,0,0:0:0:0:
214,322,80358,2,0,L|284:322,1,70,0|0,1:0|0:0,0:0:0:0:
363,350,80652,5,2,0:0:0:0:
363,350,80799,1,0,0:0:0:0:
381,267,80946,2,0,P|379:232|371:198,1,70,0|0,1:0|0:0,0:0:0:0:
300,153,81240,2,0,P|302:118|310:84,1,70,2|0,0:0|0:0,0:0:0:0:
353,11,81534,1,0,1:0:0:0:
228,64,81681,6,0,P|187:71|55:53,1,140,2|0,0:0|0:0,0:0:0:0:
7,44,82123,2,0,L|15:136,1,70,0|0,1:0|0:0,0:0:0:0:
72,172,82417,2,0,L|64:264,1,70,2|0,0:0|0:0,0:0:0:0:
7,300,82711,2,0,L|15:392,1,70,0|0,1:0|0:0,0:0:0:0:
96,358,83005,5,2,0:0:0:0:
96,358,83152,1,0,0:0:0:0:
179,369,83299,2,0,L|187:277,1,70,0|0,1:0|0:0,0:0:0:0:
246,241,83593,2,0,P|287:241|349:259,1,70,2|0,0:0|0:0,0:0:0:0:
391,282,83887,1,0,1:0:0:0:
256,192,84034,12,2,87564,3:2:0:0:
