osu file format v14

[General]
AudioFilename: audio.mp3
AudioLeadIn: 0
PreviewTime: 56976
Countdown: 0
SampleSet: Normal
StackLeniency: 0.4
Mode: 0
LetterboxInBreaks: 0
WidescreenStoryboard: 1

[Editor]
DistanceSpacing: 0.55
BeatDivisor: 4
GridSize: 4
TimelineZoom: 4.199998

[Metadata]
Title:Sora ni Utaeba -TV edit.-
TitleUnicode:空に歌えば -TV edit.-
Artist:amazarashi
ArtistUnicode:amazarashi
Creator:Ryuusei Aika
Version:Left's Extra
Source:僕のヒーローアカデミア
Tags:Boku no my hero academia ヒロアカ heroaca 2期 第2期 第2クール second season op opening theme size gary00737 pata-mon Left Firis Mistlud kurantemelodii
BeatmapID:1386397
BeatmapSetID:637150

[Difficulty]
HPDrainRate:6.5
CircleSize:3.6
OverallDifficulty:8.5
ApproachRate:9.3
SliderMultiplier:1.8
SliderTickRate:1

[Events]
//Background and Video events
0,0,"BG.jpg",0,0
Video,250,"Sora Ni Utaeba.avi"
//Break Periods
//Storyboard Layer 0 (Background)
//Storyboard Layer 1 (Fail)
//Storyboard Layer 2 (Pass)
//Storyboard Layer 3 (Foreground)
//Storyboard Sound Samples

[TimingPoints]
-524,294.117647058824,4,1,1,40,1,0
505,-125,4,1,1,40,0,0
1681,-153.846153846154,4,1,1,50,0,0
3005,-133.333333333333,4,1,1,50,0,0
4034,-188.679245283019,4,1,1,50,0,0
5211,-158.730158730159,4,1,1,50,0,0
6387,-117.647058823529,4,1,1,50,0,0
11240,-125,4,1,1,60,0,0
16534,-100,4,1,2,60,0,0
17417,-300,4,1,1,60,0,0
18078,-300,4,1,1,5,0,0
18152,-90.9090909090909,4,1,2,80,0,0
18299,-90.9090909090909,4,1,1,80,0,0
27564,-117.647058823529,4,1,1,40,0,0
29476,-58.8235294117647,4,1,1,40,0,0
29549,-58.8235294117647,4,1,1,5,0,0
29623,-58.8235294117647,4,1,1,40,0,0
29696,-58.8235294117647,4,1,1,5,0,0
29917,-105.263157894737,4,1,1,50,0,0
39328,-100,4,1,2,60,0,0
39476,-100,4,1,1,60,0,0
40284,-100,4,1,1,5,0,0
40358,-100,4,1,1,60,0,0
48887,-66.6666666666667,4,1,1,60,0,0
49476,-133.333333333333,4,1,1,60,0,0
49770,-66.6666666666667,4,1,1,60,0,0
50358,-133.333333333333,4,1,1,60,0,0
50652,-66.6666666666667,4,1,1,60,0,0
51240,-133.333333333333,4,1,1,60,0,0
51534,-66.6666666666667,4,1,1,60,0,0
51828,-133.333333333333,4,1,1,60,0,0
52123,-66.6666666666667,4,1,1,60,0,0
53005,-133.333333333333,4,1,1,60,0,0
53887,-66.6666666666667,4,1,1,60,0,0
54770,-133.333333333333,4,1,1,60,0,0
57123,-200,4,1,1,50,0,0
57343,-200,4,1,1,5,0,0
57417,-200,4,1,1,80,0,0
57637,-200,4,1,1,5,0,0
57711,-200,4,1,1,50,0,0
57931,-200,4,1,1,5,0,0
58005,-66.6666666666667,4,1,1,50,0,0
58078,-66.6666666666667,4,1,1,5,0,0
58152,-83.3333333333333,4,1,2,80,0,1
58299,-83.3333333333333,4,1,1,80,0,1
67711,-83.3333333333333,4,1,2,80,0,1
67784,-83.3333333333333,4,1,1,80,0,1
72417,-200,4,1,1,50,0,0
73446,-200,4,1,1,5,0,0
73593,-200,4,1,1,50,0,0
74623,-90.9090909090909,4,1,2,80,0,0
74770,-90.9090909090909,4,1,1,80,0,0
79328,-83.3333333333333,4,1,2,100,0,0
79402,-83.3333333333333,4,1,1,100,0,0
79843,-83.3333333333333,4,1,1,5,0,0
79917,-83.3333333333333,4,1,1,100,0,0
80137,-83.3333333333333,4,1,1,5,0,0
80211,-83.3333333333333,4,1,1,100,0,0
80431,-83.3333333333333,4,1,1,5,0,0
80505,-83.3333333333333,4,1,1,100,0,0
80726,-83.3333333333333,4,1,1,5,0,0
80799,-83.3333333333333,4,1,1,100,0,0
81020,-83.3333333333333,4,1,1,5,0,0
81093,-83.3333333333333,4,1,1,100,0,0
81167,-83.3333333333333,4,1,1,5,0,0
81240,-83.3333333333333,4,1,1,100,0,0
82196,-83.3333333333333,4,1,1,5,0,0
82270,-83.3333333333333,4,1,1,100,0,0
82490,-83.3333333333333,4,1,1,5,0,0
82564,-83.3333333333333,4,1,1,100,0,0
82784,-83.3333333333333,4,1,1,5,0,0
82858,-83.3333333333333,4,1,1,100,0,0
83078,-83.3333333333333,4,1,1,5,0,0
83152,-83.3333333333333,4,1,1,100,0,0
84034,-200,4,1,1,60,0,0
84181,-200,4,1,1,30,0,0
84696,-200,4,1,1,5,0,0
84770,-200,4,1,1,30,0,0
85873,-200,4,1,1,5,0,0
85946,-200,4,1,1,30,0,0
87049,-200,4,1,1,5,0,0
87123,-200,4,1,1,30,0,0
87343,-200,4,1,1,5,0,0
87417,-66.6666666666667,4,1,1,70,0,0
87490,-200,4,1,1,5,0,0
87564,-200,4,1,2,70,0,0
87784,-200,4,1,1,30,0,0

[Colours]
Combo1 : 211,220,197
Combo2 : 216,239,32
Combo3 : 114,134,108
Combo4 : 138,153,0

[HitObjects]
163,319,1681,6,0,B|168:258|97:215|50:266|47:311|47:311|60:257|34:208|34:208|-6:150|23:89,1,409.499981254578,4|0,0:0|0:0,0:0:0:0:
196,170,3005,6,0,B|109:187|84:119|91:51|133:40|169:26|225:44|227:97|227:97|193:83|156:91|136:118,1,405.000015449525,4|0,0:0|0:0,0:0:0:0:
281,160,4034,6,0,B|327:205|316:274|316:274|316:202|368:139|455:159,1,333.900000509491,4|0,0:0|0:0,0:0:0:0:
417,260,5358,6,0,P|465:363|434:249,1,340.19998961792,4|8,0:0|0:0,0:0:0:0:
455,160,6387,6,0,B|419:149|388:172|388:172|348:205|301:187,1,153.000002918243,4|0,0:0|0:0,0:0:0:0:
265,118,6828,1,0,0:0:0:0:
293,38,7123,1,2,0:0:0:0:
376,29,7417,1,2,0:0:0:0:
428,257,7711,5,6,0:0:0:0:
350,223,8005,1,2,0:0:0:0:
290,285,8299,1,2,0:0:0:0:
331,359,8593,5,8,0:0:0:0:
415,345,8740,1,4,0:0:0:0:
338,140,8887,5,0,0:0:0:0:
273,193,9181,1,2,0:0:0:0:
192,166,9476,1,2,0:0:0:0:
169,85,9770,1,2,0:0:0:0:
353,150,10064,5,4,0:0:0:0:
275,214,10358,1,2,0:0:0:0:
177,181,10652,5,8,0:0:0:0:
177,181,10799,1,8,0:0:0:0:
150,84,10947,1,8,0:0:0:0:
150,84,11093,1,8,0:0:0:0:
79,157,11240,6,0,P|99:236|93:310,1,144,6|2,0:0|0:0,0:0:0:0:
359,371,11828,2,0,P|356:299|375:230,1,144,8|2,0:0|0:0,0:0:0:0:
432,162,12270,1,0,0:0:0:0:
375,230,12417,6,0,P|307:267|233:260,1,144,2|0,0:0|0:0,0:0:0:0:
10,114,13005,2,0,P|81:111|142:147,1,144,8|2,0:0|0:0,0:0:0:0:
208,206,13446,1,0,0:0:0:0:
142,147,13593,6,0,P|118:84|126:-5,1,144,2|0,0:0|0:0,0:0:0:0:
386,153,14181,2,0,P|390:224|365:291,1,144,8|2,0:0|0:0,0:0:0:0:
305,354,14623,5,0,0:0:0:0:
365,291,14770,2,0,P|422:267|462:272,1,72
426,157,15064,2,0,P|358:198|276:192,1,144,2|8,0:0|0:0,0:0:0:0:
64,45,15652,1,2,0:0:0:0:
64,45,15946,5,2,0:0:0:0:
127,110,16093,1,2,0:0:0:0:
212,124,16240,1,2,0:0:0:0:
288,79,16387,1,2,0:0:0:0:
160,194,16534,5,2,0:0:0:0:
233,328,16681,2,0,P|247:276|219:219,1,90,2|0,0:0|0:0,0:0:0:0:
160,194,16976,2,0,B|211:181|248:211|248:211|292:242|350:205,1,180,2|0,0:0|0:0,0:0:0:0:
338,13,17417,5,8,0:0:0:0:
416,216,17564,1,8,0:0:0:0:
461,142,17711,6,0,P|470:115|458:64,1,75
441,62,18152,6,0,L|433:289,1,198.000006042481,4|0,0:0|0:0,0:0:0:0:
132,240,18593,2,0,L|113:114,1,99.0000030212403,8|0,0:0|0:0,0:0:0:0:
177,69,18887,1,2,0:0:0:0:
32,178,19034,1,2,0:0:0:0:
207,164,19181,1,8,0:0:0:0:
44,89,19328,1,0,0:0:0:0:
95,304,19476,5,2,0:0:0:0:
13,266,19623,1,0,0:0:0:0:
95,304,19770,2,0,B|144:321|187:291|187:291|241:255|297:288,1,198.000006042481,8|2,0:0|0:0,0:0:0:0:
357,336,20211,2,0,L|343:393,2,49.5000015106202,2|0|8,0:0|0:0|0:0,0:0:0:0:
304,181,20505,6,0,B|274:169|261:143|261:143|284:293,1,198.000006042481,4|0,0:0|0:0,0:0:0:0:
344,98,20946,2,0,L|357:-35,1,99.0000030212403,8|0,0:0|0:0,0:0:0:0:
282,280,21240,1,2,0:0:0:0:
261,142,21387,1,0,0:0:0:0:
337,198,21534,1,0,0:0:0:0:
337,198,21681,1,8,0:0:0:0:
131,244,21828,5,2,0:0:0:0:
266,347,21976,1,0,0:0:0:0:
107,332,22123,1,8,0:0:0:0:
260,257,22270,1,0,0:0:0:0:
181,383,22417,5,8,0:0:0:0:
215,137,22564,1,8,0:0:0:0:
218,154,22711,1,8,0:0:0:0:
221,171,22858,2,0,B|270:154|313:184|313:184|367:220|423:187,1,198.000006042481,4|0,0:0|0:0,0:0:0:0:
383,15,23299,6,0,L|365:127,1,99.0000030212403,8|0,0:0|0:0,0:0:0:0:
200,295,23593,2,0,P|252:265|302:275,1,99.0000030212403,2|2,0:0|0:0,0:0:0:0:
392,195,23887,2,0,P|343:196|303:168,1,99.0000030212403,8|0,0:0|0:0,0:0:0:0:
282,86,24181,5,2,0:0:0:0:
372,289,24328,1,0,0:0:0:0:
367,112,24476,1,8,0:0:0:0:
187,222,24623,1,0,0:0:0:0:
366,333,24770,1,2,0:0:0:0:
274,289,24917,2,0,P|253:295|211:329,2,49.5000015106202,2|0|8,0:0|0:0|0:0,0:0:0:0:
423,233,25211,6,0,B|374:250|331:220|331:220|277:184|221:217,1,198.000006042481,4|0,0:0|0:0,0:0:0:0:
56,346,25652,2,0,L|69:240,1,99.0000030212403,8|0,0:0|0:0,0:0:0:0:
143,110,25946,1,2,0:0:0:0:
7,181,26093,1,2,0:0:0:0:
148,200,26240,1,8,0:0:0:0:
35,96,26387,1,0,0:0:0:0:
31,271,26534,5,10,0:0:0:0:
224,147,26681,1,0,0:0:0:0:
7,181,26828,1,10,0:0:0:0:
233,239,26976,1,2,0:0:0:0:
94,39,27123,5,10,0:0:0:0:
94,39,27270,1,2,0:0:0:0:
94,39,27417,1,2,0:0:0:0:
94,39,27564,2,0,P|180:55|217:-14,1,153.000002918243,4|0,0:0|0:0,0:0:0:0:
299,29,28005,6,0,L|282:112,1,76.5000014591217,8|0,0:0|0:0,0:0:0:0:
342,172,28299,2,0,L|439:180,1,76.5000014591217,2|0,0:0|0:0,0:0:0:0:
283,37,28593,2,0,L|266:120,1,76.5000014591217,8|0,0:0|0:0,0:0:0:0:
330,186,28887,2,0,L|427:194,1,76.5000014591217,2|0,0:0|0:0,0:0:0:0:
271,46,29181,2,0,L|254:129,1,76.5000014591217,8|0,0:0|0:0,0:0:0:0:
319,197,29476,6,0,L|416:205,1,76.5000014591217,8|0,0:0|0:0,0:0:0:0:
258,56,29623,2,0,L|241:139,1,76.5000014591217,8|0,0:0|0:0,0:0:0:0:
242,130,29917,6,0,B|197:118|156:150|156:150|114:178|58:153,1,170.999995433807,6|0,0:0|0:0,0:0:0:0:
222,215,30358,2,0,P|239:247|209:320,1,85.4999977169037,8|0,0:0|0:0,0:0:0:0:
87,318,30652,2,0,P|120:345|162:349,1,85.4999977169037,2|0,0:0|0:0,0:0:0:0:
139,181,30946,2,0,P|99:195|76:230,1,85.4999977169037,8|0,0:0|0:0,0:0:0:0:
232,294,31240,2,0,L|257:104,1,170.999995433807,0|8,0:0|0:0,0:0:0:0:
254,124,31828,5,2,0:0:0:0:
242,210,31976,1,2,0:0:0:0:
232,294,32123,1,8,0:0:0:0:
192,70,32270,6,0,P|284:43|335:114,1,170.999995433807,2|0,0:0|0:0,0:0:0:0:
111,130,32711,2,0,L|95:18,1,85.4999977169037,8|0,0:0|0:0,0:0:0:0:
202,165,33005,2,0,B|157:153|116:185|116:185|74:213|18:188,1,170.999995433807,2|8,0:0|0:0,0:0:0:0:
182,251,33446,2,0,P|254:263|282:167,1,170.999995433807,2|0,0:0|0:0,0:0:0:0:
202,165,33887,1,8,0:0:0:0:
202,165,34181,5,2,0:0:0:0:
182,251,34328,1,2,0:0:0:0:
163,335,34476,1,8,0:0:0:0:
249,310,34623,6,0,B|294:298|335:330|335:330|377:358|433:333,1,170.999995433807,2|0,0:0|0:0,0:0:0:0:
397,175,35064,2,0,L|382:272,1,85.4999977169037,8|0,0:0|0:0,0:0:0:0:
452,108,35358,2,0,P|398:89|341:107,1,85.4999977169037,2|0,0:0|0:0,0:0:0:0:
279,163,35652,1,8,0:0:0:0:
397,175,35799,1,0,0:0:0:0:
300,248,35946,6,0,B|255:260|214:228|214:228|172:200|116:225,1,170.999995433807,2|8,0:0|0:0,0:0:0:0:
138,217,36534,1,2,0:0:0:0:
166,305,36681,1,2,0:0:0:0:
212,159,36828,1,8,0:0:0:0:
60,196,36976,6,0,P|115:221|164:200,1,85.4999977169037,2|0,0:0|0:0,0:0:0:0:
171,74,37270,1,0,0:0:0:0:
171,74,37417,2,0,P|116:49|67:70,1,85.4999977169037,8|0,0:0|0:0,0:0:0:0:
26,109,37711,1,2,0:0:0:0:
175,169,37858,1,2,0:0:0:0:
99,263,38005,2,0,L|88:168,1,85.4999977169037,8|0,0:0|0:0,0:0:0:0:
118,98,38299,5,2,0:0:0:0:
1,201,38446,1,2,0:0:0:0:
145,262,38593,1,8,0:0:0:0:
130,242,38887,5,8,0:0:0:0:
26,202,39034,1,2,0:0:0:0:
114,124,39181,1,2,0:0:0:0:
218,172,39328,2,0,B|258:190|300:162|300:162|346:127|398:149,1,180,6|0,0:0|0:0,0:0:0:0:
375,320,39770,6,0,L|354:216,1,90,8|0,0:0|0:0,0:0:0:0:
488,48,40064,2,0,L|468:199,1,135,2|0,0:0|0:0,0:0:0:0:
469,201,40358,1,8,0:0:0:0:
260,120,40505,6,0,P|336:108|356:85,1,90,2|2,0:0|0:0,0:0:0:0:
469,201,40799,2,0,P|430:179|385:182,1,90,0|8,0:0|0:0,0:0:0:0:
311,234,41093,1,0,0:0:0:0:
406,337,41240,5,2,0:0:0:0:
311,234,41387,1,2,0:0:0:0:
436,151,41534,1,8,0:0:0:0:
322,55,41681,2,0,B|282:37|240:65|240:65|194:100|142:78,1,180,2|0,0:0|0:0,0:0:0:0:
59,33,42123,6,0,L|75:161,1,90,8|0,0:0|0:0,0:0:0:0:
94,252,42417,1,2,0:0:0:0:
222,211,42564,2,0,P|186:180|110:187,1,90,2|8,0:0|0:0,0:0:0:0:
6,323,42858,6,0,P|62:256|168:283,1,180,2|0,0:0|0:0,0:0:0:0:
222,211,43299,1,8,0:0:0:0:
147,264,43446,1,0,0:0:0:0:
230,302,43593,5,2,0:0:0:0:
138,172,43740,1,2,0:0:0:0:
230,302,43887,1,8,0:0:0:0:
391,184,44034,6,0,B|351:166|309:194|309:194|263:229|211:207,1,180,6|0,0:0|0:0,0:0:0:0:
456,243,44476,2,0,P|478:199|457:134,1,90,8|0,0:0|0:0,0:0:0:0:
412,87,44770,2,0,B|386:77|372:56|372:56|393:200,1,180,2|8,0:0|0:0,0:0:0:0:
301,324,45211,5,2,0:0:0:0:
301,324,45358,2,0,L|315:205,1,90
390,183,45652,1,8,0:0:0:0:
221,261,45799,1,0,0:0:0:0:
390,183,45946,1,2,0:0:0:0:
301,324,46093,1,2,0:0:0:0:
246,170,46240,1,8,0:0:0:0:
51,287,46387,6,0,B|91:305|133:277|133:277|179:242|231:264,1,180,6|2,0:0|0:0,0:0:0:0:
78,202,46828,2,0,P|58:156|79:91,1,90,8|0,0:0|0:0,0:0:0:0:
132,55,47123,1,2,0:0:0:0:
132,55,47270,1,2,0:0:0:0:
220,260,47417,5,8,0:0:0:0:
240,170,47564,1,0,0:0:0:0:
290,321,47711,5,8,0:0:0:0:
307,230,47858,1,2,0:0:0:0:
220,260,48005,2,0,P|172:261|124:219,1,90,2|0,0:0|0:0,0:0:0:0:
189,30,48299,5,8,0:0:0:0:
211,25,48446,1,0,0:0:0:0:
233,28,48593,1,0,0:0:0:0:
254,36,48740,1,8,0:0:0:0:
272,50,48887,6,0,L|84:65,1,135.000005149842,12|8,0:0|0:0,0:0:0:0:
82,132,49476,2,0,L|103:209,1,67.5000025749208,0|8,0:0|0:0,0:0:0:0:
99,197,49770,6,0,L|287:182,1,135.000005149842,8|8,0:0|0:0,0:0:0:0:
298,253,50358,2,0,L|280:341,1,67.5000025749208,0|8,0:0|0:0,0:0:0:0:
284,319,50652,6,0,L|96:334,1,135.000005149842,8|8,0:0|0:0,0:0:0:0:
137,128,50946,2,0,L|325:113,1,135.000005149842,8|8,0:0|0:0,0:0:0:0:
280,123,51167,5,8,0:0:0:0:
280,123,51240,2,0,L|266:35,1,67.5000025749208,4|0,0:0|0:0,0:0:0:0:
423,32,51534,2,0,L|404:215,1,135.000005149842,8|8,0:0|0:0,0:0:0:0:
307,280,51828,6,0,L|293:192,1,67.5000025749208,0|0,0:0|0:0,0:0:0:0:
409,166,52123,2,0,L|390:349,1,135.000005149842,2|2,0:0|0:0,0:0:0:0:
395,300,52343,1,2,0:0:0:0:
395,300,52417,1,4,0:0:0:0:
307,280,52564,1,0,0:0:0:0:
376,64,52711,5,2,0:0:0:0:
296,106,52858,1,0,0:0:0:0:
296,106,52931,1,0,0:0:0:0:
296,106,53005,2,0,P|261:109|217:84,1,67.5000025749208,4|0,0:0|0:0,0:0:0:0:
75,230,53299,1,2,0:0:0:0:
147,178,53446,1,2,0:0:0:0:
147,178,53519,1,2,0:0:0:0:
147,178,53593,2,0,P|182:175|226:200,1,67.5000025749208,6|0,0:0|0:0,0:0:0:0:
248,303,53887,6,0,L|94:315,1,135.000005149842,8|8,0:0|0:0,0:0:0:0:
56,249,54181,1,0,0:0:0:0:
292,229,54476,1,0,0:0:0:0:
248,303,54623,1,0,0:0:0:0:
276,97,54770,6,0,P|322:82|357:92,1,67.5000025749208,2|2,0:0|0:0,0:0:0:0:
235,174,55064,2,0,P|199:141|190:106,1,67.5000025749208,2|2,0:0|0:0,0:0:0:0:
321,171,55358,2,0,P|310:218|284:243,1,67.5000025749208,2|2,0:0|0:0,0:0:0:0:
235,174,55652,1,2,0:0:0:0:
235,174,55799,1,2,0:0:0:0:
180,243,55946,5,8,0:0:0:0:
163,126,56093,1,8,0:0:0:0:
239,88,56240,5,8,0:0:0:0:
266,256,56387,1,8,0:0:0:0:
101,194,56534,5,8,0:0:0:0:
237,0,56681,1,8,0:0:0:0:
258,1,56754,1,8,0:0:0:0:
266,21,56828,1,8,0:0:0:0:
254,38,56901,1,8,0:0:0:0:
233,36,56975,1,8,0:0:0:0:
224,17,57048,1,8,0:0:0:0:
237,0,57123,6,0,L|228:80,1,67.5,0|0,0:0|0:0,0:0:0:0:
299,107,57417,2,0,L|306:175,1,67.5,0|0,0:0|0:0,0:0:0:0:
235,212,57711,2,0,L|227:280,1,67.5,0|0,0:0|0:0,0:0:0:0:
298,317,58005,6,0,L|305:384,1,67.5,0|0,0:0|0:0,0:0:0:0:
499,110,58152,6,0,B|447:92|400:143|400:143|340:202|267:157,1,215.999993408203,4|0,0:0|0:0,0:0:0:0:
144,69,58593,2,0,L|162:186,1,107.999996704102,8|0,0:0|0:0,0:0:0:0:
160,175,58814,1,0,0:0:0:0:
160,175,58887,1,2,0:0:0:0:
216,19,59034,1,2,0:0:0:0:
97,236,59181,2,0,P|31:235|-8:199,1,107.999996704102,8|0,0:0|0:0,0:0:0:0:
256,187,59476,5,2,0:0:0:0:
216,355,59623,1,2,0:0:0:0:
381,311,59770,1,8,0:0:0:0:
381,311,60064,5,2,0:0:0:0:
216,355,60211,1,2,0:0:0:0:
256,187,60358,1,8,0:0:0:0:
430,206,60505,6,0,B|378:188|331:239|331:239|271:298|198:253,1,215.999993408203,2|0,0:0|0:0,0:0:0:0:
234,98,60946,2,0,P|298:106|338:156,1,107.999996704102,8|0,0:0|0:0,0:0:0:0:
328,134,61167,1,0,0:0:0:0:
328,134,61240,1,2,0:0:0:0:
174,212,61387,1,2,0:0:0:0:
295,331,61534,1,8,0:0:0:0:
156,296,61681,1,0,0:0:0:0:
320,251,61828,5,2,0:0:0:0:
320,251,61976,1,2,0:0:0:0:
274,28,62123,1,8,0:0:0:0:
274,28,62417,5,2,0:0:0:0:
274,28,62564,1,2,0:0:0:0:
320,251,62711,1,8,0:0:0:0:
197,108,62858,6,0,B|249:90|296:141|296:141|356:200|429:155,1,215.999993408203,2|0,0:0|0:0,0:0:0:0:
224,196,63299,1,8,0:0:0:0:
372,84,63446,1,0,0:0:0:0:
363,338,63593,5,2,0:0:0:0:
468,263,63740,1,2,0:0:0:0:
376,246,63887,1,8,0:0:0:0:
451,354,64034,1,0,0:0:0:0:
376,246,64181,2,0,L|387:124,1,107.999996704102,2|2,0:0|0:0,0:0:0:0:
151,18,64476,2,0,L|160:125,1,107.999996704102,8|0,0:0|0:0,0:0:0:0:
185,356,64770,1,2,0:0:0:0:
185,356,64917,1,2,0:0:0:0:
185,356,65064,1,8,0:0:0:0:
98,347,65211,6,0,B|151:335|175:279|175:279|208:334|287:322,1,215.999993408203,2|0,0:0|0:0,0:0:0:0:
267,126,65652,2,0,L|249:266,1,107.999996704102,8|0,0:0|0:0,0:0:0:0:
253,233,65873,1,0,0:0:0:0:
253,233,65946,1,2,0:0:0:0:
176,139,66093,1,2,0:0:0:0:
343,222,66240,1,8,0:0:0:0:
176,139,66387,1,0,0:0:0:0:
313,306,66534,5,2,0:0:0:0:
313,306,66681,1,2,0:0:0:0:
370,75,66828,2,0,B|318:57|271:108|271:108|211:167|138:122,1,215.999993408203,8|2,0:0|0:0,0:0:0:0:
321,243,67270,5,2,0:0:0:0:
355,269,67343,1,2,0:0:0:0:
399,264,67417,1,10,0:0:0:0:
427,230,67490,1,2,0:0:0:0:
423,186,67564,1,2,0:0:0:0:
389,158,67637,1,2,0:0:0:0:
346,160,67711,1,4,0:0:0:0:
204,253,67858,5,2,0:0:0:0:
280,100,68005,2,0,P|260:142|286:224,1,107.999996704102,2|0,0:0|0:0,0:0:0:0:
476,303,68299,1,8,0:0:0:0:
476,303,68593,1,2,0:0:0:0:
315,361,68740,1,8,0:0:0:0:
476,303,68887,5,2,0:0:0:0:
327,218,69034,1,0,0:0:0:0:
413,367,69181,2,0,P|389:311|413:241,1,107.999996704102,2|0,0:0|0:0,0:0:0:0:
480,50,69476,2,0,P|401:145|304:103,1,215.999993408203,8|2,0:0|0:0,0:0:0:0:
284,48,69917,1,8,0:0:0:0:
284,48,69990,1,0,0:0:0:0:
284,48,70064,5,2,0:0:0:0:
332,290,70211,1,2,0:0:0:0:
146,254,70358,2,0,L|158:125,1,107.999996704102,8|0,0:0|0:0,0:0:0:0:
251,246,70652,2,0,B|199:228|152:279|152:279|92:338|19:293,1,215.999993408203,2|8,0:0|0:0,0:0:0:0:
231,328,71093,5,2,0:0:0:0:
81,221,71240,1,0,0:0:0:0:
246,167,71387,1,0,0:0:0:0:
81,221,71534,2,0,P|144:247|202:222,1,107.999996704102,8|0,0:0|0:0,0:0:0:0:
246,167,71828,1,0,0:0:0:0:
375,384,71976,5,2,0:0:0:0:
375,384,72049,1,2,0:0:0:0:
375,384,72123,2,0,L|387:295,1,53.9999983520508,10|2,0:0|0:0,0:0:0:0:
325,257,72270,2,0,L|236:245,1,53.9999983520508,2|2,0:0|0:0,0:0:0:0:
172,142,72417,6,0,B|238:188|317:131|317:131|395:56|475:115,1,315,4|0,0:0|0:0,0:0:0:0:
441,190,73593,5,0,0:0:0:0:
441,190,73740,1,0,0:0:0:0:
71,190,74181,5,0,0:0:0:0:
71,190,74328,1,0,0:0:0:0:
149,228,74476,1,0,0:0:0:0:
0,281,74623,6,0,B|49:264|92:294|92:294|146:330|202:297,1,198.000006042481,4|2,0:0|0:0,0:0:0:0:
162,129,75064,2,0,L|144:258,1,99.0000030212403,8|0,0:0|0:0,0:0:0:0:
292,252,75358,1,2,0:0:0:0:
132,311,75505,1,2,0:0:0:0:
278,342,75652,1,8,0:0:0:0:
148,227,75799,1,8,0:0:0:0:
395,160,75946,5,2,0:0:0:0:
305,82,76093,1,0,0:0:0:0:
395,160,76240,2,0,B|346:143|303:173|303:173|249:209|193:176,1,198.000006042481,8|2,0:0|0:0,0:0:0:0:
148,113,76681,2,0,L|156:57,2,49.5000015106202,2|0|10,0:0|0:0|0:0,0:0:0:0:
62,343,76976,6,0,P|139:256|230:313,1,198.000006042481,4|2,0:0|0:0,0:0:0:0:
262,349,77417,2,0,P|315:355|367:307,1,99.0000030212403,8|0,0:0|0:0,0:0:0:0:
241,191,77711,2,0,P|204:243|224:316,1,99.0000030212403,2|2,0:0|0:0,0:0:0:0:
291,265,78005,1,8,0:0:0:0:
291,265,78152,1,8,0:0:0:0:
86,144,78299,5,2,0:0:0:0:
249,78,78446,1,0,0:0:0:0:
100,55,78593,1,8,0:0:0:0:
230,168,78740,1,0,0:0:0:0:
182,16,78887,5,8,0:0:0:0:
138,302,79034,1,8,0:0:0:0:
142,286,79181,1,8,0:0:0:0:
145,271,79328,2,0,B|200:252|247:287|247:287|310:327|361:282,1,215.999993408203,4|0,0:0|0:0,0:0:0:0:
505,158,79770,6,0,L|498:232,1,53.9999983520508,8|0,0:0|0:0,0:0:0:0:
447,326,79917,1,2,0:0:0:0:
432,315,80064,6,0,L|425:241,1,53.9999983520508,8|0,0:0|0:0,0:0:0:0:
369,114,80211,1,2,0:0:0:0:
357,127,80358,6,0,L|350:201,1,53.9999983520508,8|0,0:0|0:0,0:0:0:0:
281,356,80505,1,2,0:0:0:0:
267,343,80652,6,0,L|260:269,1,53.9999983520508,8|0,0:0|0:0,0:0:0:0:
190,90,80799,1,2,0:0:0:0:
176,103,80946,6,0,L|170:156,1,53.9999983520508,8|0,0:0|0:0,0:0:0:0:
77,367,81093,2,0,L|71:296,1,53.9999983520508,2|0,0:0|0:0,0:0:0:0:
87,124,81240,5,8,0:0:0:0:
231,251,81387,1,8,0:0:0:0:
72,313,81534,1,8,0:0:0:0:
72,313,81608,1,0,0:0:0:0:
72,313,81681,2,0,B|129:291|175:326|175:326|234:364|294:324,1,215.999993408203,4|0,0:0|0:0,0:0:0:0:
509,269,82123,6,0,L|502:195,1,53.9999983520508,8|0,0:0|0:0,0:0:0:0:
442,93,82270,1,2,0:0:0:0:
428,105,82417,6,0,L|421:179,1,53.9999983520508,8|0,0:0|0:0,0:0:0:0:
343,312,82564,1,2,0:0:0:0:
327,301,82711,6,0,L|321:247,1,53.9999983520508,8|0,0:0|0:0,0:0:0:0:
245,59,82858,1,2,0:0:0:0:
230,71,83005,6,0,L|223:145,1,53.9999983520508,10|0,0:0|0:0,0:0:0:0:
138,343,83152,1,2,0:0:0:0:
89,123,83299,1,10,0:0:0:0:
258,234,83446,1,2,0:0:0:0:
62,282,83593,1,10,0:0:0:0:
444,189,83740,5,8,0:0:0:0:
444,189,83814,1,8,0:0:0:0:
444,189,83887,1,8,0:0:0:0:
444,189,83961,1,8,0:0:0:0:
444,189,84034,2,0,P|425:124|431:43,1,135,4|0,0:0|0:0,0:0:0:0:
427,57,84770,2,0,P|379:74|326:68,1,90,0|0,0:0|0:0,0:0:0:0:
339,209,85211,6,0,P|404:190|485:196,1,135,0|0,0:0|0:0,0:0:0:0:
471,192,85947,2,0,P|454:144|460:91,1,90,0|0,0:0|0:0,0:0:0:0:
299,96,86387,6,0,P|318:161|312:242,1,135,0|0,0:0|0:0,0:0:0:0:
316,228,87123,2,0,P|354:216|401:220,1,67.5,0|0,0:0|0:0,0:0:0:0:
366,127,87417,6,0,P|328:139|281:135,1,67.5,8|0,0:0|0:0,0:0:0:0:
233,194,87564,1,8,0:0:0:0:
