osu file format v14

[General]
AudioFilename: audio.mp3
AudioLeadIn: 0
PreviewTime: 56976
Countdown: 0
SampleSet: Normal
StackLeniency: 0.3
Mode: 0
LetterboxInBreaks: 0
WidescreenStoryboard: 1

[Editor]
DistanceSpacing: 2
BeatDivisor: 4
GridSize: 16
TimelineZoom: 3.099999

[Metadata]
Title:Sora ni Utaeba -TV edit.-
TitleUnicode:空に歌えば -TV edit.-
Artist:amazarashi
ArtistUnicode:amazarashi
Creator:Ryuusei Aika
Version:Firis' Extra
Source:僕のヒーローアカデミア
Tags:Boku no my hero academia ヒロアカ heroaca 2期 第2期 第2クール second season op opening theme size gary00737 pata-mon Left Firis Mistlud kurantemelodii
BeatmapID:1385532
BeatmapSetID:637150

[Difficulty]
HPDrainRate:6
CircleSize:4
OverallDifficulty:8.7
ApproachRate:9.2
SliderMultiplier:1.9
SliderTickRate:1

[Events]
//Background and Video events
0,0,"BG.jpg",0,0
Video,250,"Sora Ni Utaeba.avi"
//Break Periods
//Storyboard Layer 0 (Background)
//Storyboard Layer 1 (Fail)
//Storyboard Layer 2 (Pass)
//Storyboard Layer 3 (Foreground)
//Storyboard Sound Samples

[TimingPoints]
-524,294.117647058824,4,1,0,60,1,0
505,-100,4,1,1,40,0,0
1681,-133.333333333333,4,1,1,50,0,0
11240,-133.333333333333,4,1,1,60,0,0
15946,-100,4,1,1,60,0,0
16534,-100,4,1,2,60,0,0
17417,-100,4,1,1,60,0,0
18152,-90.9090909090909,4,1,2,80,0,0
18299,-90.9090909090909,4,1,1,80,0,1
27564,-200,4,1,1,40,0,0
29917,-133.333333333333,4,1,1,50,0,0
39328,-100,4,1,2,60,0,0
39329,-100,4,1,2,60,0,0
39476,-100,4,1,1,60,0,0
49034,-133.333333333333,4,1,1,60,0,0
52417,-100,4,1,1,60,0,0
57123,-133.333333333333,4,1,1,50,0,0
58152,-90.9090909090909,4,1,2,80,0,1
58299,-90.9090909090909,4,1,1,80,0,1
67711,-100,4,1,2,80,0,0
67784,-100,4,1,1,80,0,0
72417,-133.333333333333,4,1,1,50,0,0
74181,-66.6666666666667,4,1,1,60,0,0
74623,-90.9090909090909,4,1,2,80,0,0
74770,-90.9090909090909,4,1,1,80,0,1
79328,-90.9090909090909,4,1,2,100,0,1
79402,-90.9090909090909,4,1,1,100,0,1
84034,-133.333333333333,4,1,1,60,0,0
84181,-133.333333333333,4,1,1,30,0,0
87417,-100,4,1,1,70,0,0
87564,-83.3333333333333,4,1,2,70,0,0
87784,-83.3333333333333,4,1,1,5,0,0

[Colours]
Combo1 : 211,220,197
Combo2 : 216,239,32
Combo3 : 114,134,108
Combo4 : 138,153,0

[HitObjects]
58,144,1681,6,0,B|26:121|-26:182|-2:248|106:262|138:174|138:174|219:230|194:310|194:310|239:262|273:280,1,498.750019025803,4|0,0:0|0:0,0:0:0:0:
452,347,3005,6,0,B|472:363|542:288|410:208|333:342|333:342|370:291|368:258|336:240|325:191|336:158,1,427.500016307831,4|0,0:0|0:0,0:0:0:0:
246,177,4034,6,0,B|253:100|324:84|324:84|187:101|240:-12|116:13|-42:67|122:128|111:48|161:43|223:86,1,498.750019025803,4|0,0:0|0:0,0:0:0:0:
333,171,5358,6,0,B|390:160|387:218|467:211|467:211|352:234|356:331|395:376|457:367|483:330|474:303,1,427.500016307831,4|8,0:0|0:0,0:0:0:0:
360,350,6387,6,0,P|316:328|153:355,1,213.750008153916,4|0,0:0|0:0,0:0:0:0:
247,205,7123,2,0,P|262:156|229:55,1,142.500005435944,2|2,0:0|0:0,0:0:0:0:
31,54,7711,2,0,P|16:103|49:204,1,142.500005435944,6|2,0:0|0:0,0:0:0:0:
240,287,8299,2,0,L|394:258,1,142.500005435944,2|8,0:0|0:0,0:0:0:0:
441,324,8740,6,0,P|418:257|434:188,1,142.500005435944,4|0,0:0|0:0,0:0:0:0:
491,76,9181,2,0,P|500:135|487:165,1,71.2500027179719,2|0,0:0|0:0,0:0:0:0:
397,59,9476,2,0,P|385:117|362:141,1,71.2500027179719,2|0,0:0|0:0,0:0:0:0:
314,10,9770,2,0,P|282:60|253:75,1,71.2500027179719,2|0,0:0|0:0,0:0:0:0:
55,151,10064,6,0,P|122:128|194:152,1,142.500005435944,4|2,0:0|0:0,0:0:0:0:
246,214,10505,1,0,0:0:0:0:
197,346,10652,1,8,0:0:0:0:
107,237,10799,1,8,0:0:0:0:
240,287,10946,1,8,0:0:0:0:
130,377,11093,1,8,0:0:0:0:
307,157,11240,5,6,0:0:0:0:
307,157,11534,2,0,B|362:153|362:153|403:168|403:168|475:162,1,142.500005435944,2|8,0:0|0:0,0:0:0:0:
404,18,12123,2,0,L|412:88,1,71.2500027179719,2|0,0:0|0:0,0:0:0:0:
334,246,12417,5,2,0:0:0:0:
334,246,12711,2,0,B|279:242|279:242|238:257|238:257|194:253,1,142.500005435944,0|8,0:0|0:0,0:0:0:0:
237,107,13300,2,0,L|229:177,1,71.2500027179719,2|0,0:0|0:0,0:0:0:0:
307,335,13593,5,2,0:0:0:0:
307,335,13887,1,0,0:0:0:0:
420,299,14034,1,0,0:0:0:0:
194,371,14181,2,0,L|117:368,1,71.2500027179719,8|0,0:0|0:0,0:0:0:0:
9,254,14476,1,2,0:0:0:0:
152,167,14623,6,0,L|144:237,1,71.2500027179719,0|0,0:0|0:0,0:0:0:0:
79,111,14917,1,0,0:0:0:0:
158,80,15064,1,2,0:0:0:0:
230,125,15211,1,2,0:0:0:0:
143,250,15358,2,0,L|66:247,1,71.2500027179719,8|2,0:0|0:0,0:0:0:0:
214,298,15652,2,0,L|291:295,1,71.2500027179719,2|0,0:0|0:0,0:0:0:0:
385,147,15946,6,0,P|353:205|352:240,1,95,2|2,0:0|0:0,0:0:0:0:
396,326,16240,1,2,0:0:0:0:
491,172,16387,1,2,0:0:0:0:
485,353,16534,1,2,0:0:0:0:
260,205,16681,1,2,0:0:0:0:
260,205,16976,6,0,L|40:215,1,190,2|0,0:0|0:0,0:0:0:0:
266,67,17417,1,8,0:0:0:0:
253,350,17564,1,8,0:0:0:0:
266,67,18152,6,0,P|260:191|351:259,1,209.000006378174,4|0,0:0|0:0,0:0:0:0:
365,27,18593,1,8,0:0:0:0:
173,101,18740,1,0,0:0:0:0:
377,133,18887,1,2,0:0:0:0:
217,4,19034,1,2,0:0:0:0:
189,206,19181,1,8,0:0:0:0:
390,239,19328,1,0,0:0:0:0:
204,305,19476,5,2,0:0:0:0:
173,101,19623,1,0,0:0:0:0:
314,246,19770,1,8,0:0:0:0:
110,277,19917,1,0,0:0:0:0:
79,73,20064,1,2,0:0:0:0:
271,148,20211,2,0,P|226:194|164:208,1,104.500003189087,2|8,0:0|0:0,0:0:0:0:
365,27,20505,6,0,P|436:43|471:180,1,209.000006378174,4|0,0:0|0:0,0:0:0:0:
378,325,20946,1,8,0:0:0:0:
377,133,21093,1,0,0:0:0:0:
474,299,21240,1,2,0:0:0:0:
281,300,21387,1,0,0:0:0:0:
280,107,21534,1,0,0:0:0:0:
438,229,21681,1,8,0:0:0:0:
241,203,21829,5,2,0:0:0:0:
267,6,21976,1,0,0:0:0:0:
338,216,22123,1,8,0:0:0:0:
141,190,22270,1,0,0:0:0:0:
377,133,22417,1,8,0:0:0:0:
183,287,22564,1,8,0:0:0:0:
146,41,22711,1,8,0:0:0:0:
271,324,22858,6,0,P|224:373|90:306,1,209.000006378174,4|0,0:0|0:0,0:0:0:0:
60,177,23299,1,8,0:0:0:0:
233,107,23446,1,0,0:0:0:0:
184,286,23593,1,2,0:0:0:0:
126,106,23740,1,2,0:0:0:0:
310,145,23887,1,8,0:0:0:0:
141,190,24034,1,0,0:0:0:0:
305,60,24181,5,2,0:0:0:0:
335,267,24329,1,0,0:0:0:0:
233,107,24476,1,8,0:0:0:0:
418,65,24623,1,0,0:0:0:0:
448,272,24770,1,2,0:0:0:0:
253,194,24917,2,0,P|326:155|364:160,1,104.500003189087,2|8,0:0|0:0,0:0:0:0:
228,348,25211,6,0,L|3:327,1,209.000006378174,4|0,0:0|0:0,0:0:0:0:
38,119,25652,1,8,0:0:0:0:
210,240,25799,1,0,0:0:0:0:
1,222,25946,1,2,0:0:0:0:
191,134,26093,1,2,0:0:0:0:
279,324,26240,1,8,0:0:0:0:
108,204,26387,1,0,0:0:0:0:
317,223,26534,5,10,0:0:0:0:
229,33,26681,1,0,0:0:0:0:
210,240,26829,1,10,0:0:0:0:
399,153,26976,1,2,0:0:0:0:
191,134,27123,1,10,0:0:0:0:
172,342,27270,1,0,0:0:0:0:
290,145,27417,1,0,0:0:0:0:
81,217,27564,6,0,L|185:209,1,95,4|0,0:0|0:0,0:0:0:0:
345,197,28005,1,8,0:0:0:0:
91,229,28299,5,2,0:0:0:0:
355,209,28593,1,8,0:0:0:0:
101,241,28887,5,2,0:0:0:0:
365,221,29181,1,8,0:0:0:0:
182,45,29476,5,8,0:0:0:0:
201,358,29623,1,8,0:0:0:0:
201,358,29917,6,0,P|262:303|343:313,1,142.500005435944,6|0,0:0|0:0,0:0:0:0:
391,323,30358,1,8,0:0:0:0:
117,245,30652,5,2,0:0:0:0:
354,227,30946,1,8,0:0:0:0:
80,305,31240,5,0,0:0:0:0:
317,131,31534,1,8,0:0:0:0:
44,365,31829,5,2,0:0:0:0:
80,305,31976,1,2,0:0:0:0:
117,245,32123,1,8,0:0:0:0:
205,362,32270,6,0,P|233:279|201:215,1,142.500005435944,2|0,0:0|0:0,0:0:0:0:
154,185,32711,1,8,0:0:0:0:
391,323,33005,5,2,0:0:0:0:
191,124,33299,1,8,0:0:0:0:
276,278,33446,1,2,0:0:0:0:
227,64,33740,5,0,0:0:0:0:
215,231,33887,1,8,0:0:0:0:
297,66,34181,5,2,0:0:0:0:
227,64,34329,1,2,0:0:0:0:
158,63,34476,1,8,0:0:0:0:
277,160,34623,6,0,L|442:157,1,142.500005435944,2|0,0:0|0:0,0:0:0:0:
506,159,35064,1,8,0:0:0:0:
375,310,35358,5,2,0:0:0:0:
419,157,35652,1,8,0:0:0:0:
309,337,35946,5,2,0:0:0:0:
354,130,36240,1,8,0:0:0:0:
244,364,36534,5,2,0:0:0:0:
309,337,36681,1,2,0:0:0:0:
375,310,36829,1,8,0:0:0:0:
244,364,36976,6,0,P|169:363|82:343,1,142.500005435944,2|0,0:0|0:0,0:0:0:0:
36,306,37417,1,8,0:0:0:0:
36,306,37711,5,2,0:0:0:0:
216,201,37858,1,2,0:0:0:0:
128,208,38005,1,8,0:0:0:0:
128,208,38299,5,2,0:0:0:0:
344,321,38446,1,2,0:0:0:0:
256,314,38593,1,8,0:0:0:0:
256,314,38887,5,8,0:0:0:0:
434,281,39034,1,2,0:0:0:0:
427,369,39181,1,2,0:0:0:0:
253,164,39328,6,0,P|202:100|269:22,1,190,6|0,0:0|0:0,0:0:0:0:
416,62,39770,2,0,L|410:179,1,95,8|0,0:0|0:0,0:0:0:0:
274,95,40064,1,2,0:0:0:0:
341,228,40211,1,0,0:0:0:0:
491,143,40358,1,8,0:0:0:0:
341,228,40505,6,0,P|272:220|241:236,1,95,2|2,0:0|0:0,0:0:0:0:
252,380,40799,2,0,P|285:346|297:301,1,95,0|8,0:0|0:0,0:0:0:0:
169,211,41093,1,0,0:0:0:0:
80,339,41240,1,2,0:0:0:0:
208,302,41387,1,2,0:0:0:0:
80,213,41534,1,8,0:0:0:0:
252,380,41681,6,0,L|443:358,1,190,2|0,0:0|0:0,0:0:0:0:
492,221,42123,1,8,0:0:0:0:
261,32,42417,1,2,0:0:0:0:
289,178,42564,1,2,0:0:0:0:
402,81,42711,1,8,0:0:0:0:
225,115,42858,6,0,P|199:171|281:266,1,190,2|0,0:0|0:0,0:0:0:0:
414,258,43299,1,8,0:0:0:0:
289,178,43446,1,0,0:0:0:0:
144,272,43593,2,0,P|67:284|7:187,1,190,2|8,0:0|0:0,0:0:0:0:
88,14,44034,6,0,P|108:107|94:200,1,190,6|0,0:0|0:0,0:0:0:0:
26,335,44476,1,8,0:0:0:0:
256,174,44770,1,2,0:0:0:0:
94,199,44917,1,0,0:0:0:0:
195,337,45064,1,8,0:0:0:0:
321,228,45211,6,0,P|340:161|316:114,1,95,2|0,0:0|0:0,0:0:0:0:
186,68,45505,1,0,0:0:0:0:
199,230,45652,1,8,0:0:0:0:
269,84,45799,1,0,0:0:0:0:
123,14,45946,2,0,P|102:80|126:128,1,95,2|2,0:0|0:0,0:0:0:0:
256,174,46240,1,8,0:0:0:0:
56,291,46387,5,6,0:0:0:0:
105,215,46534,2,0,L|221:232,1,95,0|2,0:0|0:0,0:0:0:0:
365,255,46829,1,8,0:0:0:0:
259,384,46976,2,0,P|251:318|255:274,1,95,0|2,0:0|0:0,0:0:0:0:
344,169,47270,1,2,0:0:0:0:
464,261,47417,2,0,P|465:308|457:355,1,95,8|0,0:0|0:0,0:0:0:0:
344,169,47711,6,0,L|351:72,1,95,8|2,0:0|0:0,0:0:0:0:
360,0,48005,1,2,0:0:0:0:
360,0,48299,1,8,0:0:0:0:
512,25,48446,1,0,0:0:0:0:
422,152,48593,1,0,0:0:0:0:
440,0,48740,1,8,0:0:0:0:
464,261,48887,5,12,0:0:0:0:
263,212,49034,2,0,L|186:193,1,71.2500027179719,8|0,0:0|0:0,0:0:0:0:
344,169,49476,1,0,0:0:0:0:
340,260,49623,5,8,0:0:0:0:
139,211,49770,1,8,0:0:0:0:
281,61,49917,2,0,L|325:2,1,71.2500027179719,8|0,0:0|0:0,0:0:0:0:
219,132,50358,1,0,0:0:0:0:
188,42,50505,5,8,0:0:0:0:
312,151,50652,1,8,0:0:0:0:
126,113,50799,1,8,0:0:0:0:
281,61,50946,1,8,0:0:0:0:
157,203,51093,1,8,0:0:0:0:
157,203,51167,1,8,0:0:0:0:
157,203,51240,1,4,0:0:0:0:
157,203,51534,5,8,0:0:0:0:
343,241,51681,2,0,L|426:256,1,71.2500027179719,8|0,0:0|0:0,0:0:0:0:
413,253,52123,1,2,0:0:0:0:
219,132,52270,1,2,0:0:0:0:
219,132,52343,1,2,0:0:0:0:
219,132,52417,6,0,L|237:257,1,95,4|0,0:0|0:0,0:0:0:0:
375,349,52711,1,2,0:0:0:0:
245,301,52858,1,0,0:0:0:0:
121,373,53005,2,0,L|16:360,1,95,4|0,0:0|0:0,0:0:0:0:
149,207,53299,2,0,L|167:332,1,95,2|2,0:0|0:0,0:0:0:0:
78,288,53520,1,2,0:0:0:0:
78,288,53593,5,6,0:0:0:0:
78,288,53887,1,8,0:0:0:0:
303,247,54034,1,8,0:0:0:0:
303,247,54181,1,0,0:0:0:0:
303,247,54476,1,0,0:0:0:0:
193,266,54623,1,0,0:0:0:0:
393,353,54770,6,0,P|406:300|399:243,1,95,2|2,0:0|0:0,0:0:0:0:
458,158,55064,2,0,P|405:173|359:207,1,95,2|2,0:0|0:0,0:0:0:0:
317,380,55358,2,0,P|264:364|218:330,1,95,2|2,0:0|0:0,0:0:0:0:
203,173,55652,2,0,P|190:226|197:283,1,95,2|2,0:0|0:0,0:0:0:0:
405,34,55946,5,8,0:0:0:0:
250,84,56093,1,8,0:0:0:0:
371,194,56240,1,8,0:0:0:0:
322,39,56387,1,8,0:0:0:0:
287,198,56534,1,8,0:0:0:0:
443,149,56681,5,8,0:0:0:0:
456,194,56754,1,0,0:0:0:0:
443,239,56828,1,8,0:0:0:0:
408,270,56901,1,8,0:0:0:0:
362,278,56976,2,0,L|297:272,1,47.5,8|8,0:0|0:0,0:0:0:0:
107,365,57123,6,0,L|189:352,1,71.2500027179719
271,340,57417,2,0,L|218:275,1,71.2500027179719
168,211,57711,2,0,L|138:288,1,71.2500027179719
314,273,58005,1,0,0:0:0:0:
288,28,58152,6,0,P|175:24|119:122,1,209.000006378174,4|0,0:0|0:0,0:0:0:0:
191,326,58593,1,8,0:0:0:0:
191,326,58887,1,2,0:0:0:0:
226,119,59034,1,2,0:0:0:0:
30,193,59181,2,0,P|82:225|157:226,1,104.500003189087,8|0,0:0|0:0,0:0:0:0:
310,106,59476,6,0,L|294:228,1,104.500003189087,2|2,0:0|0:0,0:0:0:0:
183,384,59770,2,0,P|235:352|310:351,1,104.500003189087,8|0,0:0|0:0,0:0:0:0:
489,365,60064,2,0,L|473:243,1,104.500003189087,2|2,0:0|0:0,0:0:0:0:
439,58,60358,1,8,0:0:0:0:
172,198,60505,6,0,P|152:100|228:36,1,209.000006378174,2|0,0:0|0:0,0:0:0:0:
439,58,60946,1,8,0:0:0:0:
439,58,61240,1,2,0:0:0:0:
407,264,61387,1,2,0:0:0:0:
245,133,61534,1,8,0:0:0:0:
451,166,61681,1,0,0:0:0:0:
319,327,61829,6,0,L|193:306,1,104.500003189087,2|2,0:0|0:0,0:0:0:0:
10,359,62123,2,0,L|113:341,1,104.500003189087,8|0,0:0|0:0,0:0:0:0:
298,245,62417,2,0,L|172:224,1,104.500003189087,2|2,0:0|0:0,0:0:0:0:
11,191,62711,1,8,0:0:0:0:
186,377,62858,6,0,L|409:335,1,209.000006378174,2|0,0:0|0:0,0:0:0:0:
510,205,63299,1,8,0:0:0:0:
510,205,63593,1,2,0:0:0:0:
366,84,63740,1,2,0:0:0:0:
312,253,63887,2,0,L|185:234,1,104.500003189087,8|0,0:0|0:0,0:0:0:0:
185,139,64181,5,2,0:0:0:0:
365,168,64329,1,2,0:0:0:0:
251,336,64476,2,0,P|291:354|414:263,1,209.000006378174,8|2,0:0|0:0,0:0:0:0:
257,169,64917,1,2,0:0:0:0:
130,313,65064,1,8,0:0:0:0:
365,168,65211,6,0,P|316:81|214:69,1,209.000006378174,2|0,0:0|0:0,0:0:0:0:
95,199,65652,2,0,P|35:197|-10:161,1,104.500003189087,8|0,0:0|0:0,0:0:0:0:
160,134,65946,2,0,P|188:186|179:243,1,104.500003189087,2|2,0:0|0:0,0:0:0:0:
72,109,66240,2,0,P|103:58|157:36,1,104.500003189087,8|0,0:0|0:0,0:0:0:0:
327,96,66534,5,2,0:0:0:0:
184,229,66681,1,2,0:0:0:0:
242,43,66829,2,0,L|249:107,3,52.2500015945435,8|0|0|0,0:0|0:0|0:0|0:0,0:0:0:0:
321,147,67123,2,0,L|328:83,3,52.2500015945435,2|2|2|2,0:0|0:0|0:0|0:0,0:0:0:0:
246,171,67417,2,0,L|253:235,3,52.2500015945435,10|2|2|2,0:0|0:0|0:0|0:0,0:0:0:0:
342,230,67711,5,4,0:0:0:0:
342,230,67858,1,2,0:0:0:0:
168,160,68005,2,0,L|188:356,1,190,2|8,0:0|0:0,0:0:0:0:
187,348,68593,2,0,L|298:336,1,95,2|8,0:0|0:0,0:0:0:0:
342,230,68887,5,2,0:0:0:0:
342,230,69034,1,0,0:0:0:0:
168,160,69181,2,0,L|188:356,1,190,2|8,0:0|0:0,0:0:0:0:
187,348,69769,2,0,L|298:336,1,95,2|8,0:0|0:0,0:0:0:0:
342,230,70064,5,2,0:0:0:0:
342,230,70211,1,2,0:0:0:0:
244,103,70358,2,0,L|257:205,1,95,8|0,0:0|0:0,0:0:0:0:
420,233,70652,2,0,L|407:138,1,95,2|0,0:0|0:0,0:0:0:0:
287,30,70946,1,8,0:0:0:0:
179,150,71093,6,0,P|111:168|56:162,1,95,2|0,0:0|0:0,0:0:0:0:
187,39,71387,1,0,0:0:0:0:
329,135,71534,2,0,L|341:229,1,95,8|0,0:0|0:0,0:0:0:0:
202,304,71828,2,0,L|154:309,3,47.5,0|0|2|2,0:0|0:0|0:0|0:0,0:0:0:0:
275,322,72123,2,0,L|341:314,3,47.5,10|2|2|2,0:0|0:0|0:0|0:0,0:0:0:0:
218,380,72417,5,4,0:0:0:0:
301,38,73740,2,0,L|294:4,2,35.625001358986
334,163,74181,6,0,L|181:154,1,142.500005435944,8|8,0:0|0:0,0:0:0:0:
125,149,74623,6,0,L|364:165,1,209.000006378174,4|2,0:0|0:0,0:0:0:0:
482,297,75064,1,8,0:0:0:0:
291,359,75211,1,0,0:0:0:0:
446,186,75358,1,2,0:0:0:0:
255,248,75505,1,2,0:0:0:0:
404,382,75652,1,8,0:0:0:0:
333,162,75799,1,8,0:0:0:0:
178,334,75946,5,2,0:0:0:0:
368,271,76093,1,0,0:0:0:0:
298,53,76240,1,8,0:0:0:0:
255,248,76387,1,0,0:0:0:0:
446,186,76534,1,2,0:0:0:0:
219,137,76681,2,0,L|108:110,1,104.500003189087,2|10,0:0|0:0,0:0:0:0:
368,271,76976,6,0,P|425:228|401:68,1,209.000006378174,4|2,0:0|0:0,0:0:0:0:
219,137,77417,1,8,0:0:0:0:
291,359,77564,1,0,0:0:0:0:
333,162,77711,1,2,0:0:0:0:
142,225,77858,1,2,0:0:0:0:
368,271,78005,1,8,0:0:0:0:
298,53,78152,1,8,0:0:0:0:
255,248,78299,5,2,0:0:0:0:
428,99,78446,1,0,0:0:0:0:
219,137,78593,1,8,0:0:0:0:
291,359,78740,1,0,0:0:0:0:
333,162,78887,1,8,0:0:0:0:
178,334,79034,2,0,P|103:338|75:328,1,104.500003189087,8|8,0:0|0:0,0:0:0:0:
33,74,79328,6,0,P|135:74|218:136,1,209.000006378174,4|2,0:0|0:0,0:0:0:0:
368,271,79770,5,8,0:0:0:0:
142,225,79917,1,2,0:0:0:0:
333,162,80064,5,8,0:0:0:0:
104,216,80211,1,2,0:0:0:0:
291,359,80358,5,8,0:0:0:0:
66,207,80505,1,2,0:0:0:0:
333,162,80652,5,8,0:0:0:0:
178,334,80799,1,2,0:0:0:0:
368,271,80946,5,8,0:0:0:0:
213,99,81093,1,2,0:0:0:0:
445,187,81240,5,8,0:0:0:0:
291,359,81387,2,0,B|276:318|276:318|285:247,1,104.500003189087,8|8,0:0|0:0,0:0:0:0:
392,66,81681,6,0,P|396:165|365:273,1,209.000006378174,4|2,0:0|0:0,0:0:0:0:
213,99,82123,5,8,0:0:0:0:
445,187,82270,1,2,0:0:0:0:
196,239,82417,5,8,0:0:0:0:
392,66,82564,1,2,0:0:0:0:
118,183,82711,5,8,0:0:0:0:
366,269,82858,1,2,0:0:0:0:
156,322,83005,5,10,0:0:0:0:
310,150,83152,1,2,0:0:0:0:
91,95,83299,6,0,P|44:129|24:183,1,104.500003189087,10|2,0:0|0:0,0:0:0:0:
196,239,83593,1,10,0:0:0:0:
310,150,83740,1,8,0:0:0:0:
311,123,83813,1,8,0:0:0:0:
306,98,83887,1,8,0:0:0:0:
294,75,83960,1,8,0:0:0:0:
277,55,84034,6,0,P|353:65|417:56,1,142.500005435944,4|0,0:0|0:0,0:0:0:0:
483,163,84476,2,0,L|399:152,1,71.2500027179719,0|0,0:0|0:0,0:0:0:0:
310,252,84770,2,0,L|394:241,1,71.2500027179719,0|0,0:0|0:0,0:0:0:0:
380,242,85064,1,0,0:0:0:0:
235,329,85211,6,0,P|159:319|95:328,1,142.500005435944,0|0,0:0|0:0,0:0:0:0:
29,221,85653,2,0,L|113:232,1,71.2500027179719,0|0,0:0|0:0,0:0:0:0:
202,132,85947,2,0,L|118:143,1,71.2500027179719,0|0,0:0|0:0,0:0:0:0:
131,141,86241,1,0,0:0:0:0:
284,180,86387,6,0,P|290:105|241:43,1,142.500005435944,0|0,0:0|0:0,0:0:0:0:
147,46,86828,2,0,L|76:55,1,71.2500027179719,0|0,0:0|0:0,0:0:0:0:
29,221,87123,2,0,L|99:230,1,71.2500027179719,0|0,0:0|0:0,0:0:0:0:
340,264,87417,5,8,0:0:0:0:
222,329,87564,2,0,P|184:289|240:316,1,170.999994781494,8|0,0:0|0:0,0:0:0:0:
