osu file format v14

[General]
AudioFilename: audio.mp3
AudioLeadIn: 0
PreviewTime: 1439
Countdown: 0
SampleSet: Normal
StackLeniency: 0.7
Mode: 1
LetterboxInBreaks: 0
WidescreenStoryboard: 1

[Editor]
DistanceSpacing: 1.1
BeatDivisor: 4
GridSize: 32
TimelineZoom: 2.6

[Metadata]
Title:Sora ni Utaeba (TV Size)
TitleUnicode:空に歌えば (TV Size)
Artist:amazarashi
ArtistUnicode:amazarashi
Creator:Nao Tomori
Version:Futsuu
Source:僕のヒーローアカデミア
Tags:boku no my hero academia mha bnha anime japanese male vocal rock jrock j-rock cut version ver. season two 2 opening op theme taiko
BeatmapID:3273558
BeatmapSetID:1602884

[Difficulty]
HPDrainRate:7
CircleSize:5
OverallDifficulty:4
ApproachRate:5
SliderMultiplier:1.4
SliderTickRate:1

[Events]
//Background and Video events
0,0,"toga bg.jpg",0,25
//Break Periods
//Storyboard Layer 0 (Background)
//Storyboard Layer 1 (Fail)
//Storyboard Layer 2 (Pass)
//Storyboard Layer 3 (Foreground)
//Storyboard Layer 4 (Overlay)
//Storyboard Sound Samples

[TimingPoints]
-1890,294.117647058824,4,1,0,80,1,0
2521,-100,4,1,0,90,0,0
7742,-100,4,1,0,70,0,0
7962,-100,4,1,0,70,0,0
8183,-100,4,1,0,70,0,0
8477,-100,4,1,0,70,0,0
8845,-100,4,1,0,70,0,0
9139,-100,4,1,0,70,0,0
9507,-100,4,1,0,70,0,0
9654,-100,4,1,0,70,0,0
9801,-100,4,1,0,70,0,0
11418,-100,4,1,0,70,0,0
11565,-100,4,1,0,70,0,0
11712,-100,4,1,0,70,0,0
11860,-100,4,1,0,70,0,0
11970,-100,4,1,0,70,0,0
12043,-100,4,1,0,70,0,0
12117,-100,4,1,0,70,0,0
12190,-100,4,1,0,70,0,0
12374,-100,4,1,0,70,0,0
16896,-100,4,1,0,80,0,0
18402,-100,4,1,0,90,0,0
19065,-100,4,1,0,80,0,0
19139,-100,4,1,0,80,0,0
27742,-100,4,1,0,80,0,0
27889,-100,4,1,0,80,0,0
28036,-100,4,1,0,80,0,0
28183,-100,4,1,0,80,0,0
28330,-100,4,1,0,80,0,0
28477,-100,4,1,0,80,0,0
28624,-100,4,1,0,60,0,0
30389,-100,4,1,0,80,0,0
30830,-100,4,1,0,70,0,0
39360,-100,4,1,0,70,0,0
39470,-100,4,1,0,70,0,0
39654,-100,4,1,0,70,0,0
39801,-100,4,1,0,70,0,0
39948,-100,4,1,0,70,0,0
40095,-100,4,1,0,70,0,0
40242,-100,4,1,0,70,0,0
55683,-100,4,1,0,80,0,0
57007,-100,4,1,0,80,0,0
57154,-100,4,1,0,80,0,0
57301,-100,4,1,0,80,0,0
57448,-100,4,1,0,80,0,0
57595,-100,4,1,0,80,0,0
57705,-100,4,1,0,85,0,0
57779,-100,4,1,0,85,0,0
57852,-100,4,1,0,85,0,0
57926,-100,4,1,0,85,0,0
58110,-100,4,1,0,75,0,0
59065,-100,4,1,0,90,0,0
59139,-100,4,1,0,90,0,1
78110,-100,4,1,0,90,0,0
82815,-100,4,1,0,90,0,0
82962,-100,4,1,0,80,0,0
83992,-100,4,1,0,80,0,0
91639,-100,4,1,0,80,0,0
92080,-100,4,1,0,90,0,1
92227,294.117647058824,3,1,0,90,1,1
92227,-100,3,1,0,90,0,1
98403,294.117647058824,4,1,0,90,1,1
98403,-100,4,1,0,90,0,1
99432,-100,4,1,0,50,0,0
102740,-100,4,1,0,90,0,0
102887,-100,4,1,0,50,0,0

[HitObjects]
219,168,2668,5,4,0:0:0:0:
219,168,3992,1,12,0:0:0:0:
219,168,5021,1,4,0:0:0:0:
219,168,6345,1,4,0:0:0:0:
219,168,7227,1,8,0:0:0:0:
219,168,7374,1,4,0:0:0:0:
219,168,8110,1,0,0:0:0:0:
219,168,8404,1,0,0:0:0:0:
219,168,8698,1,12,0:0:0:0:
219,168,8992,1,0,0:0:0:0:
219,168,9286,1,0,0:0:0:0:
219,168,9580,1,0,0:0:0:0:
219,168,9727,1,8,0:0:0:0:
219,168,10168,1,0,0:0:0:0:
219,168,10462,1,8,0:0:0:0:
219,168,10757,1,0,0:0:0:0:
219,168,11051,1,4,0:0:0:0:
219,168,11345,1,0,0:0:0:0:
219,168,11492,1,0,0:0:0:0:
219,168,11639,1,8,0:0:0:0:
219,168,11933,1,8,0:0:0:0:
219,168,12227,1,4,0:0:0:0:
219,168,12521,1,0,0:0:0:0:
219,168,12815,1,8,0:0:0:0:
219,168,13698,1,0,0:0:0:0:
219,168,13992,1,8,0:0:0:0:
219,168,14874,1,0,0:0:0:0:
219,168,15168,1,8,0:0:0:0:
219,168,15462,1,8,0:0:0:0:
219,168,15610,1,0,0:0:0:0:
219,168,16051,1,0,0:0:0:0:
219,168,16345,1,8,0:0:0:0:
219,168,16639,1,8,0:0:0:0:
219,168,16933,1,4,0:0:0:0:
219,168,17521,1,8,0:0:0:0:
219,168,17668,1,0,0:0:0:0:
219,168,17962,1,0,0:0:0:0:
219,168,18404,1,8,0:0:0:0:
219,168,18551,1,8,0:0:0:0:
219,168,19139,1,4,0:0:0:0:
219,168,19580,1,0,0:0:0:0:
219,168,19874,1,8,0:0:0:0:
219,168,20021,1,0,0:0:0:0:
219,168,20168,1,0,0:0:0:0:
219,168,20462,1,8,0:0:0:0:
219,168,20757,1,0,0:0:0:0:
219,168,21051,1,8,0:0:0:0:
219,168,21345,1,8,0:0:0:0:
219,168,21492,1,4,0:0:0:0:
219,168,21933,1,0,0:0:0:0:
219,168,22227,1,8,0:0:0:0:
219,168,22521,1,0,0:0:0:0:
219,168,22668,1,8,0:0:0:0:
219,168,22815,1,8,0:0:0:0:
219,168,23110,1,0,0:0:0:0:
219,168,23404,1,8,0:0:0:0:
219,168,23551,1,8,0:0:0:0:
219,168,23698,1,0,0:0:0:0:
219,168,23845,1,4,0:0:0:0:
219,168,24580,1,8,0:0:0:0:
219,168,24874,1,8,0:0:0:0:
219,168,25021,1,0,0:0:0:0:
219,168,25168,1,8,0:0:0:0:
219,168,25462,1,8,0:0:0:0:
219,168,25757,1,0,0:0:0:0:
219,168,26051,1,8,0:0:0:0:
219,168,26198,1,4,0:0:0:0:
219,168,26639,1,8,0:0:0:0:
219,168,26933,1,0,0:0:0:0:
219,168,27080,1,0,0:0:0:0:
219,168,27227,1,8,0:0:0:0:
219,168,27374,1,8,0:0:0:0:
219,168,27521,1,0,0:0:0:0:
219,168,27815,1,8,0:0:0:0:
219,168,28110,1,8,0:0:0:0:
219,168,28257,1,0,0:0:0:0:
219,168,28551,1,0,0:0:0:0:
219,168,30462,1,8,0:0:0:0:
219,168,30610,1,8,0:0:0:0:
219,168,30904,1,4,0:0:0:0:
219,168,31639,1,8,0:0:0:0:
219,168,31933,1,8,0:0:0:0:
219,168,32080,1,0,0:0:0:0:
219,168,33257,1,8,0:0:0:0:
219,168,33992,1,0,0:0:0:0:
219,168,34139,1,0,0:0:0:0:
219,168,34433,1,8,0:0:0:0:
219,168,34874,1,0,0:0:0:0:
219,168,35021,1,8,0:0:0:0:
219,168,35462,1,8,0:0:0:0:
219,168,35610,1,0,0:0:0:0:
219,168,36639,1,8,0:0:0:0:
247,139,36786,1,0,0:0:0:0:
219,168,36933,1,0,0:0:0:0:
219,168,37227,1,8,0:0:0:0:
219,168,37815,1,8,0:0:0:0:
219,168,38110,1,8,0:0:0:0:
219,168,38404,1,0,0:0:0:0:
219,168,38992,1,8,0:0:0:0:
219,168,39286,1,0,0:0:0:0:
219,168,39580,1,8,0:0:0:0:
219,168,39874,1,8,0:0:0:0:
219,168,40021,1,0,0:0:0:0:
219,168,40168,1,0,0:0:0:0:
219,168,40315,1,12,0:0:0:0:
219,168,40904,1,8,0:0:0:0:
219,168,41051,1,0,0:0:0:0:
219,168,41345,1,0,0:0:0:0:
219,168,41492,1,8,0:0:0:0:
219,168,42668,1,8,0:0:0:0:
219,168,43404,1,8,0:0:0:0:
219,168,43551,1,0,0:0:0:0:
219,168,43845,1,8,0:0:0:0:
219,168,44286,1,0,0:0:0:0:
219,168,44433,1,0,0:0:0:0:
219,168,44580,1,8,0:0:0:0:
219,168,44874,1,8,0:0:0:0:
219,168,45021,1,4,0:0:0:0:
219,168,45757,1,0,0:0:0:0:
219,168,45904,1,0,0:0:0:0:
219,168,46198,1,8,0:0:0:0:
219,168,46639,1,8,0:0:0:0:
219,168,46786,1,8,0:0:0:0:
219,168,46933,1,0,0:0:0:0:
219,168,47374,1,4,0:0:0:0:
219,168,47815,1,8,0:0:0:0:
219,168,47962,1,8,0:0:0:0:
219,168,48404,1,0,0:0:0:0:
219,168,48698,1,8,0:0:0:0:
219,168,49286,1,8,0:0:0:0:
219,168,49580,1,8,0:0:0:0:
219,168,49727,1,8,0:0:0:0:
219,168,49874,1,4,0:0:0:0:
219,168,50462,1,0,0:0:0:0:
219,168,50757,1,8,0:0:0:0:
219,168,50904,1,0,0:0:0:0:
219,168,51198,1,0,0:0:0:0:
219,168,51345,1,8,0:0:0:0:
219,168,52227,1,12,0:0:0:0:
219,168,52521,1,0,0:0:0:0:
219,168,52815,1,8,0:0:0:0:
219,168,53110,1,8,0:0:0:0:
219,168,53257,1,8,0:0:0:0:
219,168,53404,1,4,0:0:0:0:
219,168,53698,1,8,0:0:0:0:
219,168,53992,1,4,0:0:0:0:
219,168,54286,1,0,0:0:0:0:
219,168,54580,1,4,0:0:0:0:
219,168,54874,1,8,0:0:0:0:
219,168,55610,1,0,0:0:0:0:
219,168,55757,1,8,0:0:0:0:
219,168,56051,1,8,0:0:0:0:
219,168,56345,1,8,0:0:0:0:
219,168,56639,1,8,0:0:0:0:
219,168,56786,1,0,0:0:0:0:
219,168,56933,1,12,0:0:0:0:
256,192,57080,12,0,58110,0:0:0:0:
219,168,59139,5,12,0:0:0:0:
219,168,59580,1,8,0:0:0:0:
219,168,59874,1,0,0:0:0:0:
219,168,60021,1,0,0:0:0:0:
219,168,60168,1,8,0:0:0:0:
219,168,60462,1,8,0:0:0:0:
219,168,60757,1,0,0:0:0:0:
219,168,61051,1,8,0:0:0:0:
219,168,61345,1,8,0:0:0:0:
219,168,61492,1,4,0:0:0:0:
219,168,61933,1,8,0:0:0:0:
219,168,62521,1,0,0:0:0:0:
219,168,62668,1,0,0:0:0:0:
219,168,62815,1,8,0:0:0:0:
219,168,63110,1,8,0:0:0:0:
219,168,63404,1,0,0:0:0:0:
219,168,63698,1,8,0:0:0:0:
219,168,63845,1,4,0:0:0:0:
219,168,64286,1,8,0:0:0:0:
219,168,64580,1,0,0:0:0:0:
219,168,64874,1,8,0:0:0:0:
219,168,65168,1,0,0:0:0:0:
219,168,65462,1,0,0:0:0:0:
219,168,65757,1,8,0:0:0:0:
219,168,66051,1,8,0:0:0:0:
219,168,66198,1,4,0:0:0:0:
219,168,66639,1,8,0:0:0:0:
219,168,66933,1,0,0:0:0:0:
219,168,67080,1,0,0:0:0:0:
219,168,67227,1,8,0:0:0:0:
219,168,67374,1,8,0:0:0:0:
219,168,67521,1,0,0:0:0:0:
219,168,67815,1,8,0:0:0:0:
219,168,68110,1,8,0:0:0:0:
219,168,68257,1,0,0:0:0:0:
219,168,68404,1,0,0:0:0:0:
219,168,68551,1,12,0:0:0:0:
219,168,68992,1,0,0:0:0:0:
219,168,69580,1,0,0:0:0:0:
219,168,69874,1,8,0:0:0:0:
219,168,70168,1,8,0:0:0:0:
219,168,70462,1,8,0:0:0:0:
219,168,70757,1,0,0:0:0:0:
219,168,70904,1,12,0:0:0:0:
219,168,71345,1,8,0:0:0:0:
219,168,71933,1,0,0:0:0:0:
219,168,72080,1,0,0:0:0:0:
219,168,72227,1,8,0:0:0:0:
219,168,72521,1,8,0:0:0:0:
219,168,72815,1,0,0:0:0:0:
219,168,73110,1,8,0:0:0:0:
219,168,73257,1,4,0:0:0:0:
219,168,73698,1,0,0:0:0:0:
219,168,73992,1,8,0:0:0:0:
219,168,74286,1,8,0:0:0:0:
219,168,74580,1,0,0:0:0:0:
219,168,74874,1,8,0:0:0:0:
219,168,75168,1,0,0:0:0:0:
219,168,75462,1,0,0:0:0:0:
219,168,75610,1,12,0:0:0:0:
219,168,76051,1,0,0:0:0:0:
219,168,76345,1,8,0:0:0:0:
219,168,76639,1,8,0:0:0:0:
219,168,76933,1,0,0:0:0:0:
219,168,77080,1,0,0:0:0:0:
219,168,77227,1,8,0:0:0:0:
219,168,77374,1,8,0:0:0:0:
219,168,77521,1,0,0:0:0:0:
219,168,77815,1,8,0:0:0:0:
219,168,78110,1,4,0:0:0:0:
219,168,78404,1,0,0:0:0:0:
219,168,78698,1,8,0:0:0:0:
219,168,79286,1,0,0:0:0:0:
219,168,79433,1,8,0:0:0:0:
219,168,79580,1,0,0:0:0:0:
219,168,79874,1,8,0:0:0:0:
219,168,80168,1,0,0:0:0:0:
219,168,80315,1,8,0:0:0:0:
219,168,80462,1,0,0:0:0:0:
219,168,80757,1,0,0:0:0:0:
219,168,81051,1,0,0:0:0:0:
219,168,81345,1,8,0:0:0:0:
219,168,81492,1,0,0:0:0:0:
219,168,81786,1,8,0:0:0:0:
219,168,81933,1,0,0:0:0:0:
219,168,82227,1,0,0:0:0:0:
219,168,82374,1,0,0:0:0:0:
219,168,82521,1,8,0:0:0:0:
219,168,82815,1,4,0:0:0:0:
219,168,83992,1,0,0:0:0:0:
219,168,84139,1,0,0:0:0:0:
219,168,84286,1,8,0:0:0:0:
219,168,84580,1,8,0:0:0:0:
219,168,84874,1,8,0:0:0:0:
219,168,85021,1,4,0:0:0:0:
219,168,85462,1,0,0:0:0:0:
219,168,85757,1,8,0:0:0:0:
219,168,86345,1,0,0:0:0:0:
219,168,86639,1,0,0:0:0:0:
219,168,86933,1,8,0:0:0:0:
219,168,87227,1,0,0:0:0:0:
219,168,87521,1,0,0:0:0:0:
219,168,87815,1,8,0:0:0:0:
219,168,87962,1,8,0:0:0:0:
219,168,88110,1,0,0:0:0:0:
219,168,88404,1,8,0:0:0:0:
219,168,88551,1,0,0:0:0:0:
219,168,88845,1,0,0:0:0:0:
219,168,88992,1,8,0:0:0:0:
219,168,89139,1,8,0:0:0:0:
219,168,89286,1,0,0:0:0:0:
219,168,89580,1,8,0:0:0:0:
219,168,89874,1,4,0:0:0:0:
219,168,91051,1,8,0:0:0:0:
219,168,91198,1,0,0:0:0:0:
219,168,91492,1,0,0:0:0:0:
219,168,91639,1,8,0:0:0:0:
219,168,91786,1,8,0:0:0:0:
219,168,92080,1,4,0:0:0:0:
219,168,92521,1,8,0:0:0:0:
219,168,92815,1,8,0:0:0:0:
219,168,93109,1,0,0:0:0:0:
219,168,93403,1,8,0:0:0:0:
303,163,93550,1,8,0:0:0:0:
219,168,93697,1,0,0:0:0:0:
272,103,93844,1,8,0:0:0:0:
219,168,93991,1,0,0:0:0:0:
219,168,94579,1,8,0:0:0:0:
219,168,94874,1,8,0:0:0:0:
219,168,95168,1,0,0:0:0:0:
190,160,95315,1,0,0:0:0:0:
219,168,95462,1,8,0:0:0:0:
193,135,95609,1,0,0:0:0:0:
219,168,95756,1,8,0:0:0:0:
219,168,96050,1,0,0:0:0:0:
219,168,96344,1,0,0:0:0:0:
219,168,96638,1,8,0:0:0:0:
219,168,97521,1,12,0:0:0:0:
219,168,97815,1,0,0:0:0:0:
219,168,97962,1,0,0:0:0:0:
219,168,98109,1,8,0:0:0:0:
219,168,98256,1,8,0:0:0:0:
219,168,98403,1,4,0:0:0:0:
253,188,98697,1,8,0:0:0:0:
219,168,98991,1,8,0:0:0:0:
219,168,99285,1,8,0:0:0:0:
219,168,99432,1,4,0:0:0:0:
219,168,102814,1,8,0:0:0:0:
219,168,102961,1,4,0:0:0:0:
