osu file format v14

[General]
AudioFilename: audio.mp3
AudioLeadIn: 0
PreviewTime: 56976
Countdown: 0
SampleSet: Soft
StackLeniency: 0.7
Mode: 0
LetterboxInBreaks: 0
WidescreenStoryboard: 1

[Editor]
Bookmarks: 1681,2270,6828,15946,18152,27564,29917,39328,48887,55946,57123,58152,67711,72417,74623,84034,87564
DistanceSpacing: 1.7
BeatDivisor: 4
GridSize: 8
TimelineZoom: 1

[Metadata]
Title:Sora ni Utaeba (TV Size)
TitleUnicode:空に歌えば (TV Size)
Artist:amazarashi
ArtistUnicode:amazarashi
Creator:Kaitjuh
Version:Plus Ultra
Source:僕のヒーローアカデミア
Tags:boku no my hero academia ヒロアカ heroaca 2期 第2期 第2クール second season op opening theme edit agatsu gottagof4st gottagofast yudragen chaoticred yaspo
BeatmapID:1582824
BeatmapSetID:751872

[Difficulty]
HPDrainRate:6
CircleSize:4.2
OverallDifficulty:9
ApproachRate:9.4
SliderMultiplier:1.6
SliderTickRate:1

[Events]
//Background and Video events
0,0,"bg.jpg",0,0
Video,250,"Sora Ni Utaeba.avi"
//Break Periods
//Storyboard Layer 0 (Background)
//Storyboard Layer 1 (Fail)
//Storyboard Layer 2 (Pass)
//Storyboard Layer 3 (Foreground)
//Storyboard Sound Samples

[TimingPoints]
-524,294.117647058824,4,2,1,30,1,0
505,-133.333333333333,4,2,1,30,0,0
1681,-117.647058823529,4,2,1,40,0,0
17711,-200,4,2,1,30,0,0
18152,-90.9090909090909,4,2,1,50,0,0
27564,-90.9090909090909,4,2,1,30,0,0
29476,-90.9090909090909,4,2,1,40,0,0
29917,-111.111111111111,4,2,1,40,0,0
54770,-100,4,2,1,45,0,0
55946,-100,4,2,1,50,0,0
56976,-83.3333333333333,4,2,1,50,0,0
57123,-166.666666666667,4,2,1,30,0,0
58152,-83.3333333333333,4,2,1,60,0,1
72417,-83.3333333333333,4,2,1,60,0,0
73740,-166.666666666667,4,2,1,30,0,0
74623,-90.9090909090909,4,2,1,50,0,0
79328,-90.9090909090909,4,2,1,50,0,1
84034,-166.666666666667,4,2,1,20,0,0
87417,-166.666666666667,4,2,1,30,0,0

[Colours]
Combo1 : 255,192,0
Combo2 : 245,216,112
Combo3 : 255,128,0
Combo4 : 242,24,57

[HitObjects]
157,303,505,5,0,0:0:0:0:
157,303,652,2,0,P|208:325|269:306,1,120.000004577637
294,284,1240,2,0,P|348:262|404:280,1,120.000004577637
447,349,1681,6,0,L|448:211,1,136.000002593994,4|0,0:1|0:0,0:0:0:0:
447,213,2123,1,2,0:0:0:0:
184,143,2711,1,2,0:0:0:0:
184,143,3005,6,0,B|237:126|237:126|262:134|262:134|324:115,1,136.000002593994,4|2,0:1|0:0,0:0:0:0:
151,217,3593,2,0,B|103:169|103:169|114:88,1,136.000002593994,2|2,0:0|0:0,0:0:0:0:
165,40,4034,6,0,L|16:85,1,136.000002593994,4|0,0:1|0:0,0:0:0:0:
36,79,4476,1,2,0:0:0:0:
201,294,5064,2,0,L|280:269,1,68.0000012969971,2|2,0:0|0:0,0:0:0:0:
378,344,5358,6,0,P|345:353|312:348,1,68.0000012969971,4|0,0:1|0:0,0:0:0:0:
266,273,5652,2,0,P|273:241|294:214,1,68.0000012969971,2|0,0:0|0:0,0:0:0:0:
383,211,5946,2,0,P|408:235|420:266,1,68.0000012969971,2|0,0:0|0:0,0:0:0:0:
343,276,6240,1,10,1:2:0:0:
338,140,6387,6,0,L|343:275,1,136.000002593994,4|0,0:1|0:0,0:0:0:0:
299,70,6828,2,0,P|337:61|364:66,1,68.0000012969971,2|0,0:0|0:0,0:0:0:0:
258,138,7123,5,2,0:0:0:0:
79,58,7417,1,2,0:0:0:0:
41,124,7711,5,4,0:1:0:0:
220,204,8005,1,2,0:0:0:0:
182,270,8299,5,2,0:0:0:0:
3,190,8593,1,2,0:0:0:0:
128,192,8740,6,0,B|62:217|62:217|-1:188,1,136.000002593994,10|0,0:0|0:0,0:0:0:0:
202,156,9181,2,0,P|211:187|202:226,1,68.0000012969971,2|0,0:0|0:0,0:0:0:0:
134,110,9476,2,0,P|125:79|134:40,1,68.0000012969971,2|0,0:0|0:0,0:0:0:0:
274,68,9770,2,0,L|193:74,1,68.0000012969971,2|0,0:0|0:0,0:0:0:0:
128,192,10064,5,4,0:1:0:0:
128,192,10358,2,0,L|209:186,1,68.0000012969971,2|2,0:0|0:0,0:0:0:0:
74,295,10652,1,8,1:2:0:0:
74,89,10799,1,8,1:2:0:0:
74,295,10946,1,8,1:2:0:0:
74,89,11093,1,8,1:2:0:0:
195,186,11240,5,4,0:1:0:0:
195,186,11534,2,0,L|128:192,1,68.0000012969971,2|0,0:0|0:0,0:0:0:0:
2,228,11828,2,0,B|92:221|92:221|127:192,1,136.000002593994,10|0,0:0|0:0,0:0:0:0:
134,110,12270,1,0,0:0:0:0:
236,259,12417,6,0,P|204:269|169:264,1,68.0000012969971
280,188,12711,2,0,L|347:182,1,68.0000012969971,2|0,0:0|0:0,0:0:0:0:
472,146,13005,2,0,B|381:152|381:152|347:182,1,136.000002593994,10|0,0:0|0:0,0:0:0:0:
341,263,13446,1,0,0:0:0:0:
481,220,13593,6,0,L|414:226,1,68.0000012969971
278,134,13887,1,2,0:0:0:0:
347,181,14034,1,2,0:0:0:0:
341,263,14181,2,0,P|310:287|272:290,1,68.0000012969971,10|0,0:0|0:0,0:0:0:0:
203,171,14476,1,2,0:0:0:0:
194,322,14623,6,0,L|197:254,1,68.0000012969971,2|0,0:0|0:0,0:0:0:0:
203,171,14917,1,2,0:0:0:0:
52,244,15064,2,0,P|92:246|125:227,1,68.0000012969971,2|2,0:0|0:0,0:0:0:0:
97,82,15358,2,0,P|57:79|24:98,1,68.0000012969971,10|0,0:0|0:0,0:0:0:0:
174,149,15652,2,0,L|256:135,1,68.0000012969971,2|0,0:0|0:0,0:0:0:0:
349,16,15946,5,8,1:2:0:0:
349,16,16093,1,0,0:0:0:0:
464,103,16240,2,0,L|382:89,1,68.0000012969971,2|2,0:0|0:0,0:0:0:0:
224,57,16534,1,10,1:2:0:0:
324,149,16681,1,0,0:0:0:0:
349,16,16828,1,2,0:0:0:0:
269,229,16976,6,0,B|332:249|332:249|410:211,1,136.000002593994
324,149,17417,1,10,1:2:0:0:
340,340,17564,1,8,1:2:0:0:
181,321,17711,6,0,L|273:314,1,80
106,300,18152,6,0,B|137:249|137:249|264:239,1,176.000005371094,6|2,0:0|0:0,0:0:0:0:
340,340,18593,1,10,0:0:0:0:
312,178,18740,1,2,0:0:0:0:
260,314,18887,1,2,0:0:0:0:
411,199,19034,1,0,0:0:0:0:
236,126,19181,2,0,P|221:169|233:221,1,88.000002685547,10|0,0:0|0:0,0:0:0:0:
379,99,19476,5,2,0:0:0:0:
206,22,19623,1,0,0:0:0:0:
312,178,19770,1,10,0:0:0:0:
409,14,19917,1,0,0:0:0:0:
236,126,20064,1,2,0:0:0:0:
305,34,20211,1,2,0:0:0:0:
312,210,20358,1,8,0:0:0:0:
66,126,20505,6,0,B|155:92|155:162|240:124,1,176.000005371094,6|2,0:0|0:0,0:0:0:0:
105,290,20946,2,0,P|97:247|110:193,1,88.000002685547,10|0,0:0|0:0,0:0:0:0:
200,48,21240,1,2,0:0:0:0:
105,203,21387,1,0,0:0:0:0:
323,137,21534,2,0,L|230:124,1,88.000002685547,2|8,0:0|0:0,0:0:0:0:
295,254,21828,5,2,0:0:0:0:
395,74,21976,1,2,0:0:0:0:
434,274,22123,1,10,0:0:0:0:
397,51,22270,1,0,0:0:0:0:
239,169,22417,1,10,0:0:0:0:
512,212,22564,1,10,0:0:0:0:
239,169,22711,1,8,0:0:0:0:
512,212,22858,6,0,B|440:191|440:191|402:198|402:198|339:177,1,176.000005371094,6|2,0:0|0:0,0:0:0:0:
434,274,23299,1,10,0:0:0:0:
407,111,23446,1,2,0:0:0:0:
336,277,23593,1,2,0:0:0:0:
499,120,23740,1,0,0:0:0:0:
473,357,23887,2,0,P|431:369|389:360,1,88.000002685547,10|0,0:0|0:0,0:0:0:0:
202,279,24181,5,2,0:0:0:0:
342,178,24328,1,0,0:0:0:0:
243,364,24476,1,10,0:0:0:0:
202,180,24623,1,0,0:0:0:0:
434,274,24770,1,2,0:0:0:0:
279,119,24917,1,2,0:0:0:0:
342,353,25064,1,8,0:0:0:0:
502,161,25211,6,0,B|445:137|445:137|378:133|321:198,1,176.000005371094,6|2,0:0|0:0,0:0:0:0:
421,311,25652,2,0,P|429:269|420:222,1,88.000002685547,10|0,0:0|0:0,0:0:0:0:
350,75,25946,1,2,0:0:0:0:
340,265,26093,1,0,0:0:0:0:
171,126,26240,2,0,L|258:120,1,88.000002685547,2|8,0:0|0:0,0:0:0:0:
341,177,26534,5,2,0:0:0:0:
262,19,26681,1,0,0:0:0:0:
253,226,26828,1,10,0:0:0:0:
350,75,26976,1,0,0:0:0:0:
337,279,27123,1,10,1:2:0:0:
353,46,27270,1,10,1:2:0:0:
335,309,27417,1,10,1:2:0:0:
146,170,27564,5,0,1:0:0:0:
444,200,27858,1,0,0:0:0:0:
444,200,28005,1,8,0:0:0:0:
139,185,28299,5,0,0:0:0:0:
437,215,28593,1,8,0:0:0:0:
132,200,28887,5,0,0:0:0:0:
430,230,29181,1,8,0:0:0:0:
125,215,29476,5,8,1:2:0:0:
423,245,29623,1,8,1:2:0:0:
423,245,29917,6,0,B|348:238|348:238|287:287,1,143.999995605469,4|0,0:0|0:0,0:0:0:0:
373,318,30358,1,8,0:0:0:0:
127,326,30652,2,0,B|180:369|180:369|255:362,1,143.999995605469,2|10,0:0|0:0,0:0:0:0:
205,289,31093,1,2,0:0:0:0:
205,289,31240,6,0,L|61:303,1,143.999995605469,0|8,0:0|0:0,0:0:0:0:
227,123,31828,1,2,0:0:0:0:
290,192,31976,1,0,0:0:0:0:
319,103,32123,1,8,0:0:0:0:
146,207,32270,6,0,L|289:192,1,143.999995605469,2|0,0:0|0:0,0:0:0:0:
290,192,32711,1,8,0:0:0:0:
105,28,33005,2,0,L|33:33,1,71.9999978027344,2|2,0:0|0:0,0:0:0:0:
204,96,33299,1,8,0:0:0:0:
61,111,33446,6,0,L|204:96,1,143.999995605469,2|0,0:0|0:0,0:0:0:0:
261,32,33887,1,10,0:0:0:0:
261,32,34034,1,2,0:0:0:0:
327,169,34181,2,0,L|255:161,1,71.9999978027344
204,96,34476,1,10,0:0:0:0:
393,233,34623,6,0,P|417:172|381:96,1,143.999995605469,2|0,0:0|0:0,0:0:0:0:
308,261,35064,1,8,0:0:0:0:
338,32,35358,1,0,0:0:0:0:
443,318,35652,2,0,P|409:328|374:324,1,71.9999978027344,10|2,0:0|0:0,0:0:0:0:
266,187,35946,6,0,P|300:177|335:181,1,71.9999978027344,2|0,0:0|0:0,0:0:0:0:
195,253,36240,2,0,B|170:188|170:188|197:109,1,143.999995605469,10|0,0:0|0:0,0:0:0:0:
194,117,36681,1,0,0:0:0:0:
226,333,36828,2,0,P|192:340|158:331,1,71.9999978027344,10|0,0:0|0:0,0:0:0:0:
40,253,37123,6,0,P|74:245|108:255,1,71.9999978027344,2|0,0:0|0:0,0:0:0:0:
292,330,37417,2,0,P|218:351|151:326,1,143.999995605469,10|0,0:0|0:0,0:0:0:0:
108,255,37858,1,0,0:0:0:0:
74,333,38005,1,10,0:0:0:0:
111,97,38299,5,2,0:0:0:0:
149,176,38446,1,0,0:0:0:0:
187,255,38593,1,10,0:0:0:0:
248,32,38887,5,8,0:0:0:0:
198,104,39034,1,0,0:0:0:0:
336,40,39181,1,8,1:2:0:0:
322,191,39328,6,0,P|387:216|451:187,1,143.999995605469,4|0,0:0|0:0,0:0:0:0:
336,40,39770,1,8,0:0:0:0:
239,217,39917,1,2,0:0:0:0:
239,217,40064,2,0,P|237:182|245:147,1,71.9999978027344,2|0,0:0|0:0,0:0:0:0:
300,283,40358,1,10,0:0:0:0:
73,303,40505,6,0,B|144:275|144:331|213:301,1,143.999995605469,2|0,0:0|0:0,0:0:0:0:
5,344,40946,2,0,P|-2:309|0:274,1,71.9999978027344,8|0,0:0|0:0,0:0:0:0:
123,176,41240,1,2,0:0:0:0:
61,225,41387,1,2,0:0:0:0:
105,93,41534,1,8,0:0:0:0:
261,161,41681,6,0,B|203:157|203:157|175:176|175:176|113:175,1,143.999995605469,2|0,0:0|0:0,0:0:0:0:
296,242,42123,2,0,L|212:236,1,71.9999978027344,8|0,0:0|0:0,0:0:0:0:
384,253,42417,1,2,0:0:0:0:
331,323,42564,1,2,0:0:0:0:
261,161,42711,1,8,0:0:0:0:
100,306,42858,6,0,L|260:317,1,143.999995605469,2|0,0:0|0:0,0:0:0:0:
384,253,43299,1,10,0:0:0:0:
261,161,43446,1,2,0:0:0:0:
296,242,43593,1,2,0:0:0:0:
349,172,43740,1,2,0:0:0:0:
314,91,43887,1,10,0:0:0:0:
125,160,44034,6,0,P|191:181|283:142,1,143.999995605469,6|0,0:0|0:0,0:0:0:0:
46,187,44476,2,0,P|43:151|61:108,1,71.9999978027344,8|0,0:0|0:0,0:0:0:0:
108,242,44770,2,0,P|79:262|44:269,1,71.9999978027344,2|2,0:0|0:0,0:0:0:0:
126,78,45064,1,8,0:0:0:0:
180,286,45211,6,0,B|249:312|249:312|319:270,1,143.999995605469,2|0,0:0|0:0,0:0:0:0:
237,153,45652,2,0,P|234:193|248:239,1,71.9999978027344,10|2,0:0|0:0,0:0:0:0:
314,103,45946,1,2,0:0:0:0:
314,103,46093,1,0,0:0:0:0:
146,142,46240,1,8,0:0:0:0:
274,15,46387,1,4,0:0:0:0:
320,190,46534,6,0,P|360:193|406:179,1,71.9999978027344,2|0,0:0|0:0,0:0:0:0:
437,92,46828,1,10,0:0:0:0:
507,281,46976,2,0,P|467:284|421:270,1,71.9999978027344,2|0,0:0|0:0,0:0:0:0:
391,186,47270,1,0,0:0:0:0:
273,336,47417,2,0,L|355:332,1,71.9999978027344,8|0,0:0|0:0,0:0:0:0:
205,252,47711,5,8,0:0:0:0:
160,350,47858,1,0,0:0:0:0:
78,274,48005,2,0,L|82:356,1,71.9999978027344
185,104,48299,5,8,0:0:0:0:
128,190,48446,1,0,0:0:0:0:
100,68,48593,1,0,0:0:0:0:
249,180,48740,1,0,0:0:0:0:
273,0,48887,5,4,1:2:0:0:
338,98,49034,2,0,L|421:99,1,71.9999978027344,0|0,1:2|0:0,0:0:0:0:
437,101,49476,2,0,P|427:140|443:182,1,71.9999978027344,2|0,0:0|0:0,0:0:0:0:
496,234,49770,1,2,1:2:0:0:
496,234,49917,6,0,P|456:215|363:261,1,143.999995605469,2|2,1:2|0:0,0:0:0:0:
439,372,50358,2,0,P|449:333|433:291,1,71.9999978027344,2|0,0:0|0:0,0:0:0:0:
295,296,50652,1,0,1:2:0:0:
371,337,50799,1,0,0:0:0:0:
219,254,50946,1,0,1:2:0:0:
293,210,51093,2,0,L|323:191,1,35.9999989013672
220,339,51240,5,4,0:0:0:0:
194,354,51534,2,0,L|120:357,1,71.9999978027344,0|0,1:0|0:0,0:0:0:0:
26,363,51828,2,0,P|84:354|73:281,1,143.999995605469,2|0,0:0|0:0,0:0:0:0:
0,192,52270,5,2,0:0:0:0:
0,192,52343,1,0,0:0:0:0:
0,192,52417,2,0,L|98:196,1,71.9999978027344,4|2,0:0|0:0,0:0:0:0:
224,238,52711,2,0,L|126:242,1,71.9999978027344,2|0,0:0|0:0,0:0:0:0:
140,251,52931,1,0,0:0:0:0:
140,251,53005,2,0,P|137:286|155:347,1,71.9999978027344,4|0,0:0|0:0,0:0:0:0:
277,155,53299,2,0,P|280:120|262:59,1,71.9999978027344,2|0,0:0|0:0,0:0:0:0:
264,76,53520,1,0,0:0:0:0:
264,76,53593,6,0,L|363:76,1,71.9999978027344,6|0,0:0|0:0,0:0:0:0:
405,17,53887,1,2,0:0:0:0:
395,144,54034,2,0,L|391:242,1,71.9999978027344,0|0,1:2|0:0,0:0:0:0:
468,85,54328,1,0,0:0:0:0:
336,76,54476,2,0,L|264:73,1,71.9999978027344,0|2,1:0|0:0,0:0:0:0:
92,198,54770,6,0,P|139:192|164:174,1,80,2|0,0:0|0:0,0:0:0:0:
25,45,55064,2,0,P|5:89|9:119,1,80,2|0,0:0|0:0,0:0:0:0:
191,63,55358,2,0,P|163:25|135:13,1,80,2|0,0:0|0:0,0:0:0:0:
86,274,55652,1,2,0:0:0:0:
103,102,55799,1,2,0:0:0:0:
12,306,55946,5,4,1:2:0:0:
238,134,56093,1,2,0:0:0:0:
21,226,56240,1,0,1:0:0:0:
253,267,56387,1,0,0:0:0:0:
87,143,56534,2,0,L|98:205,1,40,0|0,1:0|0:0,0:0:0:0:
184,355,56681,5,0,1:0:0:0:
219,373,56754,1,0,1:0:0:0:
258,378,56828,1,0,1:0:0:0:
297,368,56901,1,0,1:0:0:0:
330,346,56976,6,0,L|345:263,1,47.9999985351563,2|0,1:2|0:0,1:0:0:0:
357,169,57123,1,2,0:0:0:0:
253,267,57270,2,0,L|188:267,2,47.9999985351563,2|2|2,0:0|0:0|0:0,0:0:0:0:
275,274,58152,6,0,B|171:234|172:308|78:274,1,191.999994140625,6|0,0:0|0:0,0:0:0:0:
355,328,58593,2,0,P|368:278|354:229,1,95.9999970703126,10|0,0:0|0:0,0:0:0:0:
291,95,58887,1,0,0:0:0:0:
291,95,59034,1,0,0:0:0:0:
168,213,59181,2,0,B|213:218|213:218|260:201,1,95.9999970703126,10|0,0:0|0:0,0:0:0:0:
92,65,59476,6,0,L|111:179,1,95.9999970703126,2|0,0:0|0:0,0:0:0:0:
94,366,59770,2,0,L|113:252,1,95.9999970703126,10|0,0:0|0:0,0:0:0:0:
215,122,60064,1,2,0:0:0:0:
0,182,60211,1,0,0:0:0:0:
215,122,60358,1,10,0:0:0:0:
192,347,60505,6,0,B|242:358|284:317|284:317|347:307|379:346,1,191.999994140625,6|0,0:0|0:0,0:0:0:0:
212,263,60946,2,0,P|252:232|302:229,1,95.9999970703126,10|0,0:0|0:0,0:0:0:0:
449,292,61240,1,0,0:0:0:0:
449,292,61387,1,0,0:0:0:0:
340,124,61534,1,10,0:0:0:0:
296,228,61681,1,2,0:0:0:0:
450,108,61828,6,0,P|435:64|401:30,1,95.9999970703126,2|0,0:0|0:0,0:0:0:0:
270,33,62123,2,0,P|240:70|226:115,1,95.9999970703126,10|0,0:0|0:0,0:0:0:0:
296,227,62417,2,0,P|342:235|389:224,1,95.9999970703126,2|0,0:0|0:0,0:0:0:0:
340,123,62711,1,10,0:0:0:0:
151,125,62858,6,0,B|229:117|229:117|258:129|258:129|343:122,1,191.999994140625,6|0,0:0|0:0,0:0:0:0:
97,49,63299,2,0,L|216:36,1,95.9999970703126,10|0,0:0|0:0,0:0:0:0:
118,205,63593,1,2,0:0:0:0:
61,131,63740,1,0,0:0:0:0:
82,292,63887,2,0,P|133:299|191:263,1,95.9999970703126,10|0,0:0|0:0,0:0:0:0:
246,111,64181,5,2,0:0:0:0:
303,185,64328,1,0,0:0:0:0:
282,24,64476,2,0,P|231:17|173:53,1,95.9999970703126,10|0,0:0|0:0,0:0:0:0:
413,151,64770,5,2,0:0:0:0:
380,290,64917,1,0,0:0:0:0:
417,130,65064,1,10,0:0:0:0:
455,336,65211,6,0,B|389:373|389:373|328:375|296:289,1,191.999994140625,2|0,0:0|0:0,0:0:0:0:
327,114,65652,2,0,P|379:111|427:140,1,95.9999970703126,10|0,0:0|0:0,0:0:0:0:
218,186,65946,2,0,P|166:189|118:160,1,95.9999970703126,2|0,0:0|0:0,0:0:0:0:
467,47,66240,6,0,B|501:137|501:137|461:227,1,191.999994140625,10|0,0:0|0:0,0:0:0:0:
355,195,66681,1,0,0:0:0:0:
290,330,66828,2,0,B|339:333|339:333|393:294,1,95.9999970703126,10|2,0:0|0:0,0:0:0:0:
243,231,67123,2,0,L|176:249,1,47.9999985351563,2|0,0:0|0:0,0:0:0:0:
69,318,67270,5,0,1:0:0:0:
115,314,67343,1,0,1:0:0:0:
147,279,67417,1,0,1:0:0:0:
145,233,67490,1,0,1:0:0:0:
112,200,67564,1,0,1:0:0:0:
65,199,67637,1,0,1:0:0:0:
31,232,67711,5,4,0:0:0:0:
31,232,68005,2,0,L|140:217,1,95.9999970703126,2|0,0:0|0:0,0:0:0:0:
299,159,68299,2,0,B|168:176|168:176|121:225,1,191.999994140625,10|0,0:0|0:0,0:0:0:0:
86,137,68740,1,0,1:0:0:0:
78,305,68887,6,0,P|123:318|169:307,1,95.9999970703126,0|0,0:0|1:0,0:0:0:0:
354,64,69181,2,0,L|245:79,1,95.9999970703126,2|0,0:0|0:0,0:0:0:0:
87,138,69475,2,0,B|218:121|218:121|265:72,1,191.999994140625,10|0,0:0|0:0,0:0:0:0:
176,39,69916,1,0,1:0:0:0:
222,207,70064,6,0,L|126:220,1,95.9999970703126,0|0,0:0|1:0,0:0:0:0:
297,160,70358,2,0,P|369:147|430:195,1,143.999995605469,2|0,0:0|0:0,0:0:0:0:
512,202,70652,2,0,P|467:209|426:187,1,95.9999970703126,10|0,1:2|0:0,0:0:0:0:
362,54,70946,1,2,0:0:0:0:
256,240,71093,6,0,P|305:250|354:223,1,95.9999970703126,2|0,1:2|0:0,0:0:0:0:
362,54,71387,1,2,1:2:0:0:
425,283,71534,2,0,L|414:395,1,95.9999970703126,2|0,1:2|0:0,0:0:0:0:
299,159,71828,1,10,0:0:0:0:
232,319,71976,2,0,L|279:317,1,47.9999985351563,2|0,0:0|0:0,0:0:0:0:
173,254,72123,1,0,1:2:0:0:
155,285,72197,1,0,1:2:0:0:
127,306,72270,1,0,1:2:0:0:
92,316,72344,1,0,1:2:0:0:
56,312,72417,5,6,1:2:0:0:
358,70,73740,6,0,L|375:34,2,23.9999992675781
360,191,74181,2,0,L|377:227,2,23.9999992675781
304,130,74476,1,0,0:0:0:0:
480,133,74623,6,0,L|304:130,1,176.000005371094,6|2,0:0|0:0,0:0:0:0:
168,198,75064,1,10,0:0:0:0:
231,51,75211,1,0,0:0:0:0:
235,262,75358,1,2,0:0:0:0:
164,108,75505,1,0,0:0:0:0:
64,302,75652,2,0,P|108:305|166:270,1,88.000002685547,2|8,0:0|0:0,0:0:0:0:
304,130,75946,5,2,0:0:0:0:
168,198,76093,1,0,0:0:0:0:
358,221,76240,1,10,0:0:0:0:
291,37,76387,1,0,0:0:0:0:
256,253,76534,1,2,0:0:0:0:
395,102,76681,1,2,0:0:0:0:
420,310,76828,1,8,0:0:0:0:
221,170,76976,6,0,B|292:171|292:171|317:195|317:195|392:196,1,176.000005371094,6|2,0:0|0:0,0:0:0:0:
168,253,77417,2,0,L|256:253,1,88.000002685547,10|2,0:0|0:0,0:0:0:0:
176,85,77711,1,2,0:0:0:0:
134,254,77858,1,0,0:0:0:0:
59,76,78005,2,0,P|101:65|144:73,1,88.000002685547,2|8,0:0|0:0,0:0:0:0:
256,253,78299,5,2,0:0:0:0:
329,55,78446,1,0,0:0:0:0:
392,262,78593,1,10,0:0:0:0:
225,134,78740,1,2,0:0:0:0:
448,141,78887,5,8,0:0:0:0:
321,328,79034,1,8,0:0:0:0:
448,141,79181,1,8,0:0:0:0:
321,328,79328,6,0,B|223:364|253:292|131:340,1,176.000005371094,4|0,0:0|0:0,0:0:0:0:
41,186,79770,5,10,1:2:0:0:
97,359,79917,1,0,0:0:0:0:
138,79,80064,5,10,1:2:0:0:
165,264,80211,1,0,0:0:0:0:
282,40,80358,5,10,1:2:0:0:
261,253,80505,1,0,0:0:0:0:
448,33,80652,5,10,1:2:0:0:
369,259,80799,1,2,0:0:0:0:
234,121,80946,5,10,1:2:0:0:
485,134,81093,1,0,0:0:0:0:
336,329,81240,5,10,1:2:0:0:
319,84,81387,1,2,0:0:0:0:
213,304,81534,1,8,1:2:0:0:
384,206,81681,6,0,B|307:164|307:164|209:170,1,176.000005371094,6|2,0:0|0:0,0:0:0:0:
108,289,82123,5,10,1:2:0:0:
142,83,82270,1,2,0:0:0:0:
213,304,82417,5,10,1:2:0:0:
239,68,82564,1,0,0:0:0:0:
319,334,82711,5,10,1:2:0:0:
332,75,82858,1,0,0:0:0:0:
468,295,83005,5,10,1:2:0:0:
227,212,83152,1,2,0:0:0:0:
477,145,83299,1,10,1:2:0:0:
319,334,83446,5,0,0:0:0:0:
332,75,83593,1,10,1:2:0:0:
319,334,83740,5,0,1:2:0:0:
280,354,83813,1,0,1:2:0:0:
236,360,83887,1,0,1:2:0:0:
193,353,83960,1,0,1:2:0:0:
154,333,84034,6,0,L|140:236,1,95.9999970703126,4|0,0:0|0:0,0:0:0:0:
87,181,84476,2,0,P|72:200|62:225,1,47.9999985351563,0|0,0:0|0:0,0:0:0:0:
210,208,84770,2,0,P|198:187|181:171,1,47.9999985351563,0|0,0:0|0:0,0:0:0:0:
123,111,85064,1,0,0:0:0:0:
270,260,85211,6,0,B|318:266|318:266|376:236,1,95.9999970703126,2|0,0:0|0:0,0:0:0:0:
325,134,85652,2,0,B|310:153|310:153|308:185,1,47.9999985351563,0|0,0:0|0:0,0:0:0:0:
427,208,85946,2,0,B|417:185|417:185|390:168,1,47.9999985351563,0|0,0:0|0:0,0:0:0:0:
360,244,86240,1,0,0:0:0:0:
395,90,86387,6,0,P|349:56|296:61,1,95.9999970703126,2|0,0:0|0:0,0:0:0:0:
246,103,86828,2,0,P|220:114|194:109,1,47.9999985351563,0|0,0:0|0:0,0:0:0:0:
136,61,87123,2,0,P|112:59|90:69,1,47.9999985351563,0|0,0:0|0:0,0:0:0:0:
212,29,87417,5,8,1:2:0:0:
155,272,87564,1,8,1:2:0:0:
