osu file format v14

[General]
AudioFilename: audio.mp3
AudioLeadIn: 0
PreviewTime: 56726
Countdown: 1
SampleSet: Soft
StackLeniency: 0.4
Mode: 0
LetterboxInBreaks: 0
WidescreenStoryboard: 1

[Editor]
DistanceSpacing: 0.3
BeatDivisor: 4
GridSize: 4
TimelineZoom: 2.4

[Metadata]
Title:Sora ni Utaeba (TV Size)
TitleUnicode:Sora ni Utaeba (TV Size)
Artist:amazarashi
ArtistUnicode:amazarashi
Creator:Blakki
Version:Hard
Source:僕のヒーローアカデミア 第2期
Tags:Boku no Hero Academia 2 My Hero Academia Second Season
BeatmapID:1354766
BeatmapSetID:638246

[Difficulty]
HPDrainRate:4
CircleSize:3.5
OverallDifficulty:4
ApproachRate:7
SliderMultiplier:1.00000000596046
SliderTickRate:1

[Events]
//Background and Video events
0,0,"Stain.jpg",0,0
//Break Periods
2,41999,47811
//Storyboard Layer 0 (Background)
//Storyboard Layer 1 (Fail)
//Storyboard Layer 2 (Pass)
//Storyboard Layer 3 (Foreground)
//Storyboard Sound Samples

[TimingPoints]
-700,294.117647058824,4,2,1,80,1,0
49300,-125,4,2,1,80,0,0
54300,-95.2380952380954,4,2,1,80,0,0
55770,-100,4,2,1,80,0,0
57976,-83.3333333333333,4,2,1,80,0,1
74447,-83.3333333333333,4,2,1,80,0,0

[HitObjects]
156,212,329,5,0,0:0:0:0:
204,272,476,2,0,P|248:280|312:244,1,100.000000596046
344,164,1064,6,0,L|340:64,1,100.000000596046
268,40,1505,2,0,P|208:60|124:40,1,150.000000894069
56,88,2535,5,0,0:0:0:0:
96,152,2829,2,0,P|112:196|92:256,1,100.000000596046
168,332,3417,6,0,L|268:328,1,100.000000596046
408,260,3858,2,0,L|308:264,1,100.000000596046
260,204,4300,1,0,0:0:0:0:
176,132,4888,6,0,P|172:104|180:80,1,50.000000298023
212,40,5182,2,0,L|112:44,1,100.000000596046
40,100,5770,6,0,P|28:148|48:208,1,100.000000596046
92,252,6211,2,0,L|244:248,1,150.000000894069
320,184,6947,2,0,P|368:172|416:184,1,100.000000596046
408,304,7535,6,0,L|308:300,1,100.000000596046
220,244,8123,2,0,L|120:248,1,100.000000596046
56,208,8564,2,0,P|44:173|61:102,1,100.000000596046,0|0,0:3|0:3,0:3:0:0:
112,64,9005,6,0,B|152:80|152:80|224:56,2,100.000000596046
55,112,9888,2,0,L|60:228,1,100.000000596046
128,244,10329,1,0,0:0:0:0:
128,244,10476,2,0,P|168:232|236:260,1,100.000000596046
172,324,11064,5,0,0:0:0:0:
288,292,11358,1,0,0:0:0:0:
232,184,11652,2,0,L|128:188,2,100.000000596046
316,272,12535,5,0,0:0:0:0:
372,164,12829,2,0,L|476:168,2,100.000000596046
316,272,13711,5,0,0:0:0:0:
232,184,14005,2,0,P|220:140|236:80,1,100.000000596046
192,24,14447,2,0,L|92:28,1,100.000000596046
40,84,14888,5,0,0:0:0:0:
40,84,15035,1,0,0:0:0:0:
40,84,15182,2,0,P|36:116|44:152,1,50.000000298023
56,208,15476,2,0,L|52:312,1,100.000000596046
168,320,16064,5,0,0:0:0:0:
168,320,16211,1,0,0:0:0:0:
168,320,16358,2,0,P|200:317|235:326,1,50.000000298023
288,348,16652,2,0,L|388:344,1,100.000000596046
480,288,17241,6,0,P|480:239|471:220,1,50.000000298023
444,172,17535,2,0,P|443:123|452:104,1,50.000000298023
484,60,17829,1,0,0:0:0:0:
432,4,17976,6,0,P|388:-4|320:12,1,100.000000596046
276,52,18417,2,0,L|208:48,1,50.000000298023
168,96,18711,2,0,P|156:136|180:208,2,100.000000596046
236,232,19594,6,0,L|232:300,1,50.000000298023
176,332,19888,2,0,P|132:340|72:316,1,100.000000596046
233,281,20329,6,0,L|333:285,1,100.000000596046
400,320,20770,2,0,L|468:316,1,50.000000298023
504,264,21064,2,0,P|491:216|503:168,2,100.000000596046
400,224,21947,6,0,L|348:228,1,50.000000298023
284,264,22241,2,0,L|184:260,1,100.000000596046
152,192,22682,2,0,P|109:205|46:188,1,100.000000596046
40,120,23123,6,0,L|42:70,1,50.000000298023
96,16,23417,2,0,P|144:2|192:15,2,100.000000596046
176,112,24300,6,0,L|225:108,1,50.000000298023
260,176,24594,2,0,L|256:276,1,100.000000596046
320,316,25035,2,0,P|362:303|424:324,1,100.000000596046
464,260,25476,6,0,L|461:210,1,50.000000298023
424,144,25770,2,0,L|428:44,1,100.000000596046
364,4,26211,5,0,0:0:0:0:
364,4,26358,2,0,P|328:0|300:8,1,50.000000298023
244,24,26652,2,0,P|219:26|194:22,1,50.000000298023
132,64,26947,2,0,L|136:124,3,50.000000298023
44,232,29300,1,0,0:0:0:0:
44,232,29447,5,0,0:0:0:0:
136,112,29741,2,0,P|208:132|280:108,1,150.000000894069
360,128,30476,5,0,0:0:0:0:
288,4,30770,1,0,0:0:0:0:
252,156,31064,1,0,0:0:0:0:
368,40,31358,1,0,0:0:0:0:
457,135,31652,5,0,0:0:0:0:
457,135,31800,1,0,0:0:0:0:
457,135,31947,1,0,0:0:0:0:
413,199,32094,2,0,L|261:195,1,150.000000894069
160,192,32829,5,0,0:0:0:0:
240,276,33123,1,0,0:0:0:0:
96,240,33417,1,0,0:0:0:0:
236,136,33711,5,0,0:0:0:0:
236,136,33858,2,0,L|128:140,1,100.000000596046
84,196,34300,1,0,0:0:0:0:
84,196,34447,2,0,P|76:256|92:300,1,100.000000596046
156,328,34888,5,0,0:0:0:0:
232,256,35182,1,0,0:0:0:0:
320,320,35476,1,0,0:0:0:0:
320,320,35623,1,0,0:0:0:0:
320,320,35770,1,0,0:0:0:0:
396,236,36064,6,0,L|392:136,1,100.000000596046
340,80,36505,1,0,0:0:0:0:
340,80,36652,2,0,P|303:77|270:90,1,50.000000298023
228,120,36947,2,0,P|191:122|158:109,1,50.000000298023
116,80,37241,2,0,L|8:84,1,100.000000596046
0,184,37829,5,0,0:0:0:0:
68,256,38123,1,0,0:0:0:0:
152,204,38417,1,0,0:0:0:0:
224,272,38711,6,0,L|328:268,1,100.000000596046
368,208,39152,2,0,P|360:164|392:96,1,100.000000596046
348,44,39594,1,0,0:0:0:0:
348,44,39741,1,0,0:0:0:0:
348,44,39888,2,0,L|280:48,1,50.000000298023
232,84,40182,5,0,0:0:0:0:
232,84,40329,2,0,L|132:80,2,100.000000596046
272,148,41064,2,0,L|268:248,1,100.000000596046
300,316,41505,2,0,P|336:324|404:304,1,100.000000596046
512,0,48711,5,0,0:0:0:0:
512,0,49594,1,0,0:0:0:0:
512,0,50476,1,0,0:0:0:0:
512,0,51947,1,0,0:0:0:0:
512,0,52829,1,0,0:0:0:0:
512,0,53417,1,0,0:0:0:0:
512,0,54300,1,0,0:0:0:0:
512,0,55182,1,0,0:0:0:0:
512,0,55770,1,0,0:0:0:0:
