osu file format v14

[General]
AudioFilename: audio.mp3
AudioLeadIn: 0
PreviewTime:56942
Countdown: 0
SampleSet: Soft
StackLeniency: 0.4
Mode: 0
LetterboxInBreaks: 0
WidescreenStoryboard: 0

[Editor]
DistanceSpacing: 0.3
BeatDivisor: 4
GridSize: 32
TimelineZoom: 1

[Metadata]
Title:Sora ni Utaeba
TitleUnicode:空に歌えば
Artist:amazarashi
ArtistUnicode:amazarashi
Creator:Syph
Version:Go Beyond
Source:僕のヒーローアカデミア
Tags:Boku no Hero Academia 2 My Second Season SnowNiNo_ schoolboy komore anxient A r M i N A_r_M_i_N Natsu Corinn Akitoshi Cheesecake
BeatmapID:1364729
BeatmapSetID:643847

[Difficulty]
HPDrainRate:6.5
CircleSize:4
OverallDifficulty:9.4
ApproachRate:9.3
SliderMultiplier:1.8
SliderTickRate:1

[Events]
//Background and Video events
0,0,"adsfds.jpg",0,0
//Break Periods
//Storyboard Layer 0 (Background)
//Storyboard Layer 1 (Fail)
//Storyboard Layer 2 (Pass)
//Storyboard Layer 3 (Foreground)
//Storyboard Layer 4 (Overlay)
//Storyboard Sound Samples

[TimingPoints]
472,294.117647058824,4,2,0,55,1,0
472,-166.666666666667,4,2,0,55,0,0
1501,-166.666666666667,4,2,0,63,0,0
6648,-166.666666666667,4,2,0,55,0,0
7530,-133.333333333333,4,2,0,55,0,0
9883,-133.333333333333,4,2,0,63,0,0
11060,-83.3333333333333,4,2,0,65,0,0
11280,-83.3333333333333,4,2,0,5,0,0
11354,-133.333333333333,4,2,0,60,0,0
12236,-100,4,2,0,65,0,0
12457,-100,4,2,0,5,0,0
12530,-133.333333333333,4,2,0,60,0,0
13413,-100,4,2,0,65,0,0
13633,-100,4,2,0,5,0,0
13707,-133.333333333333,4,2,0,60,0,0
14589,-100,4,2,0,65,0,0
14883,-133.333333333333,4,2,0,60,0,0
15766,-133.333333333333,4,2,0,65,0,0
17972,-100,4,2,0,70,0,0
27383,-100,4,2,0,60,0,0
27825,-133.333333333333,4,2,0,60,0,0
54295,-133.333333333333,4,2,0,63,0,0
55619,-133.333333333333,4,2,0,67,0,0
56942,-133.333333333333,4,2,0,55,0,0
57530,-200,4,2,0,50,0,0
57898,-200,4,2,0,5,0,0
57972,-83.3333333333333,4,2,0,80,0,1
58413,-90.9090909090909,4,2,0,80,0,1
72236,-133.333333333333,4,2,0,60,0,0
74442,-100,4,2,0,70,0,0

[Colours]
Combo1 : 122,160,250
Combo2 : 253,157,157
Combo3 : 83,215,253
Combo4 : 252,157,112

[HitObjects]
192,224,325,5,0,0:0:0:0:
192,224,472,2,0,L|194:163,1,53.9999983520508
244,110,766,2,0,L|246:49,1,53.9999983520508
193,170,1060,2,0,P|233:189|294:172,1,107.999996704102
403,103,1501,5,6,1:2:0:0:
403,103,1942,1,0,0:0:0:0:
403,103,2530,1,0,0:0:0:0:
204,42,2825,5,6,1:2:0:0:
204,42,3119,1,0,0:0:0:0:
204,42,3413,1,0,0:0:0:0:
204,42,3707,1,0,0:0:0:0:
234,274,3854,5,6,1:2:0:0:
234,274,4295,1,0,0:0:0:0:
234,274,4883,1,0,0:0:0:0:
271,197,5030,1,0,0:0:0:0:
43,290,5177,5,6,1:2:0:0:
43,290,5472,1,0,0:0:0:0:
43,290,5766,1,0,0:0:0:0:
171,161,6060,1,0,1:0:0:0:
207,380,6207,5,6,1:2:0:0:
207,380,6648,1,0,0:0:0:0:
309,314,6942,2,0,L|377:307,1,53.9999983520508
411,248,7236,2,0,L|479:241,1,53.9999983520508
281,83,7530,6,0,B|273:116|273:116|281:152,1,67.5000025749208,6|0,0:0|0:0,0:0:0:0:
410,182,7825,2,0,B|418:215|418:215|410:251,1,67.5000025749208
282,309,8119,2,0,B|274:342|274:342|282:378,1,67.5000025749208
205,248,8413,1,0,0:0:0:0:
281,83,8560,6,0,B|303:112|303:112|295:214,1,135.000005149842,2|0,1:2|0:0,0:0:0:0:
197,315,9001,2,0,L|206:235,1,67.5000025749208
150,189,9295,2,0,L|159:109,1,67.5000025749208
109,56,9589,1,0,0:0:0:0:
109,56,9883,6,0,B|141:42|141:42|188:42,1,67.5000025749208,6|0,1:2|0:0,0:0:0:0:
232,106,10177,2,0,B|264:106|264:106|296:92,1,67.5000025749208
173,42,10472,5,0,1:0:0:0:
251,205,10619,1,0,1:0:0:0:
311,15,10766,1,0,1:0:0:0:
311,15,10913,1,0,3:0:0:0:
163,143,11060,6,0,B|260:116|232:191|343:166,1,161.999995056153,6|0,0:0|0:0,0:0:0:0:
316,170,11354,2,0,L|313:261,1,67.5000025749208
245,278,11648,2,0,L|241:368,1,67.5000025749208
245,278,11942,1,0,0:0:0:0:
462,157,12236,6,0,P|404:137|338:179,1,135,2|0,0:0|0:0,0:0:0:0:
343,170,12530,2,0,L|252:166,1,67.5000025749208
235,98,12824,2,0,L|144:94,1,67.5000025749208,0|0,1:0|0:0,0:0:0:0:
235,98,13118,1,0,0:0:0:0:
78,282,13413,6,0,P|63:235|105:159,1,135,2|0,0:0|0:0,0:0:0:0:
100,162,13707,2,0,L|167:164,1,67.5000025749208
215,233,14001,2,0,L|282:235,1,67.5000025749208,0|0,1:0|0:0,0:0:0:0:
358,189,14295,1,0,0:0:0:0:
358,189,14442,1,0,0:0:0:0:
352,278,14589,6,0,L|358:179,1,90,2|0,0:0|0:0,0:0:0:0:
438,135,14883,1,0,0:0:0:0:
438,135,15030,1,0,0:0:0:0:
433,202,15177,2,0,L|439:103,1,67.5000025749208,0|0,1:0|0:0,0:0:0:0:
504,80,15472,1,0,0:0:0:0:
504,80,15766,5,6,1:2:0:0:
383,68,15913,1,8,3:0:0:0:
438,135,16060,1,0,3:0:0:0:
450,13,16207,1,4,3:0:0:0:
351,146,16354,1,0,1:0:0:0:
281,54,16501,1,8,3:0:0:0:
351,146,16648,6,0,L|359:63,1,67.5000025749208,0|8,0:0|3:0,0:0:0:0:
263,205,16942,2,0,L|271:122,1,67.5000025749208
253,298,17236,1,0,1:0:0:0:
281,54,17383,1,0,1:0:0:0:
281,54,17530,5,2,0:0:0:0:
263,205,17825,1,0,0:0:0:0:
26,146,17972,6,0,B|70:126|108:134|108:134|145:174|204:152,1,180,6|0,1:2|0:0,0:0:0:0:
169,0,18413,2,0,B|156:43|156:43|167:94,1,90,2|0,1:2|0:0,0:0:0:0:
268,278,18707,1,8,3:0:0:0:
322,92,18854,1,0,0:0:0:0:
113,210,19001,1,0,1:0:0:0:
113,210,19148,5,0,0:0:0:0:
245,25,19295,1,2,0:0:0:0:
193,338,19442,1,8,3:0:0:0:
94,124,19589,2,0,B|140:113|140:113|190:127,1,90,0|0,1:0|0:0,0:0:0:0:
404,200,19883,1,2,0:0:0:0:
181,124,20030,1,8,3:0:0:0:
374,46,20177,1,0,1:0:0:0:
290,279,20325,6,0,B|270:232|270:232|286:82,1,180,6|0,1:2|0:0,0:0:0:0:
335,343,20766,2,0,B|295:357|295:357|241:344,1,90,0|0,1:0|0:0,0:0:0:0:
46,241,21060,1,4,3:0:0:0:
219,168,21207,1,8,3:0:0:0:
219,168,21354,1,2,0:0:0:0:
147,334,21501,5,0,1:0:0:0:
63,82,21648,1,2,0:0:0:0:
238,242,21795,1,8,3:0:0:0:
44,58,21942,1,0,1:0:0:0:
226,14,22089,1,8,3:0:0:0:
142,356,22236,5,6,1:2:0:0:
204,89,22383,1,4,3:0:0:0:
204,89,22530,1,0,1:0:0:0:
22,216,22677,6,0,B|121:193|94:279|214:246,1,180,6|0,1:2|0:0,0:0:0:0:
54,377,23119,2,0,B|39:332|39:332|54:278,1,90,0|0,1:0|0:0,0:0:0:0:
170,127,23413,1,4,3:0:0:0:
50,290,23560,1,0,3:0:0:0:
187,104,23707,6,0,B|230:92|230:92|293:108,1,90,0|0,1:0|0:0,0:0:0:0:
486,207,24001,1,6,1:2:0:0:
373,66,24148,1,0,0:0:0:0:
344,306,24295,2,0,B|301:318|301:318|238:302,1,90,0|0,1:0|0:0,0:0:0:0:
108,194,24589,1,4,3:0:0:0:
296,108,24736,1,8,3:0:0:0:
257,306,24883,1,0,1:0:0:0:
211,22,25030,6,0,L|197:215,1,180,6|0,1:2|0:0,0:0:0:0:
331,355,25472,2,0,B|345:312|345:312|331:257,1,90,0|0,1:0|0:0,0:0:0:0:
174,128,25766,1,4,3:0:0:0:
257,306,25913,1,8,3:0:0:0:
318,45,26060,1,6,0:0:0:0:
104,171,26207,5,0,1:0:0:0:
349,28,26354,1,2,0:0:0:0:
181,285,26501,1,8,3:0:0:0:
91,36,26648,1,4,3:0:0:0:
374,185,26795,1,0,1:0:0:0:
63,266,26942,5,8,3:0:0:0:
450,165,27089,1,4,3:0:0:0:
210,52,27236,1,0,1:0:0:0:
294,378,27383,1,12,1:3:0:0:
373,284,27677,5,0,0:0:0:0:
298,310,27825,2,0,L|292:397,1,67.5000025749208,0|0,1:0|0:0,0:0:0:0:
236,253,28119,1,0,0:0:0:0:
240,185,28413,6,0,L|234:272,1,67.5000025749208,0|0,1:0|0:0,0:0:0:0:
323,201,28707,1,0,0:0:0:0:
327,133,29001,6,0,L|321:220,1,67.5000025749208,0|0,1:0|0:0,0:0:0:0:
245,72,29295,1,0,1:0:0:0:
440,235,29442,1,0,1:2:0:0:
440,235,29736,6,0,P|403:218|321:258,1,135.000005149842,6|0,0:0|0:0,0:0:0:0:
384,364,30177,2,0,L|390:289,1,67.5000025749208,0|0,1:0|0:0,0:0:0:0:
440,235,30472,2,0,L|446:160,1,67.5000025749208
496,106,30766,2,0,L|502:31,1,67.5000025749208,0|0,1:0|0:0,0:0:0:0:
445,167,31060,5,0,0:0:0:0:
226,96,31354,2,0,L|220:171,1,67.5000025749208,0|0,1:0|0:0,0:0:0:0:
226,96,31648,5,6,0:0:0:0:
155,210,31795,1,0,3:0:0:0:
91,91,31942,1,0,1:0:0:0:
155,210,32089,6,0,L|295:203,1,135.000005149842,2|0,0:0|0:0,0:0:0:0:
361,265,32530,1,0,1:0:0:0:
361,265,32825,2,0,L|366:181,1,67.5000025749208
279,347,33119,1,0,1:0:0:0:
279,347,33266,6,0,L|284:263,1,67.5000025749208
283,279,33560,1,0,0:0:0:0:
159,213,33707,2,0,L|252:207,1,67.5000025749208,0|0,1:0|0:0,0:0:0:0:
159,213,34001,5,6,0:0:0:0:
291,143,34148,1,0,0:0:0:0:
165,64,34295,1,0,0:0:0:0:
291,143,34442,6,0,L|451:137,1,135.000005149842,2|0,0:0|0:0,0:0:0:0:
506,195,34883,1,0,1:0:0:0:
261,337,35177,1,0,0:0:0:0:
261,337,35472,5,0,1:0:0:0:
199,286,35619,1,0,0:0:0:0:
122,319,35766,6,0,L|117:250,1,67.5000025749208,2|0,0:0|0:0,0:0:0:0:
161,183,36060,1,0,1:0:0:0:
18,317,36354,1,0,0:0:0:0:
18,317,36501,1,0,0:0:0:0:
198,358,36648,1,0,1:0:0:0:
117,251,36795,6,0,L|122:319,1,67.5000025749208,6|0,0:0|0:0,0:0:0:0:
194,179,37089,1,0,0:0:0:0:
194,179,37236,2,0,L|198:246,1,67.5000025749208,0|0,1:0|0:0,0:0:0:0:
269,295,37530,1,0,0:0:0:0:
269,295,37677,1,0,0:0:0:0:
386,208,37825,6,0,P|349:203|318:216,1,67.5000025749208,2|0,0:0|0:0,0:0:0:0:
269,295,38119,2,0,P|237:306|204:300,1,67.5000025749208,2|0,0:0|0:0,0:0:0:0:
74,226,38413,5,0,1:0:0:0:
74,226,38560,1,0,0:0:0:0:
204,151,38707,5,0,1:0:0:0:
204,151,38854,1,0,0:0:0:0:
204,300,39001,1,0,0:0:0:0:
74,226,39148,6,0,L|237:223,1,135.000005149842,6|0,0:0|0:0,0:0:0:0:
325,160,39589,2,0,B|333:129|333:129|325:93,1,67.5000025749208,0|0,1:0|0:0,0:0:0:0:
184,132,39883,2,0,L|265:129,1,67.5000025749208
101,85,40177,1,0,0:0:0:0:
101,85,40325,6,0,L|93:15,1,67.5000025749208,2|0,0:0|0:0,0:0:0:0:
184,132,40619,2,0,L|176:62,1,67.5000025749208,2|0,0:0|1:0,0:0:0:0:
138,226,40913,1,2,0:0:0:0:
278,142,41060,1,8,3:0:0:0:
63,137,41207,1,0,0:0:0:0:
167,326,41354,1,0,1:0:0:0:
286,117,41501,6,0,L|293:276,1,135.000005149842,6|0,0:0|0:0,0:0:0:0:
165,150,41942,2,0,B|165:83,1,67.5000025749208,0|0,1:0|0:0,0:0:0:0:
79,205,42236,1,0,0:0:0:0:
79,205,42383,2,0,L|79:127,1,67.5000025749208,0|0,0:0|1:0,0:0:0:0:
228,37,42677,6,0,P|181:10|98:53,1,135.000005149842,2|0,0:0|0:0,0:0:0:0:
228,37,43119,1,0,1:0:0:0:
254,173,43266,1,2,0:0:0:0:
330,82,43413,1,0,0:0:0:0:
242,201,43560,1,2,0:0:0:0:
354,57,43707,1,0,1:0:0:0:
476,183,43854,6,0,P|440:162|355:193,1,135.000005149842,6|0,0:0|0:0,0:0:0:0:
414,305,44295,2,0,L|420:232,1,67.5000025749208,0|0,1:0|0:0,0:0:0:0:
357,190,44589,1,0,0:0:0:0:
357,190,44736,2,0,L|363:117,1,67.5000025749208,0|0,0:0|1:0,0:0:0:0:
419,237,45030,6,0,P|362:268|301:245,1,135.000005149842,2|0,0:0|0:0,0:0:0:0:
233,184,45472,1,0,1:0:0:0:
154,250,45619,1,0,0:0:0:0:
135,147,45766,1,8,3:0:0:0:
135,147,45913,1,0,0:0:0:0:
233,184,46060,1,0,1:0:0:0:
47,273,46207,6,0,B|26:210|26:210|51:126,1,135.000005149842,6|0,0:0|0:0,0:0:0:0:
99,69,46648,1,0,1:0:0:0:
121,55,46795,1,0,0:0:0:0:
132,151,46942,1,8,3:0:0:0:
197,102,47089,1,8,3:0:0:0:
159,230,47236,5,0,1:0:0:0:
265,159,47383,1,2,0:0:0:0:
233,19,47530,1,0,1:0:0:0:
233,19,47677,1,8,3:0:0:0:
403,128,47825,2,0,B|371:134|371:134|331:126,1,67.5000025749208,2|0,1:2|0:0,0:0:0:0:
195,87,48119,1,0,1:0:0:0:
281,238,48266,1,8,3:0:0:0:
329,46,48413,1,0,0:0:0:0:
329,46,48560,1,0,1:0:0:0:
123,128,48707,5,6,1:2:0:0:
123,128,48854,1,0,0:0:0:0:
422,209,49442,5,0,1:0:0:0:
335,186,49589,1,0,0:0:0:0:
359,273,49736,1,0,1:0:0:0:
425,25,50325,5,0,1:0:0:0:
396,135,50472,1,2,0:0:0:0:
315,54,50619,1,0,1:0:0:0:
359,273,50766,1,0,0:0:0:0:
404,115,50913,1,0,1:0:0:0:
355,296,51060,5,4,0:0:0:0:
129,141,51354,1,0,0:0:0:0:
129,141,51501,1,0,1:0:0:0:
47,88,51942,5,2,0:0:0:0:
139,43,52089,1,0,1:0:0:0:
129,141,52236,1,4,0:0:0:0:
129,141,52530,1,0,1:0:0:0:
63,3,52825,1,6,0:0:0:0:
375,168,53413,5,2,0:0:0:0:
188,332,53707,1,0,0:0:0:0:
188,332,53854,1,0,1:0:0:0:
442,107,54295,5,2,3:2:0:0:
355,79,54442,1,0,1:0:0:0:
375,168,54589,1,2,3:2:0:0:
420,28,54736,1,0,1:0:0:0:
420,28,54883,1,8,3:0:0:0:
267,134,55030,1,0,1:0:0:0:
267,134,55177,1,2,3:2:0:0:
436,214,55325,1,0,1:0:0:0:
436,214,55472,1,8,3:0:0:0:
378,115,55619,1,0,1:0:0:0:
378,115,55692,1,0,0:0:0:0:
378,115,55766,5,6,1:2:0:0:
329,252,55913,1,0,1:0:0:0:
255,140,56060,1,8,3:0:0:0:
468,202,56207,1,0,1:0:0:0:
326,333,56354,1,4,3:0:0:0:
301,42,56501,1,0,1:0:0:0:
301,42,56575,1,0,0:0:0:0:
301,42,56648,1,8,3:0:0:0:
29,200,56795,1,6,1:2:0:0:
169,119,56942,5,2,0:0:0:0:
169,119,57236,1,0,0:0:0:0:
169,119,57530,6,0,P|145:159|166:226,1,112.5
275,218,57972,6,0,P|267:120|169:119,1,215.999993408203,6|8,1:2|3:0,0:0:0:0:
366,310,58413,2,0,B|382:265|382:265|368:203,1,99.0000030212403,0|0,1:0|0:0,0:0:0:0:
266,95,58707,1,8,3:0:0:0:
266,95,58854,1,8,3:0:0:0:
95,196,59001,2,0,L|198:189,1,99.0000030212403,0|0,1:0|0:0,0:0:0:0:
25,22,59295,6,0,B|9:67|9:67|23:129,1,99.0000030212403,6|0,0:0|0:0,0:0:0:0:
189,284,59589,2,0,B|205:239|205:239|191:177,1,99.0000030212403,0|0,1:0|0:0,0:0:0:0:
20,116,59883,1,8,3:0:0:0:
70,362,60030,1,8,3:0:0:0:
70,362,60177,1,0,1:0:0:0:
272,227,60325,6,0,B|209:221|209:221|153:243|153:243|63:236,1,198.000006042481,6|8,1:2|3:0,0:0:0:0:
340,290,60766,2,0,P|362:226|263:137,1,198.000006042481,2|4,0:0|3:0,0:0:0:0:
155,182,61207,1,8,3:0:0:0:
375,101,61354,1,0,1:0:0:0:
189,39,61501,5,2,0:0:0:0:
276,235,61648,2,0,L|282:137,1,99.0000030212403,8|0,3:0|0:0,0:0:0:0:
141,359,61942,2,0,L|146:260,1,99.0000030212403,0|0,1:0|0:0,0:0:0:0:
381,155,62236,1,8,3:0:0:0:
381,155,62383,1,8,3:0:0:0:
113,103,62530,1,0,1:0:0:0:
246,327,62677,6,0,B|285:277|285:277|280:130,1,198.000006042481,6|8,0:0|3:0,0:0:0:0:
46,55,63119,2,0,B|31:98|31:98|50:160,1,99.0000030212403,0|0,1:0|0:0,0:0:0:0:
186,221,63413,6,0,P|150:206|89:222,1,99.0000030212403,6|0,0:0|0:0,0:0:0:0:
0,218,63707,2,0,P|35:232|96:216,1,99.0000030212403,2|0,1:2|0:0,0:0:0:0:
194,135,64001,1,4,3:0:0:0:
194,135,64148,1,8,3:0:0:0:
225,290,64295,2,0,P|260:304|321:288,1,99.0000030212403,2|0,1:2|0:0,0:0:0:0:
502,288,64589,2,0,P|433:260|318:289,1,198.000006042481,2|0,3:2|1:0,0:0:0:0:
327,98,65030,6,0,B|312:174|312:174|329:215|329:215|316:297,1,198.000006042481,6|8,1:2|3:0,0:0:0:0:
378,32,65472,2,0,P|325:15|271:38,1,99.0000030212403,0|0,1:0|0:0,0:0:0:0:
96,157,65766,2,0,B|141:175|141:175|213:160,1,99.0000030212403,2|0,0:0|0:0,0:0:0:0:
437,106,66060,2,0,B|447:155|447:155|429:200,1,99.0000030212403,0|0,1:0|0:0,0:0:0:0:
322,345,66354,5,4,3:0:0:0:
322,345,66501,1,8,3:0:0:0:
345,168,66648,1,0,1:0:0:0:
345,168,66722,1,0,0:0:0:0:
345,168,66795,1,0,1:0:0:0:
211,248,66942,1,8,3:0:0:0:
412,109,67089,1,0,1:0:0:0:
384,89,67162,1,0,1:0:0:0:
353,81,67236,1,0,1:0:0:0:
319,83,67309,1,0,1:0:0:0:
291,97,67383,2,0,B|266:100|266:100|240:91,1,49.5000015106202,0|0,1:0|0:0,0:0:0:0:
124,45,67530,5,6,1:2:0:0:
274,21,67677,1,0,1:0:0:0:
156,222,67825,2,0,B|144:173|144:173|166:117,1,99.0000030212403,0|2,1:0|0:0,0:0:0:0:
214,303,68119,1,4,3:0:0:0:
280,151,68266,1,0,0:0:0:0:
82,230,68413,1,8,3:0:0:0:
307,321,68560,5,2,1:2:0:0:
225,91,68707,1,4,3:0:0:0:
134,347,68854,1,0,1:0:0:0:
331,212,69001,2,0,B|284:200|284:200|225:213,1,99.0000030212403,8|0,3:0|0:0,0:0:0:0:
20,288,69295,1,4,3:0:0:0:
153,161,69442,1,0,0:0:0:0:
134,347,69589,1,8,1:3:0:0:
62,92,69736,5,2,1:2:0:0:
165,264,69883,1,4,3:0:0:0:
234,52,70030,1,0,1:0:0:0:
40,172,70177,1,8,3:0:0:0:
264,32,70325,1,2,0:0:0:0:
165,264,70472,2,0,B|153:215|153:215|175:159,1,99.0000030212403,0|0,1:0|0:0,0:0:0:0:
386,93,70766,1,8,3:0:0:0:
317,277,70913,5,2,1:2:0:0:
264,32,71060,1,8,3:0:0:0:
324,309,71207,1,0,1:0:0:0:
466,136,71354,2,0,B|421:123|421:123|370:136,1,99.0000030212403,8|0,3:0|0:0,0:0:0:0:
173,222,71648,1,8,3:0:0:0:
331,336,71795,1,0,1:0:0:0:
331,336,71869,1,0,1:0:0:0:
331,336,71942,1,4,3:0:0:0:
405,48,72089,1,0,1:0:0:0:
57,202,72236,5,6,1:2:0:0:
57,202,72530,2,0,L|64:130,1,67.5000025749208
128,86,72825,2,0,L|135:14,1,67.5000025749208
128,86,73119,1,0,0:0:0:0:
164,251,73707,6,0,L|171:179,1,67.5000025749208
235,135,74002,2,0,L|242:63,1,67.5000025749208,2|0,0:0|0:0,0:0:0:0:
235,135,74295,1,0,0:0:0:0:
486,146,74442,6,0,B|442:126|404:134|404:134|367:174|308:152,1,180,6|0,1:2|0:0,0:0:0:0:
343,0,74883,2,0,B|356:43|356:43|345:94,1,90,2|0,1:2|0:0,0:0:0:0:
244,278,75177,1,8,3:0:0:0:
190,92,75324,1,0,0:0:0:0:
399,210,75471,1,0,1:0:0:0:
399,210,75618,5,0,0:0:0:0:
267,25,75765,1,2,0:0:0:0:
319,338,75912,1,8,3:0:0:0:
418,124,76059,2,0,B|372:113|372:113|322:127,1,90,0|0,1:0|0:0,0:0:0:0:
108,200,76353,1,2,0:0:0:0:
331,124,76500,1,8,3:0:0:0:
138,46,76647,1,0,1:0:0:0:
222,279,76795,6,0,B|242:232|242:232|226:82,1,180,6|0,1:2|0:0,0:0:0:0:
177,343,77236,2,0,B|217:357|217:357|271:344,1,90,0|0,1:0|0:0,0:0:0:0:
466,241,77530,1,4,3:0:0:0:
293,168,77677,1,8,3:0:0:0:
293,168,77824,1,2,0:0:0:0:
365,334,77971,5,0,1:0:0:0:
449,82,78118,1,2,0:0:0:0:
287,250,78265,1,8,3:0:0:0:
468,58,78412,1,0,1:0:0:0:
286,14,78559,1,8,3:0:0:0:
370,356,78706,5,6,1:2:0:0:
308,89,78853,1,4,3:0:0:0:
308,89,79000,1,0,1:0:0:0:
490,216,79147,6,0,B|391:193|418:279|298:246,1,180,6|0,1:2|0:0,0:0:0:0:
458,377,79589,2,0,B|473:332|473:332|458:278,1,90,0|0,1:0|3:0,0:0:0:0:
342,127,79883,1,0,1:0:0:0:
462,290,80030,1,8,3:0:0:0:
325,104,80177,6,0,B|282:92|282:92|219:108,1,90,0|0,1:0|3:0,0:0:0:0:
26,207,80471,1,0,1:0:0:0:
139,66,80618,1,8,3:0:0:0:
168,306,80765,2,0,B|211:318|211:318|274:302,1,90,0|0,1:0|0:0,0:0:0:0:
404,194,81059,1,4,3:0:0:0:
216,108,81206,1,8,3:0:0:0:
255,306,81353,1,0,1:0:0:0:
301,22,81500,6,0,L|315:215,1,180,6|8,1:2|3:0,0:0:0:0:
181,355,81942,2,0,B|167:312|167:312|181:257,1,90,0|0,1:0|0:0,0:0:0:0:
338,128,82236,1,4,3:0:0:0:
255,306,82383,1,8,3:0:0:0:
194,45,82530,1,6,0:0:0:0:
408,171,82677,5,0,1:0:0:0:
163,28,82824,1,2,0:0:0:0:
331,285,82971,1,8,3:0:0:0:
421,36,83118,1,4,3:0:0:0:
138,185,83265,1,0,1:0:0:0:
455,260,83412,5,8,3:0:0:0:
53,162,83559,1,4,3:0:0:0:
310,11,83706,1,0,1:0:0:0:
219,384,83853,5,12,1:3:0:0:
256,192,83927,12,2,87236,3:0:0:0:
256,192,87383,5,2,1:2:0:0:
