osu file format v14

[General]
AudioFilename: audio.mp3
AudioLeadIn: 0
PreviewTime: 56956
Countdown: 0
SampleSet: Soft
StackLeniency: 0.7
Mode: 0
LetterboxInBreaks: 0
WidescreenStoryboard: 0

[Editor]
DistanceSpacing: 1.9
BeatDivisor: 4
GridSize: 16
TimelineZoom: 3.599999

[Metadata]
Title:Sora ni Utaeba
TitleUnicode:空に歌えば
Artist:amazarashi
ArtistUnicode:amazarashi
Creator:Sotarks
Version:Aeon
Source:僕のヒーローアカデミア
Tags:boku no hero academia op opening 3 cut edit ver version akitoshi corinn -laura- nikakis snownino_ kalibe
BeatmapID:1707113
BeatmapSetID:813969

[Difficulty]
HPDrainRate:5.2
CircleSize:3.8
OverallDifficulty:9.5
ApproachRate:9.5
SliderMultiplier:2.02
SliderTickRate:1

[Events]
//Background and Video events
0,0,"frogbutt.jpg",0,0
//Break Periods
//Storyboard Layer 0 (Background)
//Storyboard Layer 1 (Fail)
//Storyboard Layer 2 (Pass)
//Storyboard Layer 3 (Foreground)
//Storyboard Sound Samples

[TimingPoints]
-470,294.117647058824,4,2,22,42,1,0
559,-192.307692307692,4,2,22,42,0,0
1735,-138.888888888889,4,2,22,62,0,0
6441,-108.695652173913,4,2,22,62,0,0
16000,-108.695652173913,4,2,22,72,0,0
17765,-161.290322580645,4,2,22,52,0,0
18206,-98.0392156862745,4,2,22,82,0,0
27618,-121.951219512195,4,2,22,62,0,0
29971,-138.888888888889,4,2,22,62,0,0
39382,-121.951219512195,4,2,22,72,0,0
48941,-138.888888888889,4,2,22,62,0,0
56000,-138.888888888889,4,2,22,72,0,0
57177,-138.888888888889,4,2,22,52,0,0
58206,-89.2857142857144,4,2,22,82,0,1
72471,-454.545454545455,4,2,22,82,0,0
73794,-454.545454545455,4,2,22,52,0,0
73941,-238.095238095238,4,2,22,52,0,0
74677,-98.0392156862745,4,2,22,82,0,1
81735,-98.0392156862745,4,2,22,82,0,0
81882,-98.0392156862745,4,2,22,82,0,1
89088,294.117647058824,4,2,22,72,1,0
89088,-454.545454545455,4,2,22,72,0,0
90264,-454.545454545455,4,2,22,42,0,0
90411,294.117647058824,4,2,22,72,1,0
90411,-454.545454545455,4,2,22,72,0,0
91293,-454.545454545455,4,2,22,42,0,0
91440,294.117647058824,4,2,22,72,1,0
91440,-454.545454545455,4,2,22,72,0,0
92616,-454.545454545455,4,2,22,42,0,0
92763,294.117647058824,4,2,22,72,1,0
92763,-454.545454545455,4,2,22,72,0,0
94233,-238.095238095238,4,2,22,72,0,0
94235,-238.095238095238,4,2,22,62,0,0
95117,294.117647058824,4,2,22,62,1,0
95117,-238.095238095238,4,2,22,62,0,0
98646,294.117647058824,4,2,22,62,1,0
98646,-161.290322580645,4,2,22,62,0,0
108057,-100,4,2,22,72,0,0
115851,-108.695652173913,4,2,22,72,0,0
116293,-108.695652173913,4,2,22,52,0,0
117322,-89.2857142857143,4,2,22,82,0,1
140998,-454.545454545455,4,2,22,82,0,0
142322,-454.545454545455,4,2,22,72,0,0
142763,-121.951219512195,4,2,22,72,0,0
143204,-108.695652173913,4,2,22,72,0,0
143646,-108.695652173913,4,2,22,62,0,0
148057,-454.545454545455,4,2,22,72,0,0
150263,-89.2857142857143,4,2,22,82,0,1
157616,-89.2857142857143,4,2,22,52,0,0
158057,-238.095238095238,4,2,22,52,0,0
160998,-238.095238095238,4,2,22,72,0,0

[Colours]
Combo1 : 255,233,164
Combo2 : 173,216,148
Combo3 : 70,111,64
Combo4 : 214,236,55
SliderBorder : 222,255,217

[HitObjects]
146,251,559,5,2,0:2:0:0:
225,217,706,2,0,P|180:212|158:200,1,52.5199996794434,2|0,0:2|0:0,0:0:0:0:
288,295,1000,2,0,P|261:295|236:302,1,52.5199996794434,2|0,0:2|0:0,0:0:0:0:
327,204,1294,2,0,P|345:157|329:93,1,105.039999358887,2|2,0:2|0:2,0:0:0:0:
62,43,1735,6,0,B|142:39|111:96|217:92,1,145.440003550781,4|0,1:2|0:0,0:0:0:0:
412,64,2177,2,0,P|333:83|225:196,1,218.160005326172,2|0,0:2|0:0,0:0:0:0:
185,262,2765,1,2,0:2:0:0:
185,262,3059,6,0,P|202:307|208:346,1,72.7200017753907,6|0,1:2|0:0,0:0:0:0:
105,209,3353,2,0,P|91:242|83:278,1,72.7200017753907,2|0,0:2|0:0,0:0:0:0:
54,141,3647,2,0,P|84:86|181:72,1,145.440003550781,2|2,0:2|0:2,0:0:0:0:
454,117,4088,6,0,B|371:124|400:166|317:191,1,145.440003550781,6|0,1:2|0:0,0:0:0:0:
174,149,4530,2,0,P|238:188|287:332,1,218.160005326172,2|0,0:2|0:0,0:0:0:0:
232,368,5118,1,2,0:2:0:0:
160,350,5265,1,2,0:2:0:0:
379,255,5412,6,0,P|424:247|460:251,1,72.7200017753907,6|0,1:2|0:0,0:0:0:0:
270,235,5706,2,0,P|233:236|198:229,1,72.7200017753907,2|0,0:2|0:0,0:0:0:0:
399,157,6000,2,0,P|406:99|392:40,1,109.080002663086,2|0,0:2|0:0,0:0:0:0:
373,20,6294,1,10,0:2:0:0:
184,146,6441,6,0,B|76:137|107:198|3:200,1,185.839993761475,4|0,1:2|0:0,0:0:0:0:
158,237,6882,2,0,P|173:292|177:354,1,92.9199968807374,0|0,1:2|0:0,0:0:0:0:
271,165,7177,2,0,P|334:142|380:137,1,92.9199968807374,2|0,1:2|0:0,0:0:0:0:
208,62,7471,2,0,P|145:39|99:34,1,92.9199968807374,2|0,1:2|0:0,0:0:0:0:
365,15,7765,6,0,P|461:51|490:156,1,185.839993761475,6|2,1:2|1:2,0:0:0:0:
472,209,8206,1,0,0:0:0:0:
309,251,8353,2,0,B|406:234|381:329|514:320,1,185.839993761475,2|2,1:2|1:2,0:0:0:0:
220,322,8794,1,10,0:2:0:0:
333,344,8941,6,0,P|287:351|242:339,1,92.9199968807374,4|0,1:2|0:0,0:0:0:0:
182,148,9235,2,0,P|216:209|226:258,1,92.9199968807374,2|0,1:2|0:0,0:0:0:0:
105,356,9530,2,0,P|129:316|145:273,1,92.9199968807374,2|0,1:2|0:0,0:0:0:0:
26,164,9824,2,0,P|41:207|66:246,1,92.9199968807374,2|0,1:2|0:0,0:0:0:0:
157,50,10118,6,0,B|247:36|234:116|340:134,1,185.839993761475,4|2,1:2|1:2,0:0:0:0:
426,128,10559,1,2,0:2:0:0:
260,198,10706,1,10,0:2:0:0:
483,257,10853,1,8,0:2:0:0:
216,301,11000,1,10,0:2:0:0:
439,242,11147,1,8,0:2:0:0:
172,169,11294,1,0,1:2:0:0:
172,169,11588,6,0,P|100:160|69:165,1,92.9199968807374,2|0,1:2|0:0,0:0:0:0:
196,56,11882,2,0,B|303:39|271:117|382:120,1,185.839993761475,10|0,0:2|1:2,0:0:0:0:
502,59,12324,1,0,3:2:0:0:
502,59,12397,1,0,3:2:0:0:
502,59,12471,1,0,1:2:0:0:
374,29,12618,1,0,0:0:0:0:
464,182,12765,6,0,P|475:236|478:287,1,92.9199968807374,2|0,1:2|0:0,0:0:0:0:
363,118,13059,2,0,P|333:224|329:329,1,185.839993761475,10|0,0:2|1:2,0:0:0:0:
195,373,13500,1,0,3:2:0:0:
195,373,13574,1,0,3:2:0:0:
195,373,13647,1,0,1:2:0:0:
321,331,13794,1,0,0:0:0:0:
148,252,13941,6,0,P|93:238|38:247,1,92.9199968807374,2|0,1:2|0:0,0:0:0:0:
249,204,14235,2,0,P|295:206|339:193,1,92.9199968807374,10|0,0:2|0:0,0:0:0:0:
167,160,14530,1,2,1:2:0:0:
400,271,14677,2,0,P|433:208|430:158,1,92.9199968807374,2|0,0:2|1:2,0:0:0:0:
311,63,14971,5,2,0:2:0:0:
339,193,15118,1,2,1:2:0:0:
220,51,15265,1,2,0:2:0:0:
167,160,15412,1,10,0:2:0:0:
257,133,15559,1,2,0:2:0:0:
99,32,15706,1,2,1:2:0:0:
99,32,16000,6,0,P|82:85|76:135,1,92.9199968807374,8|8,0:2|3:2,0:0:0:0:
132,239,16294,1,10,3:2:0:0:
257,133,16441,1,10,3:2:0:0:
53,199,16588,1,10,0:2:0:0:
219,288,16735,1,0,1:2:0:0:
108,327,16882,1,2,0:2:0:0:
275,165,17030,6,0,B|384:148|334:238|481:233,1,185.839993761475,0|0,1:2|1:2,0:0:0:0:
184,203,17471,1,10,0:2:0:0:
437,144,17618,1,8,0:2:0:0:
307,139,17765,2,0,P|244:133|183:122,1,125.239995031372,2|2,0:2|0:2,0:0:0:0:
7,279,18206,6,0,B|133:267|85:343|206:346,1,206.040001257568,6|0,1:2|1:2,0:0:0:0:
432,296,18647,2,0,P|342:277|311:261,1,103.020000628784,10|0,0:2|0:0,0:0:0:0:
125,219,18941,2,0,P|176:212|224:195,1,103.020000628784,2|0,1:2|1:2,0:0:0:0:
371,53,19235,2,0,P|341:121|334:176,1,103.020000628784,10|0,0:2|0:0,0:0:0:0:
120,41,19530,5,2,1:2:0:0:
96,188,19677,1,0,1:2:0:0:
247,59,19824,1,10,0:2:0:0:
314,232,19971,1,0,1:2:0:0:
184,111,20118,1,2,0:0:0:0:
77,286,20265,1,2,1:2:0:0:
326,187,20412,1,10,0:2:0:0:
49,312,20559,6,0,B|173:288|114:377|270:348,1,206.040001257568,6|0,1:2|1:2,0:0:0:0:
339,220,21000,2,0,P|361:286|363:327,1,103.020000628784,10|0,0:2|0:0,0:0:0:0:
227,155,21294,2,0,P|208:202|202:253,1,103.020000628784,2|0,1:2|1:2,0:0:0:0:
348,118,21588,1,10,0:2:0:0:
158,50,21735,1,8,3:0:0:0:
379,109,21882,5,2,1:2:0:0:
203,165,22030,1,0,1:2:0:0:
452,252,22177,1,10,0:2:0:0:
320,128,22324,1,0,1:2:0:0:
154,299,22471,1,2,0:0:0:0:
242,66,22618,1,2,1:2:0:0:
177,325,22765,1,10,0:2:0:0:
139,73,22912,6,0,P|67:43|29:167,1,206.040001257568,6|0,1:2|1:2,0:0:0:0:
135,268,23353,2,0,P|125:182|125:147,1,103.020000628784,10|0,0:2|0:0,0:0:0:0:
279,327,23647,2,0,P|289:241|289:206,1,103.020000628784,2|0,1:2|1:2,0:0:0:0:
428,59,23941,2,0,P|430:110|438:161,1,103.020000628784,10|0,0:2|0:0,0:0:0:0:
272,34,24235,5,2,1:2:0:0:
212,213,24382,1,0,1:2:0:0:
320,28,24530,1,10,0:2:0:0:
386,263,24677,1,0,1:2:0:0:
175,92,24824,1,10,0:0:0:0:
428,59,24971,1,2,1:2:0:0:
241,290,25118,1,10,0:2:0:0:
361,21,25265,6,0,B|401:152|327:96|374:240,1,206.040001257568,6|0,1:2|1:2,0:0:0:0:
278,56,25706,2,0,P|259:145|259:185,1,103.020000628784,10|0,0:2|0:0,0:0:0:0:
131,31,26000,2,0,P|150:120|150:160,1,103.020000628784,2|0,1:2|1:2,0:0:0:0:
23,50,26294,1,10,0:2:0:0:
128,261,26441,1,10,3:0:0:0:
30,165,26588,5,0,0:0:0:0:
213,99,26735,1,0,1:0:0:0:
92,232,26882,1,10,3:0:0:0:
334,289,27030,1,10,0:0:0:0:
252,78,27177,1,10,3:0:0:0:
301,274,27324,1,10,3:0:0:0:
453,43,27471,1,10,0:0:0:0:
373,170,27618,6,0,P|357:241|348:347,1,165.640002527466,6|0,1:2|1:0,0:0:0:0:
275,106,28059,1,8,0:0:0:0:
109,346,28353,1,0,1:0:0:0:
275,106,28647,1,8,0:0:0:0:
109,346,28941,1,0,1:0:0:0:
275,106,29235,1,8,0:0:0:0:
7,287,29530,5,10,0:0:0:0:
379,172,29677,1,10,0:0:0:0:
379,172,29971,6,0,P|289:149|213:146,1,145.440003550781,4|0,1:2|1:2,0:0:0:0:
79,194,30412,1,8,0:2:0:0:
79,194,30706,2,0,P|103:251|108:274,1,72.7200017753907,2|0,1:2|0:0,0:0:0:0:
150,146,31000,1,10,0:2:0:0:
117,283,31147,1,2,0:0:0:0:
120,107,31294,5,0,1:2:0:0:
277,336,31588,1,8,0:2:0:0:
260,86,31882,1,2,1:2:0:0:
225,181,32030,1,0,1:2:0:0:
188,13,32177,1,8,0:2:0:0:
360,212,32324,6,0,B|265:211|327:269|196:268,1,145.440003550781,2|0,1:2|1:2,0:0:0:0:
81,200,32765,1,8,0:2:0:0:
81,200,33059,1,2,1:2:0:0:
146,132,33206,1,2,0:0:0:0:
200,272,33353,1,8,0:2:0:0:
164,108,33500,6,0,P|162:56|167:29,1,72.7200017753907,2|0,1:2|0:0,0:0:0:0:
240,188,33794,1,0,1:2:0:0:
321,48,33941,1,10,0:2:0:0:
380,204,34088,2,0,P|384:240|381:276,1,72.7200017753907,2|0,0:0|1:2,0:0:0:0:
276,179,34382,1,0,1:2:0:0:
230,332,34530,1,10,0:2:0:0:
134,148,34677,6,0,P|112:219|108:300,1,145.440003550781,2|0,1:2|1:2,0:0:0:0:
46,151,35118,1,8,0:2:0:0:
296,265,35412,1,0,1:2:0:0:
194,45,35706,1,10,0:2:0:0:
267,126,35853,1,0,0:0:0:0:
370,44,36000,6,0,P|437:21|460:23,1,72.7200017753907,2|0,1:2|0:0,0:0:0:0:
362,138,36294,2,0,P|295:115|272:117,1,72.7200017753907,10|0,0:2|0:0,0:0:0:0:
191,233,36588,1,0,1:2:0:0:
290,211,36735,1,0,1:2:0:0:
110,154,36882,1,10,0:2:0:0:
254,106,37030,1,0,1:2:0:0:
170,240,37177,6,0,P|155:288|155:325,1,72.7200017753907,2|0,0:0|1:2,0:0:0:0:
308,207,37471,2,0,P|320:241|324:277,1,72.7200017753907,10|0,0:2|0:0,0:0:0:0:
443,172,37765,1,0,1:2:0:0:
476,251,37912,1,0,1:2:0:0:
362,136,38059,6,0,P|363:96|373:58,1,72.7200017753907,10|0,0:2|0:0,0:0:0:0:
288,217,38353,1,2,1:2:0:0:
255,138,38500,1,0,1:2:0:0:
194,276,38647,2,0,P|185:311|185:347,1,72.7200017753907,10|0,0:2|0:0,0:0:0:0:
109,146,38941,1,8,0:2:0:0:
79,280,39088,1,0,1:2:0:0:
71,181,39235,1,0,0:0:0:0:
277,318,39382,6,0,B|374:307|329:370|456:352,1,165.640002527466,4|0,1:2|1:2,0:0:0:0:
308,239,39824,1,8,0:2:0:0:
440,146,39971,1,2,0:0:0:0:
423,262,40118,2,0,P|406:205|410:156,1,82.8200012637329,2|0,1:2|0:0,0:0:0:0:
285,34,40412,1,10,0:2:0:0:
294,222,40559,6,0,P|291:263|276:301,1,82.8200012637329,2|0,0:0|1:2,0:0:0:0:
217,126,40853,1,0,0:0:0:0:
190,233,41000,1,8,0:2:0:0:
128,56,41147,1,0,0:0:0:0:
164,225,41294,2,0,P|175:290|176:322,1,82.8200012637329,0|0,1:2|1:2,0:0:0:0:
201,105,41588,1,8,0:2:0:0:
329,293,41735,6,0,B|242:299|274:367|179:388,1,165.640002527466,2|0,1:2|1:2,0:0:0:0:
272,226,42177,2,0,P|281:166|276:122,1,82.8200012637329,8|0,0:2|0:0,0:0:0:0:
194,53,42471,1,2,1:2:0:0:
108,192,42618,2,0,P|107:233|115:273,1,82.8200012637329,2|8,0:0|0:2,0:0:0:0:
272,116,42912,6,0,P|325:77|437:104,1,165.640002527466,2|0,1:2|1:2,0:0:0:0:
462,270,43353,1,10,0:2:0:0:
380,211,43500,1,2,0:0:0:0:
269,317,43647,2,0,P|207:299|180:300,1,82.8200012637329,2|0,1:2|1:2,0:0:0:0:
349,222,43941,1,10,0:2:0:0:
55,144,44088,6,0,B|149:130|119:219|236:211,1,165.640002527466,6|0,1:2|1:2,0:0:0:0:
356,134,44530,2,0,P|293:153|278:174,1,82.8200012637329,8|0,0:2|0:0,0:0:0:0:
424,315,44824,1,2,1:2:0:0:
464,157,44971,2,0,P|453:96|456:58,1,82.8200012637329,2|8,0:0|0:2,0:0:0:0:
343,265,45265,6,0,P|270:210|180:216,1,165.640002527466,2|0,1:2|0:0,0:0:0:0:
45,324,45706,1,10,0:2:0:0:
96,232,45853,1,2,0:0:0:0:
190,352,46000,2,0,P|237:334|284:330,1,82.8200012637329,2|0,1:2|1:2,0:0:0:0:
126,307,46294,1,8,0:2:0:0:
303,186,46441,1,0,1:2:0:0:
203,98,46588,6,0,P|186:162|182:208,1,82.8200012637329,2|0,0:0|1:2,0:0:0:0:
363,68,46882,1,10,0:2:0:0:
430,180,47030,2,0,P|447:244|451:290,2,82.8200012637329,2|0|0,0:0|1:2|1:2,0:0:0:0:
274,307,47471,5,8,0:2:0:0:
384,97,47618,1,0,0:0:0:0:
364,343,47765,5,8,0:2:0:0:
272,139,47912,1,8,3:0:0:0:
164,306,48059,2,0,P|117:321|70:325,1,82.8200012637329,8|0,3:0|0:0,0:0:0:0:
345,201,48353,5,8,0:2:0:0:
188,57,48500,2,0,P|141:42|94:38,1,82.8200012637329,0|0,1:2|0:0,0:0:0:0:
404,73,48794,1,8,0:2:0:0:
85,222,48941,5,4,1:2:0:0:
236,156,49088,1,8,0:2:0:0:
69,194,49235,2,0,P|5:176|-22:174,1,72.7200017753907,0|0,1:2|0:0,0:0:0:0:
213,266,49530,2,0,P|226:310|229:346,1,72.7200017753907,2|0,1:2|0:0,0:0:0:0:
336,143,49824,1,10,0:2:0:0:
251,351,49971,1,10,0:2:0:0:
352,175,50118,6,0,P|401:152|447:142,1,72.7200017753907,0|2,1:2|0:0,0:0:0:0:
225,240,50412,2,0,P|176:217|130:207,1,72.7200017753907,2|0,1:2|0:0,0:0:0:0:
427,233,50706,1,8,0:2:0:0:
217,146,50853,1,8,0:2:0:0:
457,47,51000,1,8,0:2:0:0:
232,116,51147,5,8,0:2:0:0:
232,116,51221,1,8,0:0:0:0:
232,116,51294,2,0,P|179:104|126:102,1,72.7200017753907,4|0,1:2|0:0,0:0:0:0:
60,305,51588,1,8,0:2:0:0:
25,85,51735,1,8,0:2:0:0:
88,284,51882,6,0,P|108:214|116:191,1,72.7200017753907,2|0,1:2|0:0,0:0:0:0:
263,354,52177,1,10,0:2:0:0:
351,175,52324,1,10,0:2:0:0:
351,175,52397,1,8,0:0:0:0:
351,175,52471,2,0,P|341:139|331:105,1,72.7200017753907,4|2,1:2|0:0,0:0:0:0:
171,223,52765,5,10,0:2:0:0:
146,201,52838,1,8,0:2:0:0:
131,172,52912,1,8,0:2:0:0:
128,140,52985,1,8,0:2:0:0:
137,109,53059,2,0,P|169:75|209:60,1,72.7200017753907,4|0,1:2|0:0,0:0:0:0:
256,269,53353,2,0,P|224:303|184:318,1,72.7200017753907,2|8,1:2|0:2,0:0:0:0:
165,307,53574,1,8,0:2:0:0:
165,307,53647,5,6,1:2:0:0:
307,335,53794,1,2,0:0:0:0:
84,255,53941,1,10,0:2:0:0:
332,205,54088,1,8,0:2:0:0:
214,170,54235,2,0,P|187:117|181:78,1,72.7200017753907,0|0,1:2|0:0,0:0:0:0:
165,307,54530,1,0,1:2:0:0:
243,161,54677,1,10,0:2:0:0:
327,314,54824,6,0,P|398:297|419:295,1,72.7200017753907,2|8,1:2|0:2,0:0:0:0:
182,198,55118,2,0,P|217:204|252:214,1,72.7200017753907,2|8,1:2|0:2,0:0:0:0:
62,350,55412,2,0,P|97:343|132:333,1,72.7200017753907,2|8,1:2|0:2,0:0:0:0:
0,155,55706,2,0,P|34:144|70:138,1,72.7200017753907,2|10,1:2|0:2,0:0:0:0:
106,163,55927,1,8,0:2:0:0:
106,163,56000,5,4,1:2:0:0:
224,329,56147,1,10,0:2:0:0:
325,72,56294,1,0,1:2:0:0:
139,297,56441,1,8,0:2:0:0:
443,238,56588,1,4,1:2:0:0:
191,43,56735,1,8,0:2:0:0:
326,293,56882,2,0,L|316:359,1,36.3600008876953,0|8,1:2|0:2,0:0:0:0:
205,202,57030,2,0,L|210:237,1,36.3600008876953,10|8,0:2|0:2,0:0:0:0:
337,92,57177,6,0,P|400:68|485:115,2,145.440003550781,2|2|2,0:0|0:0|0:0,0:0:0:0:
337,92,58059,1,2,0:0:0:0:
38,155,58206,6,0,B|172:126|127:243|259:223,1,226.240002761719,6|0,1:2|1:2,0:0:0:0:
495,316,58647,2,0,P|419:285|268:305,1,226.240002761719,10|0,0:2|1:2,0:0:0:0:
128,365,59088,1,0,1:2:0:0:
286,164,59235,1,10,0:2:0:0:
286,164,59530,6,0,P|271:95|268:47,1,113.120001380859,2|0,1:2|1:2,0:0:0:0:
132,259,59824,2,0,P|147:190|150:142,1,113.120001380859,10|0,0:2|0:0,0:0:0:0:
367,287,60118,1,2,1:2:0:0:
384,175,60265,1,0,1:2:0:0:
237,335,60412,1,10,0:2:0:0:
196,80,60559,6,0,P|114:68|16:183,1,226.240002761719,6|0,1:2|1:2,0:0:0:0:
247,172,61000,2,0,B|366:139|343:258|479:244,1,226.240002761719,10|0,0:2|1:2,0:0:0:0:
290,251,61441,1,0,1:2:0:0:
440,156,61588,1,10,0:2:0:0:
324,86,61735,1,2,0:0:0:0:
457,254,61882,6,0,P|476:331|474:392,1,113.120001380859,2|0,1:2|1:2,0:0:0:0:
294,179,62177,2,0,P|275:256|277:317,1,113.120001380859,10|0,0:2|0:0,0:0:0:0:
104,92,62471,2,0,P|119:146|123:202,1,113.120001380859,2|0,1:2|1:2,0:0:0:0:
232,49,62765,1,10,0:2:0:0:
68,301,62912,6,0,P|151:230|270:268,1,226.240002761719,6|0,1:2|1:2,0:0:0:0:
388,359,63353,1,10,0:2:0:0:
388,359,63647,2,0,P|394:297|413:243,1,113.120001380859,2|0,1:2|1:2,0:0:0:0:
254,134,63941,2,0,P|271:187|276:243,1,113.120001380859,10|0,0:2|0:0,0:0:0:0:
400,109,64235,5,2,1:2:0:0:
422,218,64382,1,0,1:2:0:0:
309,45,64530,1,10,0:2:0:0:
309,45,64824,2,0,P|244:23|191:19,1,113.120001380859,2|0,1:2|1:2,0:0:0:0:
345,176,65118,1,10,0:2:0:0:
86,31,65265,6,0,B|57:173|145:101|110:288,1,226.240002761719,6|0,1:2|1:2,0:0:0:0:
232,108,65706,2,0,P|206:212|206:261,1,113.120001380859,10|0,0:2|0:0,0:0:0:0:
341,37,66000,2,0,P|359:90|367:146,1,113.120001380859,2|0,1:2|1:2,0:0:0:0:
491,28,66294,1,10,0:2:0:0:
491,28,66588,5,0,1:2:0:0:
380,124,66735,1,0,1:2:0:0:
231,37,66882,1,10,0:2:0:0:
130,120,67030,1,10,0:2:0:0:
130,120,67103,1,8,0:2:0:0:
130,120,67177,2,0,P|109:183|105:239,1,113.120001380859,2|8,1:2|0:2,0:0:0:0:
310,116,67471,1,10,0:2:0:0:
355,138,67544,1,8,0:2:0:0:
390,175,67618,1,8,3:0:0:0:
410,221,67691,1,4,3:0:0:0:
413,271,67765,5,4,1:2:0:0:
449,106,67912,1,8,0:2:0:0:
328,291,68059,2,0,P|265:263|208:256,1,113.120001380859,2|0,1:2|0:0,0:0:0:0:
26,354,68353,2,0,P|71:274|54:127,1,226.240002761719,10|0,0:2|1:2,0:0:0:0:
163,335,68794,1,8,0:2:0:0:
274,143,68941,5,0,1:2:0:0:
149,300,69088,1,8,0:2:0:0:
262,104,69235,2,0,P|310:62|382:50,1,113.120001380859,2|0,1:2|0:0,0:0:0:0:
75,55,69530,1,10,0:2:0:0:
75,55,69824,1,0,1:2:0:0:
348,183,69971,1,8,0:2:0:0:
129,140,70118,5,0,1:2:0:0:
356,49,70265,1,8,0:2:0:0:
119,163,70412,2,0,P|103:220|104:277,1,113.120001380859,2|0,1:2|0:0,0:0:0:0:
240,67,70706,2,0,P|256:124|255:181,1,113.120001380859,10|0,0:2|0:0,0:0:0:0:
374,34,71000,1,2,1:2:0:0:
394,306,71147,6,0,P|377:225|382:162,1,113.120001380859,10|0,0:2|1:2,0:0:0:0:
254,341,71441,1,10,0:2:0:0:
151,182,71588,2,0,P|136:127|134:71,1,113.120001380859,2|0,1:2|0:0,0:0:0:0:
85,287,71882,1,10,0:2:0:0:
259,129,72030,1,10,0:2:0:0:
259,129,72103,1,8,0:2:0:0:
259,129,72177,2,0,P|268:65|268:56,1,56.5600006904297,2|8,1:2|0:2,0:0:0:0:
372,221,72324,1,8,0:2:0:0:
372,221,72397,1,8,0:2:0:0:
372,221,72471,6,0,B|275:216|319:277|213:283,1,177.760005424805,4|0,1:2|0:0,0:0:0:0:
67,209,73794,1,0,3:0:0:0:
67,209,73868,1,0,3:0:0:0:
67,209,73941,2,0,P|78:254|82:310,2,84.8399974108887,0|2|2,3:0|0:0|0:0,0:0:0:0:
249,62,74677,6,0,P|344:36|430:118,1,206.040001257568,6|0,1:2|0:0,0:0:0:0:
216,313,75118,5,10,0:2:0:0:
326,121,75265,1,0,1:2:0:0:
405,366,75412,5,10,0:2:0:0:
250,172,75559,1,0,1:2:0:0:
131,379,75706,5,10,0:2:0:0:
330,231,75853,1,0,1:2:0:0:
117,170,76000,5,10,0:2:0:0:
316,318,76147,1,0,1:2:0:0:
30,299,76294,5,10,0:2:0:0:
229,151,76441,1,0,1:2:0:0:
36,45,76588,5,10,0:2:0:0:
145,281,76735,1,0,1:2:0:0:
153,31,76882,5,10,0:2:0:0:
44,267,77030,1,0,1:2:0:0:
130,18,77177,5,10,0:2:0:0:
239,254,77324,1,0,1:2:0:0:
373,52,77471,5,10,0:2:0:0:
127,166,77618,1,0,1:2:0:0:
336,340,77765,5,10,0:2:0:0:
348,50,77912,1,0,1:2:0:0:
102,164,78059,5,10,0:2:0:0:
351,358,78206,2,0,P|363:281|384:240,2,103.020000628784,2|8|0,1:2|0:2|1:2,0:0:0:0:
220,104,78647,5,10,0:2:0:0:
131,326,78794,1,0,1:2:0:0:
111,71,78941,5,10,0:2:0:0:
200,293,79088,1,0,1:2:0:0:
240,21,79235,5,10,0:2:0:0:
123,240,79382,1,0,1:2:0:0:
345,128,79530,5,10,0:2:0:0:
111,71,79677,1,0,1:2:0:0:
296,277,79824,5,10,0:2:0:0:
226,41,79971,1,0,1:2:0:0:
182,353,80118,5,10,0:2:0:0:
252,117,80265,1,0,1:2:0:0:
273,360,80412,5,10,0:2:0:0:
132,151,80559,1,0,1:2:0:0:
370,230,80706,5,10,0:2:0:0:
131,281,80853,1,0,1:2:0:0:
404,211,81000,5,10,0:2:0:0:
165,160,81147,1,2,1:2:0:0:
439,194,81294,5,10,0:2:0:0:
200,245,81441,1,2,1:2:0:0:
469,183,81588,5,10,0:2:0:0:
242,134,81735,1,8,0:2:0:0:
242,134,81809,1,8,0:2:0:0:
242,134,81882,5,14,0:2:0:0:
359,354,82030,1,2,1:2:0:0:
384,84,82177,1,10,0:2:0:0:
176,282,82324,1,2,1:2:0:0:
474,220,82471,1,10,0:2:0:0:
218,303,82618,1,2,1:2:0:0:
300,34,82765,5,14,0:2:0:0:
372,314,82912,1,2,1:2:0:0:
218,89,83059,1,10,0:2:0:0:
148,347,83206,1,2,1:2:0:0:
259,107,83353,1,10,0:2:0:0:
397,326,83500,1,8,0:2:0:0:
397,326,83574,1,8,0:2:0:0:
397,326,83647,5,14,0:2:0:0:
202,250,83794,1,2,1:2:0:0:
420,173,83941,1,10,0:2:0:0:
166,325,84088,1,2,1:2:0:0:
413,221,84235,1,10,0:2:0:0:
216,216,84382,1,2,1:2:0:0:
428,129,84530,6,0,P|454:70|464:29,1,103.020000628784,14|0,0:2|1:2,0:0:0:0:
233,177,84824,2,0,P|207:118|197:77,1,103.020000628784,10|0,0:2|1:2,0:0:0:0:
6,264,85118,2,0,P|32:205|42:164,1,103.020000628784,10|0,0:2|1:2,0:0:0:0:
211,320,85412,5,14,0:2:0:0:
117,124,85559,1,0,1:2:0:0:
167,344,85706,1,10,0:2:0:0:
249,136,85853,1,2,1:2:0:0:
389,339,86000,1,10,0:2:0:0:
442,122,86147,1,2,1:2:0:0:
231,232,86294,5,14,0:2:0:0:
406,298,86441,1,2,1:2:0:0:
203,261,86588,1,10,0:2:0:0:
383,188,86735,1,2,1:2:0:0:
136,130,86882,1,10,0:2:0:0:
359,54,87030,1,8,0:2:0:0:
359,54,87103,1,8,0:2:0:0:
359,54,87177,5,14,0:2:0:0:
229,301,87324,1,2,1:2:0:0:
200,45,87471,5,10,0:2:0:0:
419,316,87618,1,2,1:2:0:0:
440,26,87765,5,10,0:2:0:0:
174,361,87912,1,2,1:2:0:0:
63,18,88059,5,14,0:2:0:0:
363,381,88206,1,2,1:2:0:0:
302,9,88353,6,0,P|282:72|279:89,1,51.5100003143921,10|0,0:2|0:0,0:0:0:0:
200,233,88500,2,0,P|192:208|183:184,1,51.5100003143921,0|8,3:0|3:0,0:0:0:0:
360,117,88647,1,12,0:0:0:0:
76,344,88941,5,8,0:0:0:0:
395,263,89088,2,0,B|297:251|328:320|224:320,1,177.760005424805,4|0,1:2|0:0,0:0:0:0:
85,259,90411,6,0,P|140:230|209:216,1,133.320004068604,4|0,1:2|0:0,0:0:0:0:
393,194,91440,6,0,P|385:145|276:122,1,177.760005424805,4|0,1:2|0:0,0:0:0:0:
152,207,92763,6,0,P|63:212|29:186,1,133.320004068604,4|8,1:2|0:0,0:0:0:0:
284,299,93792,1,4,1:2:0:0:
284,299,94233,6,0,P|275:261|276:240,1,42.4199987054444,0|0,1:0|0:0,0:0:0:0:
314,191,94527,2,0,P|320:170|323:149,1,42.4199987054444,0|0,1:0|0:0,0:0:0:0:
272,91,94821,2,0,P|265:70|262:49,1,42.4199987054444,0|0,1:0|0:0,0:0:0:0:
166,213,95115,1,4,1:2:0:0:
166,213,95411,6,0,P|128:197|110:194,1,42.4199987054444,0|0,1:0|0:0,0:0:0:0:
72,138,95705,2,0,P|110:122|128:119,1,42.4199987054444,0|0,1:0|0:0,0:0:0:0:
190,130,95999,1,0,1:0:0:0:
131,342,96146,1,8,0:0:0:0:
268,257,96293,1,4,1:2:0:0:
268,257,96587,6,0,P|299:266|317:269,1,42.4199987054444,0|0,1:0|0:0,0:0:0:0:
373,205,96881,2,0,P|393:200|413:194,1,42.4199987054444,0|0,1:0|0:0,0:0:0:0:
435,120,97175,2,0,P|446:102|456:83,1,42.4199987054444,0|0,1:0|0:0,0:0:0:0:
416,314,97469,1,4,1:2:0:0:
416,314,97764,6,0,P|426:345|429:364,1,42.4199987054444,0|0,1:0|0:0,0:0:0:0:
315,144,98058,1,8,0:0:0:0:
274,343,98205,1,8,0:0:0:0:
209,136,98352,1,8,0:0:0:0:
168,335,98499,1,8,0:0:0:0:
99,127,98646,6,0,P|111:167|116:213,1,62.6199975156861,0|0,1:0|0:0,0:0:0:0:
211,57,98940,2,0,P|199:97|194:143,1,62.6199975156861,0|0,1:0|0:0,0:0:0:0:
406,41,99234,1,8,0:0:0:0:
342,103,99381,2,0,P|354:143|359:189,2,62.6199975156861,0|0|0,0:0|1:0|0:0,0:0:0:0:
432,273,99822,6,0,B|366:260|385:309|309:313,1,125.239995031372,0|0,1:0|1:0,0:0:0:0:
235,214,100263,2,0,P|277:220|302:232,1,62.6199975156861,0|8,0:0|0:0,0:0:0:0:
173,320,100557,2,0,P|215:314|240:302,1,62.6199975156861,0|0,0:0|1:0,0:0:0:0:
146,232,100851,1,0,0:0:0:0:
50,361,100998,6,0,P|35:304|38:222,1,125.239995031372,0|0,1:0|1:0,0:0:0:0:
79,164,101440,1,0,0:0:0:0:
21,20,101587,1,8,0:0:0:0:
89,70,101734,2,0,P|137:54|163:52,2,62.6199975156861,0|0|0,0:0|1:0|0:0,0:0:0:0:
254,180,102175,6,0,P|242:124|254:52,1,125.239995031372,0|0,1:0|1:0,0:0:0:0:
322,5,102616,1,0,0:0:0:0:
452,149,102763,1,8,0:0:0:0:
377,99,102910,2,0,P|365:140|363:189,1,62.6199975156861,0|0,0:0|1:0,0:0:0:0:
423,234,103204,1,0,0:0:0:0:
274,337,103351,6,0,B|201:331|224:371|143:371,1,125.239995031372,0|0,1:0|1:0,0:0:0:0:
56,283,103793,2,0,P|74:321|83:350,1,62.6199975156861,0|8,0:0|0:0,0:0:0:0:
177,215,104087,2,0,P|160:272|161:296,2,62.6199975156861,0|0|0,0:0|1:0|0:0,0:0:0:0:
373,347,104528,6,0,P|384:285|382:208,1,125.239995031372,0|0,1:0|1:0,0:0:0:0:
344,134,104969,1,0,0:0:0:0:
244,29,105116,2,0,P|243:91|254:153,1,125.239995031372,8|0,0:0|1:0,0:0:0:0:
162,114,105557,1,0,0:0:0:0:
162,114,105631,1,0,0:0:0:0:
162,114,105704,6,0,P|122:102|91:100,1,62.6199975156861,0|0,1:0|0:0,0:0:0:0:
1,203,105998,2,0,P|41:191|72:189,1,62.6199975156861,0|0,1:0|0:0,0:0:0:0:
189,233,106293,2,0,B|119:237|141:277|56:285,1,125.239995031372,8|0,0:0|1:0,0:0:0:0:
74,190,106734,1,0,0:0:0:0:
232,318,106881,6,0,P|269:301|372:288,1,125.239995031372,0|0,1:0|1:0,0:0:0:0:
471,79,107469,1,8,0:0:0:0:
402,153,107616,1,0,0:0:0:0:
402,153,107690,1,0,0:0:0:0:
402,153,107763,2,0,P|360:139|331:137,1,62.6199975156861,0|0,1:0|0:0,0:0:0:0:
60,170,108057,5,12,0:0:0:0:
291,72,108204,1,8,0:0:0:0:
76,139,108351,1,0,1:0:0:0:
76,139,108646,1,0,1:0:0:0:
295,208,108793,5,8,0:0:0:0:
84,273,108940,1,8,0:0:0:0:
302,180,109087,1,8,0:0:0:0:
188,355,109234,1,0,1:0:0:0:
188,355,109528,1,0,1:0:0:0:
208,112,109675,5,8,0:0:0:0:
265,313,109822,1,8,0:0:0:0:
236,77,109969,1,8,0:0:0:0:
169,316,110116,1,0,1:0:0:0:
130,80,110263,1,8,0:0:0:0:
130,80,110337,1,8,0:0:0:0:
130,80,110410,1,4,1:2:0:0:
130,80,110704,5,8,0:0:0:0:
314,147,110851,1,8,0:0:0:0:
91,214,110998,1,0,1:0:0:0:
91,214,111293,5,8,0:0:0:0:
314,281,111440,1,8,0:0:0:0:
130,348,111587,1,4,1:2:0:0:
130,348,111881,2,0,L|116:273,3,50.5,8|8|8|8,0:0|0:0|0:0|0:0,0:0:0:0:
255,335,112175,6,0,P|268:265|270:224,1,101,4|0,1:2|0:0,0:0:0:0:
181,205,112469,2,0,L|191:152,3,50.5,8|8|8|8,0:0|0:0|0:0|0:0,0:0:0:0:
312,145,112763,1,4,1:2:0:0:
312,145,113057,5,8,0:0:0:0:
134,86,113204,1,8,0:0:0:0:
358,38,113351,1,0,1:0:0:0:
358,38,113646,1,0,1:0:0:0:
192,193,113793,1,8,0:0:0:0:
436,161,113940,5,0,1:0:0:0:
228,97,114087,1,8,0:0:0:0:
340,204,114234,1,0,1:0:0:0:
112,270,114381,1,8,0:0:0:0:
231,188,114528,1,0,1:0:0:0:
37,95,114675,1,8,0:0:0:0:
183,69,114822,1,0,1:0:0:0:
34,229,114969,5,8,0:0:0:0:
34,229,115043,1,0,0:0:0:0:
34,229,115116,1,4,1:2:0:0:
148,48,115263,1,8,0:0:0:0:
211,267,115410,1,0,1:0:0:0:
320,33,115557,1,8,0:0:0:0:
396,308,115704,1,0,1:0:0:0:
482,43,115851,6,0,P|463:98|463:106,1,46.4599984403687,8|0,0:0|0:0,0:0:0:0:
328,239,115998,2,0,P|321:216|310:196,1,46.4599984403687,8|8,0:0|0:0,0:0:0:0:
133,63,116146,2,0,P|121:83|115:105,1,46.4599984403687,8|8,0:0|0:0,0:0:0:0:
58,262,116293,5,2,0:0:0:0:
138,218,116587,5,2,0:0:0:0:
274,307,116881,5,2,0:0:0:0:
448,262,117175,5,2,0:0:0:0:
164,197,117322,6,0,B|303:172|248:283|387:271,1,226.240002761719,6|0,1:2|1:2,0:0:0:0:
499,72,117763,2,0,P|441:33|346:146,1,226.240002761719,10|0,0:2|1:2,0:0:0:0:
394,258,118204,1,0,1:2:0:0:
235,121,118351,1,10,0:2:0:0:
235,121,118646,5,2,1:2:0:0:
172,252,118793,1,0,1:2:0:0:
147,51,118940,2,0,P|193:140|203:185,1,113.120001380859,10|0,0:2|0:0,0:0:0:0:
315,287,119234,1,2,1:2:0:0:
252,156,119381,1,0,1:2:0:0:
150,337,119528,1,10,0:2:0:0:
423,285,119675,6,0,P|318:252|181:239,1,226.240002761719,6|0,1:2|1:2,0:0:0:0:
37,76,120116,2,0,B|167:42|124:164|256:164,1,226.240002761719,10|0,0:2|1:2,0:0:0:0:
351,102,120557,1,0,1:2:0:0:
230,243,120704,1,10,0:2:0:0:
229,72,120851,1,2,0:0:0:0:
260,264,120998,6,0,P|272:337|275:376,1,113.120001380859,2|0,1:2|1:2,0:0:0:0:
148,180,121293,2,0,P|138:235|133:291,1,113.120001380859,10|0,0:2|0:0,0:0:0:0:
21,87,121587,2,0,P|30:142|35:198,1,113.120001380859,2|0,1:2|1:2,0:0:0:0:
128,62,121881,1,10,0:2:0:0:
241,241,122028,6,0,P|298:176|434:175,1,226.240002761719,6|0,1:2|1:2,0:0:0:0:
301,338,122469,1,10,0:2:0:0:
301,338,122763,2,0,P|212:315|170:312,1,113.120001380859,2|0,1:2|1:2,0:0:0:0:
52,190,123057,2,0,P|141:167|183:164,1,113.120001380859,10|0,0:2|0:0,0:0:0:0:
374,105,123351,5,2,1:2:0:0:
247,61,123498,1,0,1:2:0:0:
408,194,123646,2,0,P|439:268|444:318,1,113.120001380859,10|0,0:2|0:0,0:0:0:0:
287,119,123940,2,0,P|201:86|147:91,1,113.120001380859,2|0,1:2|1:2,0:0:0:0:
314,211,124234,1,10,0:2:0:0:
58,215,124381,2,0,P|144:182|198:187,1,113.120001380859,6|0,1:2|0:0,0:0:0:0:
310,312,124675,5,2,1:2:0:0:
264,141,124822,1,10,0:2:0:0:
205,276,124969,1,2,0:0:0:0:
349,108,125116,1,2,1:2:0:0:
413,251,125263,1,2,1:2:0:0:
246,108,125410,1,10,0:2:0:0:
188,244,125557,1,2,0:0:0:0:
374,86,125704,6,0,P|434:56|483:51,1,113.120001380859,2|0,1:2|1:2,0:0:0:0:
234,139,125998,1,8,0:2:0:0:
408,214,126146,1,8,0:2:0:0:
408,214,126219,1,8,0:2:0:0:
408,214,126293,1,0,1:2:0:0:
174,275,126440,1,8,0:0:0:0:
174,275,126513,1,8,0:0:0:0:
174,275,126587,2,0,P|109:258|88:254,1,56.5600006904297,8|8,0:0|0:0,0:0:0:0:
367,297,126734,6,0,B|243:272|272:375|139:379,1,226.240002761719,6|0,1:2|1:2,0:0:0:0:
45,139,127175,2,0,P|160:171|193:280,1,226.240002761719,10|0,0:2|1:2,0:0:0:0:
123,363,127616,1,0,1:2:0:0:
291,252,127763,1,10,0:2:0:0:
121,227,127910,1,0,0:0:0:0:
291,252,128057,6,0,P|300:178|291:123,1,113.120001380859,2|0,1:2|1:2,0:0:0:0:
166,296,128351,2,0,P|157:222|166:167,1,113.120001380859,10|0,0:2|0:0,0:0:0:0:
373,321,128646,2,0,P|382:247|373:192,1,113.120001380859,2|0,1:2|1:2,0:0:0:0:
260,347,128940,1,10,0:2:0:0:
200,106,129087,6,0,P|125:95|27:210,1,226.240002761719,6|0,1:2|1:2,0:0:0:0:
251,192,129528,2,0,B|364:154|355:274|482:256,1,226.240002761719,10|0,0:2|1:2,0:0:0:0:
334,306,129969,1,0,1:2:0:0:
437,166,130116,1,10,0:2:0:0:
326,109,130263,1,2,0:0:0:0:
445,271,130410,6,0,P|477:336|482:387,1,113.120001380859,2|0,1:2|1:2,0:0:0:0:
339,212,130704,2,0,P|307:277|302:328,1,113.120001380859,10|0,0:2|0:0,0:0:0:0:
163,130,130998,2,0,P|195:195|200:246,1,113.120001380859,2|0,1:2|1:2,0:0:0:0:
288,72,131293,1,10,0:2:0:0:
97,270,131440,6,0,P|216:260|290:365,1,226.240002761719,6|0,1:2|1:2,0:0:0:0:
150,158,131881,1,10,0:2:0:0:
150,158,132175,2,0,P|129:85|133:27,1,113.120001380859,2|0,1:2|1:2,0:0:0:0:
293,194,132469,2,0,P|290:250|272:303,1,113.120001380859,10|0,0:2|0:0,0:0:0:0:
243,105,132763,5,2,1:2:0:0:
377,140,132910,1,0,1:2:0:0:
194,237,133057,1,10,0:2:0:0:
194,237,133351,2,0,P|114:208|72:207,1,113.120001380859,2|0,1:2|1:2,0:0:0:0:
222,359,133646,1,10,0:2:0:0:
280,154,133793,6,0,P|330:61|454:36,1,226.240002761719,6|0,1:2|1:2,0:0:0:0:
225,71,134234,2,0,P|145:44|90:39,1,113.120001380859,10|0,0:2|0:0,0:0:0:0:
368,148,134528,2,0,P|448:121|503:116,1,113.120001380859,2|0,1:2|1:2,0:0:0:0:
237,238,134822,1,10,0:2:0:0:
237,238,135116,5,0,1:2:0:0:
295,353,135263,1,0,1:2:0:0:
260,157,135410,1,10,0:2:0:0:
164,316,135557,1,10,0:2:0:0:
164,316,135631,1,8,0:2:0:0:
164,316,135704,2,0,P|77:290|35:284,1,113.120001380859,2|8,1:2|0:2,0:0:0:0:
301,244,135998,1,10,0:2:0:0:
337,209,136072,1,8,0:2:0:0:
356,162,136146,1,8,3:0:0:0:
353,112,136219,1,4,3:0:0:0:
329,68,136293,5,4,1:2:0:0:
416,240,136440,1,8,0:2:0:0:
268,133,136587,2,0,P|194:117|138:111,1,113.120001380859,2|0,1:2|0:0,0:0:0:0:
0,257,136881,2,0,B|119:236|83:346|235:354,1,226.240002761719,10|0,0:2|1:2,0:0:0:0:
317,205,137322,1,8,0:2:0:0:
225,338,137469,5,0,1:2:0:0:
285,128,137616,1,8,0:2:0:0:
254,329,137763,2,0,P|235:256|232:207,1,113.120001380859,2|0,1:2|0:0,0:0:0:0:
397,43,138057,1,10,0:2:0:0:
397,43,138351,1,0,1:2:0:0:
189,124,138498,1,8,0:2:0:0:
379,79,138646,5,0,1:2:0:0:
154,42,138793,1,8,0:2:0:0:
359,112,138940,2,0,P|376:189|383:243,1,113.120001380859,2|0,1:2|0:0,0:0:0:0:
221,103,139234,2,0,P|207:158|199:213,1,113.120001380859,10|0,0:2|0:0,0:0:0:0:
121,58,139528,1,2,1:2:0:0:
71,272,139675,6,0,P|62:216|49:161,1,113.120001380859,10|0,0:2|1:2,0:0:0:0:
176,321,139969,1,10,0:2:0:0:
243,99,140116,2,0,P|229:154|221:209,1,113.120001380859,2|0,1:2|0:0,0:0:0:0:
349,350,140410,1,10,0:2:0:0:
353,153,140557,1,8,0:0:0:0:
353,153,140631,1,8,0:0:0:0:
353,153,140704,2,0,P|332:223|332:242,1,56.5600006904297,0|8,1:0|0:0,0:0:0:0:
376,338,140851,1,8,0:0:0:0:
376,338,140925,1,8,0:0:0:0:
374,336,140998,6,0,B|275:312|302:375|196:358,1,177.760005424805,4|0,1:0|0:0,0:0:0:0:
378,239,142322,1,8,0:0:0:0:
240,176,142469,1,10,3:0:0:0:
377,193,142616,1,8,3:0:0:0:
156,253,142763,2,0,P|107:238|60:235,1,82.8200012637329,10|0,0:0|1:0,0:0:0:0:
272,163,143057,1,10,0:0:0:0:
21,93,143204,6,0,B|133:77|87:143|196:148,1,185.839993761475,4|0,1:2|0:0,0:0:0:0:
300,50,143646,2,0,P|249:54|196:78,1,92.9199968807374,2|0,1:2|0:0,0:0:0:0:
395,197,143940,2,0,P|344:193|291:169,1,92.9199968807374,10|0,0:2|0:0,0:0:0:0:
497,116,144234,2,0,P|453:99|407:96,1,92.9199968807374,0|0,1:2|0:0,0:0:0:0:
213,226,144528,6,0,P|334:234|379:307,1,185.839993761475,0|2,1:2|1:2,0:0:0:0:
389,365,144969,1,0,0:0:0:0:
196,331,145116,2,0,P|278:304|302:304,1,92.9199968807374,10|0,0:2|0:0,0:0:0:0:
105,213,145410,2,0,P|150:220|192:240,1,92.9199968807374,0|0,1:2|0:0,0:0:0:0:
259,33,145704,6,0,P|302:168|299:244,1,185.839993761475,0|2,1:2|1:2,0:0:0:0:
279,318,146146,1,2,0:0:0:0:
394,184,146293,1,10,0:2:0:0:
394,184,146587,1,2,1:2:0:0:
212,230,146734,2,0,P|155:208|101:206,1,92.9199968807374,2|0,0:0|1:2,0:0:0:0:
271,144,147028,1,2,0:0:0:0:
133,83,147175,1,2,1:2:0:0:
233,50,147322,1,2,0:0:0:0:
109,213,147469,2,0,P|91:270|92:318,1,92.9199968807374,10|0,0:2|0:0,0:0:0:0:
257,157,147763,2,0,P|275:214|274:262,1,92.9199968807374,2|0,1:2|0:0,0:0:0:0:
407,99,148057,6,0,B|396:185|430:146|423:236,1,133.320004068604,4|0,1:2|0:0,0:0:0:0:
104,68,149234,5,8,0:0:0:0:
282,142,149381,1,8,3:0:0:0:
160,174,149528,1,0,1:0:0:0:
206,86,149675,1,0,1:0:0:0:
307,306,149822,1,8,0:0:0:0:
395,110,149969,1,8,0:0:0:0:
395,110,150263,6,0,B|251:108|310:199|157:197,1,226.240002761719,6|0,1:2|1:2,0:0:0:0:
397,205,150704,5,10,0:2:0:0:
191,101,150851,1,0,1:2:0:0:
498,149,150998,5,10,0:2:0:0:
292,253,151146,1,0,1:2:0:0:
350,30,151293,5,14,0:2:0:0:
428,288,151440,1,0,1:2:0:0:
256,21,151587,5,10,0:2:0:0:
178,279,151734,1,0,1:2:0:0:
166,15,151881,6,0,L|139:80,1,56.5600006904297,10|8,0:2|0:0,0:0:0:0:
292,253,152028,2,0,L|270:200,1,56.5600006904297,0|8,1:2|0:0,0:0:0:0:
378,32,152175,5,14,0:2:0:0:
152,105,152322,1,0,1:2:0:0:
379,205,152469,5,10,0:2:0:0:
97,194,152616,1,0,1:2:0:0:
364,301,152763,5,10,0:2:0:0:
240,72,152910,1,0,1:2:0:0:
267,350,153057,5,14,0:2:0:0:
391,121,153204,1,0,1:2:0:0:
127,282,153351,5,10,0:2:0:0:
408,215,153498,1,0,1:2:0:0:
203,58,153646,5,10,0:2:0:0:
279,308,153793,1,0,1:2:0:0:
382,79,153940,5,14,0:2:0:0:
147,197,154087,1,0,1:2:0:0:
425,236,154234,5,10,0:2:0:0:
191,97,154381,1,0,1:2:0:0:
457,33,154528,5,10,0:2:0:0:
243,212,154675,1,0,1:2:0:0:
500,312,154822,5,14,0:2:0:0:
359,120,154969,1,0,1:2:0:0:
234,336,155116,5,10,0:2:0:0:
335,91,155263,1,0,1:2:0:0:
348,353,155410,6,0,L|320:289,1,56.5600006904297,10|8,0:2|0:0,0:0:0:0:
233,94,155557,2,0,L|210:145,1,56.5600006904297,0|8,1:2|0:0,0:0:0:0:
122,333,155704,5,14,0:2:0:0:
311,210,155851,1,0,1:2:0:0:
82,100,155998,5,10,0:2:0:0:
223,310,156146,1,0,1:2:0:0:
226,70,156293,5,10,0:2:0:0:
65,244,156440,1,0,1:2:0:0:
332,180,156587,5,14,0:2:0:0:
87,67,156734,1,0,1:2:0:0:
220,335,156881,5,10,0:2:0:0:
260,49,157028,1,0,1:2:0:0:
29,245,157175,5,10,0:2:0:0:
363,194,157322,1,0,1:2:0:0:
56,68,157469,5,10,0:2:0:0:
251,300,157616,1,6,1:2:0:0:
251,300,157910,5,2,0:0:0:0:
197,234,158057,2,0,P|191:209|189:178,1,42.4199987054444,2|0,0:0|0:0,0:0:0:0:
267,171,158351,2,0,P|272:150|274:129,1,42.4199987054444,2|0,0:0|0:0,0:0:0:0:
375,264,158646,1,2,0:0:0:0:
392,154,158793,2,0,P|374:213|371:255,1,84.8399974108887,2|2,0:0|0:0,0:0:0:0:
273,187,159234,2,0,P|288:234|288:245,1,42.4199987054444,2|0,0:0|0:0,0:0:0:0:
191,149,159528,2,0,P|176:196|176:207,1,42.4199987054444,2|0,0:0|0:0,0:0:0:0:
202,277,159822,1,2,0:0:0:0:
85,278,159969,6,0,P|139:266|185:266,1,84.8399974108887,2|2,0:0|0:0,0:0:0:0:
286,303,160410,2,0,P|258:293|234:292,1,42.4199987054444,2|0,0:0|0:0,0:0:0:0:
326,208,160704,2,0,P|305:211|285:219,1,42.4199987054444,2|0,0:0|0:0,0:0:0:0:
490,290,160998,5,10,0:0:0:0:
210,188,161146,1,2,1:2:0:0:
