osu file format v14

[General]
AudioFilename: audio.mp3
AudioLeadIn: 0
PreviewTime: 56900
Countdown: 0
SampleSet: Soft
StackLeniency: 0.5
Mode: 0
LetterboxInBreaks: 0
WidescreenStoryboard: 1

[Editor]
Bookmarks: 179766
DistanceSpacing: 1.4
BeatDivisor: 4
GridSize: 8
TimelineZoom: 2.799999

[Metadata]
Title:Sora ni Utaeba
TitleUnicode:空に歌えば
Artist:amazarashi
ArtistUnicode:amazarashi
Creator:Sajinn
Version:Hard
Source:僕のヒーローアカデミア
Tags:addy2607 sotarks guanineso boku no hero academia op opening 3 full version my japanese anime rock pop j-rock jrock j-pop jpop Chihoutoshi No mementomori
BeatmapID:2706388
BeatmapSetID:1305320

[Difficulty]
HPDrainRate:4.5
CircleSize:3.4
OverallDifficulty:7
ApproachRate:8
SliderMultiplier:1.32
SliderTickRate:1

[Events]
//Background and Video events
0,0,"cropped-1920-1200-937830.jpg",0,0
//Break Periods
//Storyboard Layer 0 (Background)
//Storyboard Layer 1 (Fail)
//Storyboard Layer 2 (Pass)
//Storyboard Layer 3 (Foreground)
//Storyboard Layer 4 (Overlay)
//Storyboard Sound Samples

[TimingPoints]
650,294.117647058824,4,2,22,52,1,0
1679,-192.307692307692,4,2,22,52,0,0
2929,-238.095238095238,4,2,22,5,0,0
3002,-192.307692307692,4,2,22,52,0,0
3958,-238.095238095238,4,2,22,5,0,0
4032,-192.307692307692,4,2,22,52,0,0
5282,-238.095238095238,4,2,22,5,0,0
5355,-192.307692307692,4,2,22,52,0,0
6164,-238.095238095238,4,2,22,5,0,0
6238,-192.307692307692,4,2,22,52,0,0
6752,-238.095238095238,4,2,22,5,0,0
6826,-138.888888888889,4,2,22,52,0,0
9400,-238.095238095238,4,2,22,5,0,0
9473,-138.888888888889,4,2,22,52,0,0
9694,-238.095238095238,4,2,22,5,0,0
9767,-138.888888888889,4,2,22,52,0,0
9988,-238.095238095238,4,2,22,5,0,0
10061,-138.888888888889,4,2,22,52,0,0
11752,-138.888888888889,4,2,22,5,0,0
11825,-138.888888888889,4,2,22,52,0,0
12929,-238.095238095238,4,2,22,5,0,0
13002,-138.888888888889,4,2,22,52,0,0
14400,-238.095238095238,4,2,22,5,0,0
14473,-138.888888888889,4,2,22,52,0,0
15944,-121.951219512195,4,2,22,52,0,0
18150,-98.0392156862745,4,2,22,62,0,0
27561,-98.0392156862745,4,2,22,52,0,0
28297,-138.888888888889,4,2,22,52,0,0
29620,-312.5,4,2,22,52,0,0
29841,-238.095238095238,4,2,22,5,0,0
29914,-121.951219512195,4,2,22,52,0,0
48885,-138.888888888889,4,2,22,52,0,0
54767,-108.695652173913,4,2,22,52,0,0
58150,-89.2857142857144,4,2,22,72,0,1
59326,-89.2857142857144,4,2,22,72,0,1
59400,-238.095238095238,4,2,22,5,0,1
59473,-89.2857142857144,4,2,22,72,0,1
62047,-238.095238095238,4,2,22,5,0,1
62120,-89.2857142857144,4,2,22,72,0,1
62341,-238.095238095238,4,2,22,5,0,1
62414,-89.2857142857144,4,2,22,72,0,1
63444,-89.2857142857144,4,2,22,72,0,1
63591,-89.2857142857144,4,2,22,72,0,1
64620,-89.2857142857144,4,2,22,72,0,1
64767,-89.2857142857144,4,2,22,72,0,1
65870,-238.095238095238,4,2,22,5,0,1
65944,-89.2857142857144,4,2,22,72,0,1
66385,-89.2857142857144,4,2,22,72,0,1
66532,-89.2857142857144,4,2,22,72,0,1
68223,-238.095238095238,4,2,22,5,0,1
68297,-89.2857142857144,4,2,22,72,0,1
69400,-238.095238095238,4,2,22,5,0,0
69473,-89.2857142857144,4,2,22,72,0,1
70576,-238.095238095238,4,2,22,5,0,1
70650,-89.2857142857144,4,2,22,72,0,1
70870,-238.095238095238,4,2,22,5,0,1
70944,-89.2857142857144,4,2,22,72,0,1
71752,-238.095238095238,4,2,22,5,0,1
71826,-89.2857142857144,4,2,22,72,0,1
72414,-238.095238095238,4,2,22,52,0,0
74620,-98.0392156862745,4,2,22,62,0,0
75576,-238.095238095238,4,2,22,5,0,0
75650,-98.0392156862745,4,2,22,62,0,0
79767,-89.2857142857143,4,2,22,62,0,0
79988,-238.095238095238,4,2,22,5,0,0
80061,-89.2857142857143,4,2,22,62,0,0
80282,-238.095238095238,4,2,22,5,0,0
80355,-89.2857142857143,4,2,22,62,0,0
80576,-238.095238095238,4,2,22,5,0,0
80650,-89.2857142857143,4,2,22,62,0,0
80870,-238.095238095238,4,2,22,5,0,0
80944,-89.2857142857143,4,2,22,62,0,0
81164,-238.095238095238,4,2,22,5,0,0
81238,-89.2857142857143,4,2,22,62,0,0
81458,-238.095238095238,4,2,22,5,0,0
81532,-89.2857142857143,4,2,22,62,0,0
81679,-98.0392156862745,4,2,22,62,0,0
82120,-89.2857142857143,4,2,22,62,0,0
82341,-238.095238095238,4,2,22,5,0,0
82414,-89.2857142857143,4,2,22,62,0,0
82635,-238.095238095238,4,2,22,5,0,0
82708,-89.2857142857143,4,2,22,62,0,0
82929,-238.095238095238,4,2,22,5,0,0
83002,-89.2857142857143,4,2,22,62,0,0
83223,-89.2857142857143,4,2,22,5,0,0
83297,-89.2857142857143,4,2,22,62,0,0
84032,-121.951219512195,4,2,22,52,0,0
103002,-138.888888888889,4,2,22,52,0,0
108885,-108.695652173913,4,2,22,52,0,0
112267,-89.2857142857142,4,2,22,72,0,1
113444,-89.2857142857142,4,2,22,72,0,1
113517,-238.095238095238,4,2,22,5,0,1
113591,-89.2857142857142,4,2,22,72,0,1
116164,-238.095238095238,4,2,22,5,0,1
116238,-89.2857142857142,4,2,22,72,0,1
116458,-238.095238095238,4,2,22,5,0,1
116532,-89.2857142857142,4,2,22,72,0,1
117562,-89.2857142857142,4,2,22,72,0,1
117709,-89.2857142857142,4,2,22,72,0,1
118738,-89.2857142857142,4,2,22,72,0,1
118885,-89.2857142857142,4,2,22,72,0,1
119988,-238.095238095238,4,2,22,5,0,1
120061,-89.2857142857142,4,2,22,72,0,1
120503,-89.2857142857142,4,2,22,72,0,1
120650,-89.2857142857142,4,2,22,72,0,1
122341,-238.095238095238,4,2,22,5,0,1
122414,-89.2857142857142,4,2,22,72,0,1
123517,-238.095238095238,4,2,22,5,0,1
123591,-89.2857142857142,4,2,22,72,0,1
124988,-238.095238095238,4,2,22,5,0,1
125061,-89.2857142857142,4,2,22,72,0,1
126532,-238.095238095238,4,2,22,52,0,0
128738,-89.2857142857143,4,2,22,72,0,1
129400,-238.095238095238,4,2,22,5,0,1
129473,-89.2857142857143,4,2,22,72,0,1
131458,-238.095238095238,4,2,22,5,0,1
131532,-89.2857142857143,4,2,22,72,0,1
132635,-238.095238095238,4,2,22,5,0,1
132708,-89.2857142857143,4,2,22,72,0,1
134988,-238.095238095238,4,2,22,5,0,1
135061,-138.888888888889,4,2,22,72,0,1
135135,-238.095238095238,4,2,22,5,0,1
135208,-121.951219512195,4,2,22,72,0,1
135282,-238.095238095238,4,2,22,5,0,1
135355,-108.695652173913,4,2,22,72,0,1
135429,-238.095238095238,4,2,22,5,0,1
135502,-98.0392156862745,4,2,22,72,0,1
135576,-238.095238095238,4,2,22,5,0,1
135650,-89.2857142857143,4,2,22,72,0,1
135723,-238.095238095238,4,2,22,5,0,1
135797,-238.095238095238,4,2,22,72,0,1
135944,-89.2857142857143,4,2,22,72,0,1
138811,-238.095238095238,4,2,22,5,0,1
138885,-89.2857142857143,4,2,22,72,0,1
139105,-238.095238095238,4,2,22,5,0,1
139179,-89.2857142857143,4,2,22,72,0,1
139400,-238.095238095238,4,2,22,5,0,1
139473,-89.2857142857143,4,2,22,72,0,1
141458,-238.095238095238,4,2,22,5,0,1
141532,-89.2857142857143,4,2,22,72,0,1
142341,-238.095238095238,4,2,22,5,0,0
142414,-81.9672131147541,4,2,22,72,0,1
142708,-238.095238095238,4,2,22,72,0,1
142929,-238.095238095238,4,2,22,5,0,1
143002,-81.9672131147541,4,2,22,72,0,1
143150,-238.095238095238,4,2,22,52,0,0
144400,-238.095238095238,4,2,22,5,0,0
144473,-238.095238095238,4,2,22,52,0,0
145429,-238.095238095238,4,2,22,5,0,0
145502,-238.095238095238,4,2,22,52,0,0
146752,-238.095238095238,4,2,22,5,0,0
146826,-238.095238095238,4,2,22,52,0,0
147635,-238.095238095238,4,2,22,5,0,0
147708,-238.095238095238,4,2,22,52,0,0
148223,-238.095238095238,4,2,22,5,0,0
148297,-138.888888888889,4,2,22,52,0,0
151458,-138.888888888889,4,2,22,5,0,0
151532,-138.888888888889,4,2,22,52,0,0
152047,-138.888888888889,4,2,22,5,0,0
152120,-138.888888888889,4,2,22,52,0,0
152708,294.117647058824,4,2,22,52,1,0
152708,-138.888888888889,4,2,22,52,0,0
162119,-121.951219512195,4,2,22,52,0,0
165869,-121.951219512195,4,2,22,5,0,0
165943,-121.951219512195,4,2,22,52,0,0
166458,-121.951219512195,4,2,22,5,0,0
166532,-121.951219512195,4,2,22,52,0,0
168002,-108.695652173913,4,2,22,52,0,0
171384,-89.2857142857144,4,2,22,72,0,1
172560,-89.2857142857144,4,2,22,72,0,1
172634,-238.095238095238,4,2,22,5,0,1
172708,-89.2857142857142,4,2,22,72,0,1
175281,-238.095238095238,4,2,22,5,0,1
175355,-89.2857142857142,4,2,22,72,0,1
175575,-238.095238095238,4,2,22,5,0,1
175649,-89.2857142857142,4,2,22,72,0,1
176678,-89.2857142857142,4,2,22,72,0,1
176825,-89.2857142857142,4,2,22,72,0,1
182046,-238.095238095238,4,2,22,5,0,1
182119,-89.2857142857142,4,2,22,72,0,1
184693,-238.095238095238,4,2,22,5,0,1
184766,-89.2857142857142,4,2,22,72,0,1
184987,-89.2857142857142,4,2,22,5,0,1
185060,-89.2857142857142,4,2,22,72,0,1
186091,-89.2857142857142,4,2,22,72,0,1
186238,-89.2857142857142,4,2,22,72,0,1
187266,-89.2857142857142,4,2,22,72,0,1
187414,-89.2857142857142,4,2,22,72,0,1
188516,-238.095238095238,4,2,22,5,0,1
188590,-89.2857142857142,4,2,22,72,0,1
189031,-89.2857142857142,4,2,22,72,0,1
189179,-89.2857142857142,4,2,22,72,0,1
190869,-238.095238095238,4,2,22,5,0,1
190943,-89.2857142857142,4,2,22,72,0,1
192046,-238.095238095238,4,2,22,5,0,1
192120,-89.2857142857142,4,2,22,72,0,1
193516,-238.095238095238,4,2,22,5,0,1
193590,-89.2857142857142,4,2,22,72,0,1
195060,-238.095238095238,4,2,22,52,0,0
196237,-121.951219512195,4,2,22,52,0,0
197266,-108.695652173913,4,2,22,52,0,0
202046,-108.695652173913,4,2,22,5,0,0
202119,-192.307692307692,4,2,22,52,0,0
203222,-238.095238095238,4,2,22,5,0,1
203296,-108.695652173913,4,2,22,52,0,0
204325,-89.2857142857143,4,2,22,72,0,1
205869,-238.095238095238,4,2,22,5,0,1
205942,-89.2857142857143,4,2,22,72,0,1
208222,-238.095238095238,4,2,22,5,0,1
208295,-89.2857142857143,4,2,22,72,0,1
211531,-138.888888888889,4,2,22,52,0,0

[Colours]
Combo1 : 0,128,192
Combo2 : 255,128,192
Combo3 : 128,255,255
Combo4 : 128,128,255
SliderBorder : 191,240,249
SliderTrackOverride : 23,9,34

[HitObjects]
92,56,1679,5,4,1:2:0:0:
92,56,3002,1,6,1:2:0:0:
418,56,4032,5,6,1:2:0:0:
418,56,5355,1,6,1:2:0:0:
395,149,6238,5,10,0:2:0:0:
395,149,6385,2,0,L|393:223,1,68.6399995810547,4|0,1:2|0:0,0:2:0:0:
325,273,6826,6,0,L|259:269,1,47.5200011601563,0|0,1:2|0:2,0:2:0:0:
213,327,7120,2,0,L|162:330,1,47.5200011601563,2|0,1:2|0:2,0:2:0:0:
123,254,7414,2,0,L|73:250,1,47.5200011601563,2|0,1:2|0:2,0:2:0:0:
7,176,7708,6,0,P|-4:126|16:76,1,95.0400023203126,6|2,1:2|1:2,0:2:0:0:
178,133,8297,2,0,L|78:129,1,95.0400023203126,2|2,1:2|1:2,0:2:0:0:
7,88,8738,1,10,0:2:0:0:
7,176,8885,6,0,L|11:238,1,47.5200011601563,0|0,0:0|0:2,0:0:0:0:
69,285,9179,2,0,P|96:292|131:288,1,47.5200011601563,2|0,1:2|0:0,0:2:0:0:
174,230,9473,2,0,P|197:223|221:223,1,47.5200011601563,2|0,1:2|0:0,0:2:0:0:
298,191,9767,2,0,L|301:141,1,47.5200011601563,2|0,1:2|0:0,0:2:0:0:
253,66,10061,5,4,1:2:0:0:
238,44,10355,2,0,L|188:40,2,47.5200011601563,2|2|10,1:2|0:2|0:2,0:0:0:0:
316,11,10797,1,8,0:2:0:0:
383,60,10944,2,0,L|386:108,1,47.5200011601563,10|8,0:2|0:2,0:0:0:0:
453,184,11238,5,0,1:2:0:0:
442,207,11532,2,0,P|418:226|342:215,2,95.0400023203126,2|10|0,1:2|0:2|1:2,0:2:0:0:
265,273,12414,5,0,1:2:0:0:
276,250,12708,2,0,P|317:223|365:228,2,95.0400023203126,2|10|0,1:2|0:2|1:2,0:2:0:0:
157,114,13591,5,0,1:2:0:0:
142,139,13885,2,0,L|145:206,1,47.5200011601563,2|0,1:2|0:2,0:0:0:0:
68,229,14179,2,0,L|66:292,1,47.5200011601563,10|0,0:2|0:0,0:2:0:0:
119,348,14473,1,2,1:2:0:0:
119,348,14620,6,0,P|160:328|214:343,1,95.0400023203126,2|2,0:2|0:2,0:2:0:0:
279,292,15061,2,0,L|328:288,1,47.5200011601563,2|2,1:2|0:2,0:0:0:0:
394,236,15355,2,0,L|396:170,1,47.5200011601563,10|2,0:2|0:2,0:0:0:0:
365,110,15650,1,2,1:2:0:0:
243,201,15944,6,0,B|185:189|189:233|118:221,1,108.240001651611,8|10,0:2|3:2,0:0:0:0:
59,256,16385,1,10,3:2:0:0:
59,256,16532,1,10,0:2:0:0:
18,182,16679,2,0,L|14:116,1,54.1200008258057,0|2,1:2|0:2,0:0:0:0:
65,56,16973,2,0,P|116:36|174:63,1,108.240001651611,0|0,1:2|1:2,0:0:0:0:
224,129,17414,1,10,0:2:0:0:
224,129,17561,1,8,0:2:0:0:
61,281,18150,6,0,L|217:273,1,134.640000821777,6|0,1:2|1:2,0:2:0:0:
279,327,18591,2,0,L|360:331,1,67.3200004108887,10|0,0:2|0:2,0:2:0:0:
422,277,18885,2,0,P|438:234|426:188,1,67.3200004108887,2|0,1:2|1:2,0:0:0:0:
368,149,19179,2,0,L|286:153,1,67.3200004108887,10|0,0:2|0:2,0:0:0:0:
240,79,19473,6,0,L|169:75,1,67.3200004108887,2|0,1:2|1:2,0:0:0:0:
100,124,19767,1,10,0:2:0:0:
174,238,20061,2,0,L|244:234,2,67.3200004108887,2|2|10,0:2|1:2|0:2,0:0:0:0:
286,153,20502,6,0,L|426:159,1,134.640000821777,6|0,1:2|1:2,0:2:0:0:
484,230,20944,2,0,P|488:269|473:304,1,67.3200004108887,10|0,0:2|0:2,0:2:0:0:
395,339,21238,2,0,L|324:335,1,67.3200004108887,2|0,1:2|1:2,0:0:0:0:
244,296,21532,2,0,L|173:299,1,67.3200004108887,10|8,0:2|3:2,0:0:0:0:
100,242,21826,6,0,P|92:199|112:157,1,67.3200004108887,2|0,1:2|1:2,0:0:0:0:
162,106,22120,1,10,0:2:0:0:
162,106,22267,1,0,1:2:0:0:
224,172,22414,2,0,L|295:175,2,67.3200004108887,2|2|10,0:2|1:2|0:2,0:0:0:0:
356,246,22855,6,0,P|380:215|356:106,1,134.640000821777,6|0,1:2|1:2,0:2:0:0:
306,52,23297,2,0,L|235:49,1,67.3200004108887,10|0,0:2|0:2,0:2:0:0:
162,106,23591,2,0,L|91:109,1,67.3200004108887,2|0,1:2|1:2,0:0:0:0:
23,168,23885,2,0,P|7:203|15:250,1,67.3200004108887,10|0,0:2|0:2,0:0:0:0:
69,304,24179,6,0,L|140:307,1,67.3200004108887,2|0,1:2|1:2,0:0:0:0:
202,244,24473,1,10,0:2:0:0:
364,288,24767,2,0,P|380:323|372:370,2,67.3200004108887,10|2|10,0:2|1:2|0:2,0:0:0:0:
488,234,25208,6,0,B|414:242|434:184|345:195,1,134.640000821777,6|0,1:2|1:2,0:2:0:0:
286,137,25650,2,0,L|283:52,1,67.3200004108887,10|0,0:2|0:2,0:2:0:0:
178,13,25944,2,0,L|174:83,1,67.3200004108887,2|0,1:2|1:2,0:0:0:0:
120,157,26238,1,10,0:2:0:0:
120,157,26385,1,10,3:2:0:0:
162,238,26532,6,0,P|193:254|244:250,1,67.3200004108887,0|0,0:2|1:2,0:0:0:0:
302,308,26826,2,0,P|336:307|368:291,1,67.3200004108887,10|10,3:2|0:2,0:0:0:0:
414,215,27120,2,0,L|417:144,2,67.3200004108887,10|10|10,3:2|3:2|0:2,0:0:0:0:
465,288,27561,1,6,1:2:0:0:
325,180,27855,5,0,1:2:0:0:
325,180,28003,1,8,0:2:0:0:
178,106,28297,2,0,P|224:91|283:110,3,95.0400023203126,0|8|0|8,1:2|0:2|1:2|0:2,0:0:0:0:
232,226,29473,1,10,0:2:0:0:
232,226,29620,1,10,0:2:0:0:
116,316,29914,6,0,L|112:195,1,108.240001651611,4|0,1:2|1:2,0:2:0:0:
58,145,30355,2,0,L|61:83,1,54.1200008258057,8|0,0:2|0:0,0:0:0:0:
112,29,30650,2,0,P|155:9|228:36,1,108.240001651611,2|10,1:2|0:2,0:2:0:0:
275,79,31091,1,2,0:2:0:0:
275,79,31238,6,0,L|271:191,1,108.240001651611,0|8,1:2|0:2,0:0:0:0:
422,238,31826,2,0,L|418:181,1,54.1200008258057,2|0,1:2|1:2,0:0:0:0:
453,110,32120,1,8,0:2:0:0:
453,110,32267,6,0,P|398:103|350:133,1,108.240001651611,2|0,1:2|1:2,0:2:0:0:
298,191,32708,2,0,L|182:188,1,108.240001651611,8|2,0:2|1:2,0:0:0:0:
120,230,33150,2,0,P|112:265|120:300,1,54.1200008258057,2|8,0:2|0:2,0:0:0:0:
174,335,33444,6,0,L|286:338,1,108.240001651611,2|0,1:2|1:2,0:2:0:0:
353,299,33885,1,10,0:2:0:0:
353,299,34032,2,0,L|427:299,2,54.1200008258057,2|0|0,0:2|1:2|1:2,0:2:0:0:
298,234,34473,1,10,0:2:0:0:
298,234,34620,6,0,P|321:180|298:126,1,108.240001651611,2|0,1:2|1:2,0:2:0:0:
248,75,35061,2,0,B|207:72|207:72|184:84|184:84|137:80,1,108.240001651611,8|0,0:2|1:2,0:0:0:0:
15,180,35650,2,0,L|19:242,1,54.1200008258057,10|0,0:2|0:2,0:0:0:0:
73,292,35944,6,0,L|135:288,1,54.1200008258057,2|0,1:2|0:0,0:2:0:0:
193,335,36238,2,0,L|250:338,1,54.1200008258057,10|0,0:2|0:0,0:0:0:0:
310,285,36532,2,0,L|366:281,2,54.1200008258057,0|0|10,1:2|1:2|0:2,0:0:0:0:
252,234,36973,1,0,1:2:0:0:
252,234,37120,6,0,L|248:164,1,54.1200008258057,2|0,0:2|1:2,0:2:0:0:
302,114,37414,2,0,P|341:91|411:106,1,108.240001651611,10|0,0:2|1:2,0:2:0:0:
465,160,37855,1,0,1:2:0:0:
465,160,38002,1,10,0:2:0:0:
414,281,38297,6,0,P|383:288|345:277,1,54.1200008258057,2|0,1:2|0:0,0:0:0:0:
302,230,38591,2,0,P|274:226|247:233,1,54.1200008258057,10|0,0:2|0:0,0:0:0:0:
197,296,38885,2,0,L|200:352,2,54.1200008258057,8|0|0,0:2|1:2|0:2,0:0:0:0:
123,230,39326,6,0,L|131:106,1,108.240001651611,4|0,1:2|1:2,0:2:0:0:
197,75,39767,2,0,P|224:73|252:80,1,54.1200008258057,8|2,0:2|0:2,0:0:0:0:
275,157,40061,2,0,B|315:158|315:158|338:147|338:147|384:151,1,108.240001651611,2|10,1:2|0:2,0:2:0:0:
453,110,40502,6,0,P|465:79|461:48,1,54.1200008258057,2|0,0:2|1:2,0:2:0:0:
391,21,40797,2,0,L|334:17,1,54.1200008258057,0|8,0:2|0:2,0:0:0:0:
271,63,41091,2,0,L|214:66,2,54.1200008258057,0|0|0,0:2|1:2|1:2,0:0:0:0:
321,129,41532,1,8,0:2:0:0:
321,129,41679,6,0,L|317:254,1,108.240001651611,2|0,1:2|1:2,0:2:0:0:
360,308,42120,1,8,0:2:0:0:
213,362,42414,1,2,1:2:0:0:
213,362,42561,2,0,L|147:358,1,54.1200008258057,2|8,0:2|0:2,0:2:0:0:
100,304,42855,6,0,P|123:250|108:199,1,108.240001651611,2|0,1:2|1:2,0:2:0:0:
69,133,43297,2,0,P|61:106|73:67,1,54.1200008258057,10|2,0:2|0:2,0:0:0:0:
123,25,43591,2,0,L|189:21,1,54.1200008258057,2|0,1:2|0:0,0:2:0:0:
252,52,43885,1,10,0:2:0:0:
252,52,44032,6,0,B|248:176,1,108.240001651611,6|0,1:2|1:2,0:2:0:0:
294,226,44473,1,8,0:2:0:0:
197,351,44767,1,2,1:2:0:0:
197,351,44914,2,0,L|259:343,1,54.1200008258057,2|8,0:2|0:2,0:2:0:0:
329,362,45208,1,2,1:2:0:0:
329,362,45355,6,0,L|449:347,1,108.240001651611,0|10,0:0|0:2,0:0:0:0:
500,292,45797,1,2,0:2:0:0:
500,292,45944,2,0,L|504:223,2,54.1200008258057,2|0|8,1:2|1:2|0:2,0:2:0:0:
442,180,46385,6,0,P|387:199|329:180,1,108.240001651611,0|0,1:2|1:2,0:0:0:0:
279,137,46826,1,10,0:2:0:0:
279,137,46973,2,0,L|201:133,1,54.1200008258057,2|0,0:2|1:2,0:2:0:0:
170,195,47267,1,0,1:2:0:0:
170,195,47414,2,0,L|95:198,1,54.1200008258057,8|0,0:2|0:2,0:0:0:0:
29,203,47708,5,8,0:2:0:0:
108,351,48002,2,0,L|184:353,1,54.1200008258057,8|0,3:2|0:2,0:0:0:0:
224,300,48297,1,8,0:2:0:0:
224,300,48444,1,0,1:2:0:0:
298,331,48591,2,0,L|354:328,1,54.1200008258057,0|8,0:2|0:2,0:0:0:0:
426,261,48885,6,0,L|430:207,2,47.5200011601563,4|8|0,1:2|0:2|1:2,0:0:0:0:
337,122,49473,1,2,1:2:0:0:
337,122,49620,2,0,L|340:170,2,47.5200011601563,8|10|10,0:2|0:2|0:2,0:0:0:0:
324,32,50061,1,0,1:2:0:0:
151,36,50355,5,2,1:2:0:0:
151,36,50502,2,0,L|147:85,1,47.5200011601563,8|8,0:2|0:2,0:0:0:0:
89,137,50797,2,0,L|91:186,1,47.5200011601563,8|8,0:2|0:2,0:0:0:0:
147,254,51091,1,8,0:2:0:0:
147,254,51164,1,8,0:2:0:0:
147,254,51238,1,4,1:2:0:0:
267,331,51532,5,8,0:2:0:0:
267,331,51679,2,0,L|271:283,1,47.5200011601563,8|2,0:2|1:2,0:0:0:0:
407,254,52120,2,0,L|403:205,1,47.5200011601563,10|10,0:2|0:2,0:0:0:0:
399,180,52341,1,8,0:2:0:0:
399,180,52414,1,4,1:2:0:0:
298,83,52708,6,0,P|248:67|193:91,1,95.0400023203126,10|4,0:2|1:2,0:0:0:0:
201,219,53297,2,0,P|252:234|306:211,1,95.0400023203126,2|6,1:2|1:2,0:2:0:0:
430,261,53885,5,10,0:2:0:0:
430,261,54032,2,0,L|434:310,1,47.5200011601563,8|0,0:2|1:2,0:0:0:0:
310,374,54473,1,0,1:2:0:0:
310,374,54620,1,10,0:2:0:0:
263,300,54767,6,0,L|197:296,1,60.71999796167,2|8,1:2|0:2,0:0:0:0:
139,358,55061,2,0,L|75:361,1,60.71999796167,2|8,1:2|0:2,0:0:0:0:
11,308,55355,2,0,P|3:273|15:234,1,60.71999796167,2|8,1:2|0:2,0:0:0:0:
81,191,55650,2,0,L|147:188,1,60.71999796167,2|10,1:2|0:2,0:0:0:0:
174,157,55870,1,8,0:2:0:0:
174,157,55944,6,0,L|237:159,1,60.71999796167,4|10,1:2|0:2,0:0:0:0:
298,91,56238,2,0,L|361:87,1,60.71999796167,0|8,1:2|0:2,0:0:0:0:
449,126,56532,1,4,1:2:0:0:
414,215,56679,2,0,L|418:257,4,30.359998980835,8|8|0|8|10,0:2|0:2|1:2|0:2|0:2,0:0:0:0:
69,114,58150,6,0,B|127:108|127:108|157:126|157:126|229:121,1,147.840001804688,6|0,1:2|1:2,0:2:0:0:
292,172,58591,2,0,P|266:228|300:311,1,147.840001804688,10|0,0:2|1:2,0:2:0:0:
386,330,59032,1,0,1:2:0:0:
428,236,59179,1,10,0:2:0:0:
293,305,59473,6,0,L|218:305,1,73.9200009023438,2|0,1:2|1:2,0:2:0:0:
143,256,59767,2,0,P|131:215|143:177,1,73.9200009023438,10|0,0:2|0:2,0:2:0:0:
188,104,60061,2,0,P|198:62|188:26,1,73.9200009023438,2|0,1:2|1:2,0:0:0:0:
101,70,60355,1,10,0:2:0:0:
136,187,60502,6,0,P|181:201|271:149,1,147.840001804688,6|0,1:2|1:2,0:2:0:0:
188,104,60944,1,10,0:2:0:0:
387,63,61238,2,0,L|391:142,1,73.9200009023438,0|0,1:2|1:2,0:0:0:0:
478,184,61532,2,0,L|474:262,1,73.9200009023438,10|2,0:2|0:2,0:0:0:0:
398,319,61826,6,0,B|319:296|326:364|248:345,2,147.840001804688,2|10|2,1:2|0:2|1:2,0:2:0:0:
478,262,62561,1,0,1:2:0:0:
478,262,62708,1,10,0:2:0:0:
372,172,62855,6,0,B|312:172|312:172|285:194|285:194|210:194,1,147.840001804688,6|0,1:2|1:2,0:2:0:0:
148,151,63297,1,10,0:2:0:0:
236,14,63591,2,0,L|323:10,1,73.9200009023438,2|0,1:2|1:2,0:0:0:0:
406,26,63885,2,0,P|419:59|414:99,1,73.9200009023438,10|0,0:2|0:2,0:0:0:0:
372,172,64179,6,0,P|356:205|362:242,1,73.9200009023438,2|0,1:2|1:2,0:0:0:0:
334,334,64473,2,0,L|248:330,1,73.9200009023438,10|0,0:2|0:0,0:0:0:0:
198,255,64767,2,0,P|232:184|202:123,1,147.840001804688,2|10,1:2|0:2,0:0:0:0:
131,60,65208,6,0,P|97:130|127:191,1,147.840001804688,6|0,1:2|1:2,0:2:0:0:
198,255,65650,1,10,0:2:0:0:
300,90,65944,2,0,L|386:86,1,73.9200009023438,2|0,1:2|1:2,0:2:0:0:
462,126,66238,2,0,P|478:164|466:214,1,73.9200009023438,10|0,0:2|0:0,0:0:0:0:
420,278,66532,5,0,1:2:0:0:
420,278,66679,1,0,1:2:0:0:
342,334,66826,2,0,L|255:330,1,73.9200009023438,10|10,0:2|0:2,0:0:0:0:
210,251,67120,2,0,L|135:254,1,73.9200009023438,2|8,1:2|0:2,0:0:0:0:
59,191,67414,2,0,L|7:187,3,36.9600004511719,10|8|8|4,0:2|0:2|3:2|3:2,0:0:0:0:
81,164,67708,5,4,1:2:0:0:
149,18,68002,2,0,B|207:18|207:18|237:40|237:40|306:41,2,147.840001804688,2|10|0,1:2|0:2|1:2,0:2:0:0:
180,112,68738,1,8,0:2:0:0:
180,112,68885,6,0,L|183:186,1,73.9200009023438,0|8,1:2|0:2,0:0:0:0:
266,236,69179,2,0,B|315:236|315:236|345:214|345:214|409:214,2,147.840001804688,2|10|0,1:2|0:2|1:2,0:2:0:0:
214,319,69914,1,8,0:2:0:0:
214,319,70061,6,0,L|138:315,1,73.9200009023438,0|8,1:2|0:2,0:0:0:0:
63,255,70355,2,0,P|56:214|71:176,1,73.9200009023438,2|0,1:2|0:0,0:2:0:0:
146,130,70650,2,0,L|234:126,1,73.9200009023438,10|0,0:2|0:0,0:2:0:0:
295,56,70944,1,2,1:2:0:0:
383,110,71091,6,0,L|392:281,1,147.840001804688,10|10,0:2|0:2,0:2:0:0:
468,325,71532,1,2,1:2:0:0:
237,313,71826,2,0,L|244:225,1,73.9200009023438,10|10,0:2|0:2,0:0:0:0:
153,202,72120,2,0,L|145:115,1,73.9200009023438,2|8,1:2|0:2,0:0:0:0:
208,43,72414,5,4,1:2:0:0:
449,102,74620,6,0,L|294:110,1,134.640000821777,6|0,1:2|1:2,0:2:0:0:
236,164,75061,2,0,L|155:160,1,67.3200004108887,10|0,0:2|0:2,0:2:0:0:
85,199,75355,2,0,P|69:242|81:288,1,67.3200004108887,2|0,1:2|0:0,0:2:0:0:
135,335,75650,2,0,L|217:331,1,67.3200004108887,10|0,0:2|0:2,0:0:0:0:
290,296,75944,6,0,P|304:264|303:229,1,67.3200004108887,2|0,1:2|1:2,0:0:0:0:
236,164,76238,1,10,0:2:0:0:
66,86,76531,2,0,L|135:80,2,67.3200004108887,2|2|10,0:2|1:2|0:2,0:0:0:0:
15,168,76972,6,0,L|8:308,1,134.640000821777,6|0,1:2|1:2,0:2:0:0:
89,354,77414,2,0,L|159:358,1,67.3200004108887,10|0,0:2|0:2,0:2:0:0:
236,308,77708,2,0,L|307:305,1,67.3200004108887,2|0,1:2|1:2,0:0:0:0:
376,246,78002,2,0,P|380:211|368:178,1,67.3200004108887,10|8,0:2|3:2,0:0:0:0:
286,137,78297,6,0,L|216:134,1,67.3200004108887,2|0,1:2|1:2,0:0:0:0:
158,71,78590,1,10,0:2:0:0:
158,71,78737,1,0,1:2:0:0:
224,9,78884,2,0,L|295:6,2,67.3200004108887,2|2|10,0:2|1:2|0:2,0:0:0:0:
372,67,79325,6,0,P|395:98|372:207,1,134.640000821777,6|0,1:2|1:2,0:2:0:0:
286,223,79767,2,0,L|197:215,1,73.9200009023438,10|0,0:2|0:0,0:0:0:0:
116,250,80061,2,0,P|96:288|100:335,1,73.9200009023438,10|0,0:2|0:0,0:0:0:0:
186,370,80355,2,0,L|275:362,1,73.9200009023438,10|0,0:2|0:0,0:0:0:0:
345,304,80650,6,0,L|421:310,1,73.9200009023438,10|0,0:2|0:0,0:0:0:0:
504,249,80944,1,10,0:2:0:0:
381,134,81238,2,0,P|382:95|400:61,2,73.9200009023438,10|0|10,0:2|0:0|0:2,0:0:0:0:
298,195,81679,6,0,B|240:195|240:195|213:215|213:215|143:215,1,134.640000821777,6|2,1:2|1:2,0:0:0:0:
73,176,82120,2,0,P|61:133|81:91,1,73.9200009023438,10|0,0:2|0:0,0:0:0:0:
155,44,82414,2,0,L|252:40,1,73.9200009023438,10|0,0:2|0:0,0:0:0:0:
314,98,82708,2,0,L|390:101,1,73.9200009023438,10|0,0:2|0:0,0:0:0:0:
473,160,83002,5,10,0:2:0:0:
473,160,83150,1,0,0:0:0:0:
395,226,83297,2,0,L|391:308,1,73.9200009023438,10|2,0:2|1:2,0:0:0:0:
310,362,83591,1,0,1:2:0:0:
244,285,83738,2,0,L|186:288,3,36.9600004511719,8|8|8|8,0:2|0:2|0:2|0:2,0:0:0:0:
267,257,84032,6,0,L|271:137,1,108.240001651611,4|0,1:2|1:2,0:2:0:0:
273,63,84473,1,8,0:2:0:0:
111,97,84768,2,0,P|88:136|115:210,1,108.240001651611,2|10,1:2|0:2,0:2:0:0:
154,261,85209,1,0,0:0:0:0:
154,261,85356,6,0,L|266:257,1,108.240001651611,2|8,1:2|0:2,0:0:0:0:
360,144,85944,2,0,L|364:87,1,54.1200008258057,2|0,1:2|1:2,0:0:0:0:
329,16,86238,1,8,0:2:0:0:
329,16,86385,6,0,P|384:9|432:39,1,108.240001651611,2|0,1:2|1:2,0:2:0:0:
449,110,86826,2,0,L|446:238,1,108.240001651611,8|2,0:2|1:2,0:0:0:0:
399,281,87268,2,0,P|364:288|329:281,1,54.1200008258057,2|8,0:2|0:2,0:0:0:0:
290,238,87562,6,0,L|178:241,1,108.240001651611,2|0,1:2|1:2,0:2:0:0:
123,288,88003,1,10,0:2:0:0:
123,288,88150,2,0,L|123:362,2,54.1200008258057,2|0|0,0:2|1:2|1:2,0:2:0:0:
73,219,88591,1,10,0:2:0:0:
73,219,88738,6,0,L|67:95,1,108.240001651611,2|0,1:2|1:2,0:2:0:0:
131,56,89179,2,0,B|172:53|172:53|195:64|195:64|242:61,1,108.240001651611,8|0,0:2|1:2,0:0:0:0:
155,133,89768,2,0,L|158:196,1,54.1200008258057,10|0,0:2|0:2,0:0:0:0:
205,250,90062,6,0,L|267:246,1,54.1200008258057,2|0,1:2|0:0,0:2:0:0:
325,292,90356,2,0,L|382:295,1,54.1200008258057,10|0,0:2|0:0,0:0:0:0:
442,351,90650,2,0,L|498:347,2,54.1200008258057,0|0|10,1:2|1:2|0:2,0:0:0:0:
382,295,91091,1,6,1:2:0:0:
382,295,91238,6,0,L|378:225,1,54.1200008258057,2|2,0:2|1:2,0:2:0:0:
438,188,91532,2,0,P|399:164|329:180,1,108.240001651611,10|0,0:2|1:2,0:2:0:0:
275,226,91973,1,0,1:2:0:0:
275,226,92120,1,10,0:2:0:0:
144,143,92414,6,0,P|136:112|148:73,1,54.1200008258057,2|0,1:2|0:0,0:0:0:0:
217,60,92708,2,0,L|286:56,1,54.1200008258057,10|0,0:2|0:0,0:0:0:0:
333,110,93003,2,0,L|389:113,2,54.1200008258057,0|0|8,1:2|1:2|0:2,0:0:0:0:
449,164,93444,6,0,L|456:277,1,108.240001651611,4|0,1:2|1:2,0:2:0:0:
383,316,93885,2,0,P|355:322|328:320,1,54.1200008258057,8|2,0:2|0:2,0:0:0:0:
263,273,94179,1,2,1:2:0:0:
263,273,94326,2,0,P|235:271|208:278,1,54.1200008258057,2|10,0:2|0:2,0:0:0:0:
143,238,94620,6,0,P|131:212|132:184,1,54.1200008258057,2|0,0:2|1:2,0:2:0:0:
196,128,94914,2,0,L|253:128,1,54.1200008258057,0|8,0:2|0:2,0:0:0:0:
282,45,95209,2,0,L|339:45,2,54.1200008258057,0|8|0,0:2|0:2|1:2,0:0:0:0:
193,20,95650,1,8,0:2:0:0:
193,20,95797,6,0,L|197:144,1,108.240001651611,2|0,1:2|1:2,0:2:0:0:
139,188,96238,2,0,L|136:250,1,54.1200008258057,8|2,0:2|0:2,0:0:0:0:
130,326,96532,1,2,1:2:0:0:
291,298,96826,1,10,0:2:0:0:
286,292,96973,6,0,P|340:307|389:284,1,108.240001651611,2|0,1:2|1:2,0:2:0:0:
407,207,97415,2,0,L|407:145,1,54.1200008258057,10|0,0:2|0:2,0:0:0:0:
372,83,97709,2,0,P|341:75|306:79,1,54.1200008258057,2|0,1:2|0:0,0:2:0:0:
255,118,98003,1,10,0:2:0:0:
255,118,98150,6,0,B|131:114,1,108.240001651611,6|0,1:2|1:2,0:2:0:0:
77,160,98591,1,8,0:2:0:0:
19,296,98885,1,2,1:2:0:0:
19,296,99032,2,0,L|81:292,1,54.1200008258057,0|10,0:2|0:2,0:0:0:0:
123,238,99326,6,0,L|240:246,1,108.240001651611,2|0,1:2|0:2,0:0:0:0:
294,292,99767,2,0,L|356:288,1,54.1200008258057,10|0,0:2|0:0,0:0:0:0:
407,242,100062,2,0,L|411:172,2,54.1200008258057,0|0|10,1:2|1:2|0:2,0:0:0:0:
465,129,100503,6,0,P|411:110|352:133,1,108.240001651611,2|0,1:2|1:2,0:0:0:0:
310,180,100944,1,10,0:2:0:0:
310,180,101091,2,0,L|234:176,1,54.1200008258057,2|0,0:2|1:2,0:0:0:0:
128,288,101532,2,0,L|125:211,1,54.1200008258057,0|8,0:2|0:2,0:0:0:0:
77,168,101826,6,0,P|69:133|81:94,1,54.1200008258057,0|0,0:2|1:2,0:0:0:0:
131,60,102120,2,0,L|208:64,1,54.1200008258057,8|0,3:2|1:2,0:0:0:0:
255,21,102415,1,8,0:2:0:0:
255,21,102562,1,0,1:2:0:0:
310,75,102709,2,0,L|307:131,1,54.1200008258057,0|0,0:2|1:2,0:0:0:0:
360,191,103003,6,0,L|363:240,2,47.5200011601563,4|8|0,1:2|0:2|1:2,0:0:0:0:
193,188,103591,1,2,1:2:0:0:
193,188,103738,2,0,L|190:236,2,47.5200011601563,8|10|10,0:2|0:2|0:2,0:0:0:0:
108,266,104179,1,0,1:2:0:0:
65,94,104473,5,2,1:2:0:0:
65,94,104620,2,0,L|114:91,1,47.5200011601563,8|8,0:2|0:2,0:0:0:0:
166,32,104915,2,0,L|215:35,1,47.5200011601563,8|8,0:2|0:2,0:0:0:0:
283,91,105209,1,8,0:2:0:0:
283,91,105282,1,8,0:2:0:0:
283,91,105356,1,4,1:2:0:0:
449,191,105650,5,8,0:2:0:0:
449,191,105797,2,0,L|401:195,1,47.5200011601563,8|2,0:2|1:2,0:0:0:0:
372,331,106238,2,0,L|323:327,1,47.5200011601563,10|10,0:2|0:2,0:0:0:0:
298,323,106459,1,8,0:2:0:0:
298,323,106532,1,4,1:2:0:0:
120,203,106826,6,0,L|127:98,1,95.0400023203126,10|4,0:2|1:2,0:0:0:0:
255,106,107415,2,0,L|248:211,1,95.0400023203126,2|6,1:2|1:2,0:2:0:0:
46,285,108003,5,10,0:2:0:0:
46,285,108150,2,0,L|94:281,1,47.5200011601563,8|0,0:2|1:2,0:0:0:0:
213,354,108591,1,0,1:2:0:0:
213,354,108738,1,10,0:2:0:0:
248,281,108885,6,0,L|314:277,1,60.71999796167,2|8,1:2|0:2,0:0:0:0:
372,339,109179,2,0,L|436:342,1,60.71999796167,2|8,1:2|0:2,0:0:0:0:
500,288,109473,2,0,P|508:254|496:215,1,60.71999796167,2|8,1:2|0:2,0:0:0:0:
430,191,109768,2,0,L|364:188,1,60.71999796167,2|10,1:2|0:2,0:0:0:0:
337,157,109988,1,8,0:2:0:0:
337,157,110062,6,0,L|274:159,1,60.71999796167,4|10,1:2|0:2,0:0:0:0:
205,114,110355,2,0,P|197:79|209:40,1,60.71999796167,0|8,1:2|0:2,0:0:0:0:
267,5,110650,1,4,1:2:0:0:
356,44,110797,2,0,L|360:87,4,30.359998980835,8|8|0|8|10,0:2|0:2|1:2|0:2|0:2,0:0:0:0:
101,44,112267,6,0,P|75:100|108:183,1,147.840001804688,6|0,1:2|1:2,0:2:0:0:
193,222,112708,2,0,B|252:213|252:213|282:232|282:232|358:225,1,147.840001804688,10|0,0:2|1:2,0:2:0:0:
424,187,113150,1,0,1:2:0:0:
492,258,113297,1,10,0:2:0:0:
383,380,113591,6,0,L|308:380,1,73.9200009023438,2|0,1:2|1:2,0:2:0:0:
255,299,113885,2,0,L|180:299,1,73.9200009023438,10|0,0:2|0:2,0:2:0:0:
97,247,114179,2,0,P|90:210|101:174,1,73.9200009023438,2|0,1:2|1:2,0:0:0:0:
157,96,114473,1,10,0:2:0:0:
240,175,114620,6,0,B|319:153|312:221|402:194,1,147.840001804688,6|0,1:2|1:2,0:2:0:0:
440,130,115061,1,10,0:2:0:0:
297,25,115355,2,0,L|301:104,1,73.9200009023438,0|0,1:2|1:2,0:0:0:0:
240,175,115650,2,0,L|236:255,1,73.9200009023438,10|2,0:2|0:2,0:0:0:0:
304,322,115944,6,0,B|383:333|368:273|444:287,2,147.840001804688,2|10|2,1:2|0:2|1:2,0:2:0:0:
240,255,116679,1,0,1:2:0:0:
240,255,116826,1,10,0:2:0:0:
146,329,116973,6,0,B|146:269|146:269|123:243|123:243|123:168,1,147.840001804688,6|0,1:2|1:2,0:2:0:0:
180,108,117414,1,10,0:2:0:0:
308,175,117709,2,0,L|394:171,1,73.9200009023438,2|0,1:2|1:2,0:0:0:0:
470,130,118003,2,0,P|484:95|478:60,1,73.9200009023438,10|0,0:2|0:2,0:0:0:0:
387,10,118297,6,0,P|372:43|378:79,1,73.9200009023438,2|0,1:2|1:2,0:0:0:0:
382,171,118591,2,0,L|308:175,1,73.9200009023438,10|0,0:2|0:0,0:0:0:0:
236,243,118885,2,0,L|82:235,1,147.840001804688,2|10,1:2|0:2,0:0:0:0:
18,168,119326,6,0,P|-8:101|23:37,1,147.840001804688,6|0,1:2|1:2,0:2:0:0:
93,104,119768,1,10,0:2:0:0:
236,243,120062,2,0,L|323:239,1,73.9200009023438,2|0,1:2|1:2,0:2:0:0:
387,183,120356,2,0,P|401:148|398:111,1,73.9200009023438,10|0,0:2|0:0,0:0:0:0:
338,40,120650,5,0,1:2:0:0:
338,40,120797,1,0,1:2:0:0:
323,138,120944,2,0,L|236:134,1,73.9200009023438,10|10,0:2|0:2,0:0:0:0:
191,55,121238,2,0,L|116:58,1,73.9200009023438,2|8,1:2|0:2,0:0:0:0:
56,134,121532,2,0,L|53:171,3,36.9600004511719,10|8|8|4,0:2|0:2|3:2|3:2,0:0:0:0:
69,203,121826,5,4,1:2:0:0:
202,285,122120,2,0,B|251:285|251:285|281:262|281:262|345:262,2,147.840001804688,2|10|0,1:2|0:2|1:2,0:2:0:0:
218,191,122856,1,8,0:2:0:0:
218,191,123003,6,0,L|215:116,1,73.9200009023438,0|8,1:2|0:2,0:0:0:0:
157,40,123297,2,0,B|109:40|109:40|79:17|79:17|15:17,2,147.840001804688,2|10|0,1:2|0:2|1:2,0:2:0:0:
255,14,124032,1,8,0:2:0:0:
255,14,124179,6,0,L|330:10,1,73.9200009023438,0|8,1:2|0:2,0:0:0:0:
414,62,124473,2,0,P|423:97|415:134,1,73.9200009023438,2|0,1:2|0:2,0:0:0:0:
357,213,124768,2,0,P|350:255|364:292,1,73.9200009023438,10|0,0:2|0:0,0:2:0:0:
439,349,125062,1,2,1:2:0:0:
340,380,125209,6,0,L|168:369,1,147.840001804688,10|10,0:2|0:2,0:2:0:0:
89,361,125650,1,2,1:2:0:0:
96,154,125944,2,0,P|133:149|170:160,1,73.9200009023438,10|10,0:2|0:2,0:0:0:0:
266,189,126238,2,0,L|273:102,1,73.9200009023438,2|8,1:2|0:2,0:0:0:0:
284,11,126532,5,4,1:2:0:0:
462,304,128738,6,0,B|386:281|390:352|308:326,1,147.840001804688,6|0,1:2|0:2,0:2:0:0:
240,274,129179,2,0,L|150:278,1,73.9200009023438,10|0,0:2|0:0,0:0:0:0:
82,224,129473,2,0,P|67:187|82:138,1,73.9200009023438,10|0,0:2|1:2,0:0:0:0:
138,82,129767,2,0,L|225:86,1,73.9200009023438,10|0,0:2|1:2,0:0:0:0:
292,29,130061,6,0,L|368:26,1,73.9200009023438,10|0,0:2|1:2,0:0:0:0:
450,74,130355,2,0,P|457:114|444:150,1,73.9200009023438,10|0,0:2|1:2,0:0:0:0:
368,202,130650,2,0,P|360:242|376:278,1,73.9200009023438,10|0,0:2|1:2,0:0:0:0:
425,352,130944,1,10,0:2:0:0:
168,281,131238,6,0,P|161:245|173:210,1,73.9200009023438,10|0,0:2|0:0,0:0:0:0:
236,138,131532,1,10,0:2:0:0:
236,138,131679,1,0,1:2:0:0:
312,74,131826,2,0,L|398:74,2,73.9200009023438,10|0|10,0:2|1:2|0:2,0:0:0:0:
236,14,132267,5,2,1:2:0:0:
161,74,132414,2,0,L|82:70,1,73.9200009023438,8|0,0:2|0:0,0:0:0:0:
26,146,132708,2,0,P|18:186|33:221,1,73.9200009023438,10|0,0:2|1:2,0:0:0:0:
123,248,133002,2,0,L|202:244,1,73.9200009023438,10|0,0:2|1:2,0:0:0:0:
270,311,133297,1,10,0:2:0:0:
436,240,133591,6,0,P|462:168|414:96,2,147.840001804688,10|10|10,0:2|0:2|0:2,0:0:0:0:
360,300,134326,1,0,1:2:0:0:
278,248,134473,2,0,L|202:250,1,73.9200009023438,10|0,0:2|1:2,0:0:0:0:
120,198,134767,6,0,P|104:160|120:108,1,73.9200009023438,10|0,0:2|0:0,0:0:0:0:
176,60,135061,1,10,0:2:0:0:
176,60,135208,1,2,1:2:0:0:
244,116,135355,2,0,L|312:120,2,60.71999796167,10|2|10,0:2|1:2|0:2,0:0:0:0:
372,187,135797,5,8,0:2:0:0:
372,187,135870,1,8,0:2:0:0:
372,187,135944,2,0,B|398:228|398:228|368:345,1,147.840001804688,14|10,0:2|0:2,0:0:0:0:
282,360,136385,1,2,1:2:0:0:
282,360,136532,2,0,L|181:355,1,73.9200009023438,10|2,0:2|1:2,0:0:0:0:
115,374,136826,1,14,0:2:0:0:
150,208,137120,6,0,L|49:203,1,73.9200009023438,10|2,0:2|1:2,0:0:0:0:
33,120,137414,2,0,P|82:90|146:104,1,110.880001353516,10|8,0:2|0:2,0:0:0:0:
161,112,137708,2,0,L|330:100,1,147.840001804688,14|10,0:2|0:2,0:0:0:0:
415,130,138150,1,2,1:2:0:0:
344,197,138297,6,0,L|348:277,1,73.9200009023438,10|2,0:2|1:2,0:0:0:0:
275,327,138591,2,0,P|335:361|409:336,2,147.840001804688,14|10|10,0:2|0:2|0:2,0:2:0:0:
137,175,139473,6,0,P|63:206|52:292,1,147.840001804688,14|10,0:2|0:2,0:0:0:0:
134,319,139914,1,2,1:2:0:0:
134,319,140061,2,0,P|172:300|218:308,1,73.9200009023438,10|2,0:2|1:2,0:0:0:0:
285,352,140355,2,0,P|322:372|368:364,1,73.9200009023438,14|2,0:2|1:2,0:0:0:0:
424,304,140650,6,0,L|428:224,1,73.9200009023438,10|2,0:2|1:2,0:0:0:0:
368,154,140944,2,0,P|312:126|250:155,1,110.880001353516,10|8,0:2|0:2,0:0:0:0:
240,157,141238,2,0,L|78:154,1,147.840001804688,14|10,0:2|0:2,0:0:0:0:
22,86,141679,1,2,1:2:0:0:
100,14,141826,5,10,0:2:0:0:
255,70,142120,2,0,L|329:73,1,73.9200009023438,14|0,0:2|0:0,0:0:0:0:
420,130,142414,1,10,0:2:0:0:
368,217,142561,1,0,3:2:0:0:
368,217,142635,1,8,3:2:0:0:
368,217,142708,1,12,0:2:0:0:
255,70,143002,5,8,0:2:0:0:
255,70,143150,1,4,1:2:0:0:
38,191,144473,5,4,1:2:0:0:
252,354,145502,5,4,1:2:0:0:
469,191,146826,5,4,1:2:0:0:
255,67,147708,5,8,0:2:0:0:
255,67,147855,1,4,1:2:0:0:
244,83,148297,6,0,L|240:145,1,47.5200011601563,0|0,1:2|0:2,0:2:0:0:
186,184,148591,2,0,L|189:246,1,47.5200011601563,0|0,1:2|0:2,0:2:0:0:
252,273,148885,2,0,L|248:335,1,47.5200011601563,0|0,1:2|0:2,0:2:0:0:
186,378,149179,5,4,1:2:0:0:
166,358,149473,2,0,L|108:354,1,47.5200011601563,0|0,1:2|0:2,0:2:0:0:
42,300,149767,2,0,P|26:254|50:199,1,95.0400023203126,0|0,1:2|1:2,0:2:0:0:
108,257,150208,5,8,0:2:0:0:
108,257,150355,1,4,1:2:0:0:
123,238,150650,2,0,L|189:234,1,47.5200011601563,0|0,1:2|0:2,0:2:0:0:
220,176,150944,2,0,L|270:179,1,47.5200011601563,0|0,1:2|0:2,0:2:0:0:
329,226,151238,2,0,L|379:223,1,47.5200011601563,0|0,1:2|0:0,0:2:0:0:
422,160,151532,5,4,1:2:0:0:
442,141,151826,2,0,P|457:94|434:40,1,95.0400023203126,0|8,1:2|0:2,0:2:0:0:
383,94,152267,2,0,L|317:91,2,47.5200011601563,8|8|8,0:2|0:2|0:2,0:0:0:0:
283,36,152708,6,0,L|172:40,1,95.0400023203126,0|0,1:2|1:2,0:2:0:0:
158,44,153296,2,0,L|155:102,1,47.5200011601563,8|0,0:2|0:2,0:0:0:0:
104,149,153590,2,0,L|108:207,1,47.5200011601563,0|0,1:2|0:2,0:0:0:0:
170,242,153884,6,0,P|217:226|271:246,1,95.0400023203126,0|0,1:2|1:2,0:2:0:0:
325,292,154325,1,0,0:2:0:0:
325,292,154472,2,0,L|390:289,1,47.5200011601563,8|0,0:2|0:0,0:0:0:0:
430,242,154766,2,0,P|434:215|426:177,1,47.5200011601563,0|0,1:2|0:2,0:0:0:0:
372,149,155060,6,0,L|272:145,1,95.0400023203126,0|0,1:2|1:2,0:2:0:0:
252,145,155649,2,0,L|248:91,1,47.5200011601563,8|0,0:2|0:0,0:0:0:0:
193,44,155943,2,0,P|166:40|129:46,1,47.5200011601563,0|0,1:2|0:2,0:0:0:0:
85,98,156237,6,0,B|69:137|69:137|85:199,1,95.0400023203126,0|0,1:2|1:2,0:2:0:0:
151,238,156678,1,0,0:2:0:0:
151,238,156825,2,0,L|213:234,1,47.5200011601563,8|0,0:2|0:2,0:0:0:0:
252,180,157119,2,0,L|301:183,1,47.5200011601563,0|0,1:2|0:2,0:0:0:0:
360,137,157413,6,0,L|356:29,2,95.0400023203126,0|0|8,1:2|1:2|0:2,0:2:0:0:
422,191,158149,1,0,0:0:0:0:
422,191,158296,2,0,L|418:254,1,47.5200011601563,0|0,1:2|0:2,0:0:0:0:
364,288,158590,6,0,P|310:269|264:288,1,95.0400023203126,0|0,1:2|1:2,0:2:0:0:
259,292,159178,2,0,L|209:295,1,47.5200011601563,8|0,0:2|0:0,0:0:0:0:
151,250,159472,2,0,P|143:226|151:188,1,47.5200011601563,0|0,1:2|0:2,0:0:0:0:
201,137,159766,6,0,B|244:133|244:133|267:145|267:145|310:141,1,95.0400023203126,0|0,1:2|1:2,0:2:0:0:
399,32,160355,2,0,B|368:34|368:34|345:23|345:23|302:27,1,95.0400023203126,8|0,0:2|1:2,0:2:0:0:
166,60,160943,6,0,P|131:87|117:151,1,95.0400023203126,0|0,1:2|1:2,0:2:0:0:
325,219,161531,2,0,P|362:187|375:140,1,95.0400023203126,8|0,0:2|1:2,0:0:0:0:
201,137,162119,5,12,0:2:0:0:
151,207,162266,2,0,L|155:281,1,54.1200008258057,8|0,0:2|1:2,0:0:0:0:
306,339,162708,2,0,P|358:354|407:328,1,108.240001651611,0|8,1:2|0:2,0:0:0:0:
352,277,163149,1,8,0:2:0:0:
352,277,163222,1,8,0:2:0:0:
352,277,163296,1,0,1:2:0:0:
294,118,163590,6,0,L|224:114,1,54.1200008258057,0|8,1:2|0:2,0:0:0:0:
174,60,163884,2,0,L|117:62,2,54.1200008258057,8|8|0,0:2|0:2|1:2,0:0:0:0:
65,133,164325,1,8,0:2:0:0:
65,133,164398,1,8,0:2:0:0:
65,133,164472,1,4,1:2:0:0:
189,250,164766,5,8,0:2:0:0:
255,304,164913,2,0,L|325:300,1,54.1200008258057,8|0,0:2|1:2,0:0:0:0:
469,238,165355,2,0,L|399:234,1,54.1200008258057,8|8,0:2|0:2,0:0:0:0:
345,184,165649,6,0,L|341:60,1,108.240001651611,4|8,1:2|0:2,0:0:0:0:
391,5,166090,1,8,0:2:0:0:
391,5,166163,1,8,0:2:0:0:
391,5,166237,1,4,1:2:0:0:
236,75,166531,2,0,L|240:137,1,54.1200008258057,8|8,0:2|0:2,0:0:0:0:
244,160,166752,1,8,0:2:0:0:
244,160,166825,1,4,1:2:0:0:
341,300,167119,5,8,0:2:0:0:
275,354,167266,2,0,L|201:351,1,54.1200008258057,8|0,0:2|1:2,0:0:0:0:
65,296,167708,1,0,1:2:0:0:
65,296,167855,1,8,0:2:0:0:
139,260,168002,6,0,L|143:191,1,60.71999796167,0|8,1:2|0:2,0:0:0:0:
81,136,168296,2,0,L|78:72,1,60.71999796167,0|8,1:2|0:2,0:0:0:0:
131,8,168590,2,0,P|166:0|205:12,1,60.71999796167,0|8,1:2|0:2,0:0:0:0:
228,78,168885,2,0,L|232:144,1,60.71999796167,0|8,1:2|0:2,0:0:0:0:
263,171,169105,1,8,0:2:0:0:
263,171,169179,6,0,L|260:234,1,60.71999796167,4|8,1:2|0:2,0:0:0:0:
306,303,169472,2,0,P|341:311|380:299,1,60.71999796167,0|8,1:2|0:2,0:0:0:0:
414,241,169767,1,0,1:2:0:0:
376,152,169914,2,0,L|333:148,4,30.359998980835,8|8|8|8|8,0:2|0:2|0:2|0:2|0:2,0:0:0:0:
444,116,171384,6,0,B|382:108|382:108|352:127|352:127|277:120,1,147.840001804688,6|0,1:2|1:2,0:2:0:0:
218,176,171825,2,0,P|191:232|224:316,1,147.840001804688,10|0,0:2|1:2,0:2:0:0:
316,334,172266,1,0,1:2:0:0:
356,244,172413,1,10,0:2:0:0:
216,306,172708,6,0,L|140:306,1,73.9200009023438,2|0,1:2|1:2,0:0:0:0:
70,248,173001,2,0,P|59:206|70:168,1,73.9200009023438,10|0,0:2|0:2,0:2:0:0:
130,100,173296,2,0,L|206:100,1,73.9200009023438,2|0,1:2|1:2,0:0:0:0:
285,48,173589,1,10,0:2:0:0:
368,100,173736,6,0,L|380:258,1,147.840001804688,6|0,1:2|1:2,0:2:0:0:
386,336,174178,1,10,0:2:0:0:
249,232,174472,2,0,L|244:155,1,73.9200009023438,0|0,1:2|1:2,0:0:0:0:
134,168,174766,2,0,L|138:248,1,73.9200009023438,10|2,0:2|0:2,0:0:0:0:
14,296,175060,6,0,B|93:274|86:342|164:322,2,147.840001804688,2|10|2,1:2|0:2|1:2,0:2:0:0:
48,206,175795,1,0,1:2:0:0:
48,206,175942,1,10,0:2:0:0:
134,168,176089,6,0,B|194:168|194:168|221:191|221:191|296:191,1,147.840001804688,6|0,1:2|1:2,0:2:0:0:
346,262,176531,1,10,0:2:0:0:
488,188,176825,2,0,P|496:146|480:108,1,73.9200009023438,2|0,1:2|1:2,0:0:0:0:
402,70,177119,2,0,L|326:73,1,73.9200009023438,10|0,0:2|0:2,0:0:0:0:
244,124,177413,6,0,P|228:157|234:193,1,73.9200009023438,2|0,1:2|1:2,0:0:0:0:
221,288,177707,2,0,L|134:286,1,73.9200009023438,10|0,0:2|0:2,0:0:0:0:
74,222,178001,2,0,P|40:150|70:90,1,147.840001804688,2|10,1:2|0:2,0:0:0:0:
168,44,178443,6,0,B|228:44|228:44|255:67|255:67|330:67,1,147.840001804688,6|2,1:2|1:2,0:2:0:0:
390,124,178884,1,10,0:2:0:0:
390,124,179031,1,2,0:2:0:0:
326,194,179178,2,0,L|322:274,2,73.9200009023438,2|2|10,1:2|1:2|0:2,0:0:0:0:
248,138,179619,1,2,0:2:0:0:
188,218,179766,6,0,P|120:214|59:282,1,147.840001804688,2|8,1:2|0:2,0:2:0:0:
154,312,180208,2,0,L|150:352,2,36.9600004511719,8|8|0,0:2|0:2|1:2,0:0:0:0:
252,296,180502,1,8,0:2:0:0:
252,296,180575,1,8,0:2:0:0:
252,296,180649,1,8,0:2:0:0:
322,360,180796,6,0,P|390:364|450:296,1,147.840001804688,6|0,1:2|1:2,0:2:0:0:
424,218,181237,2,0,B|364:210|364:210|334:228|334:228|258:223,1,147.840001804688,10|0,0:2|1:2,0:2:0:0:
184,206,181679,1,0,1:2:0:0:
120,134,181825,1,10,0:2:0:0:
198,14,182120,6,0,L|274:14,1,73.9200009023438,2|0,1:2|1:2,0:2:0:0:
352,70,182413,2,0,P|363:105|355:142,1,73.9200009023438,10|0,0:2|0:2,0:2:0:0:
285,210,182708,2,0,P|274:245|282:282,1,73.9200009023438,2|0,1:2|1:2,0:0:0:0:
353,354,183002,1,10,0:2:0:0:
250,370,183149,6,0,P|171:377|109:322,1,147.840001804688,6|0,1:2|1:2,0:2:0:0:
93,237,183590,1,10,0:2:0:0:
212,90,183884,2,0,P|254:96|293:127,1,73.9200009023438,0|0,1:2|1:2,0:0:0:0:
285,210,184179,2,0,L|278:300,1,73.9200009023438,10|2,0:2|0:2,0:0:0:0:
296,368,184473,6,0,B|218:380|232:320|157:332,2,147.840001804688,2|10|2,1:2|0:2|1:2,0:2:0:0:
376,308,185208,1,0,1:2:0:0:
376,308,185355,1,10,0:2:0:0:
444,236,185502,6,0,B|444:176|444:176|420:150|420:150|420:74,1,147.840001804688,6|0,1:2|1:2,0:2:0:0:
352,26,185943,1,10,0:2:0:0:
221,94,186238,2,0,L|146:96,1,73.9200009023438,2|0,1:2|1:2,0:0:0:0:
67,154,186532,2,0,P|53:189|59:224,1,73.9200009023438,10|0,0:2|0:2,0:0:0:0:
134,286,186825,6,0,L|209:282,1,73.9200009023438,2|0,1:2|1:2,0:0:0:0:
282,346,187119,2,0,L|355:350,1,73.9200009023438,10|0,0:2|0:0,0:0:0:0:
428,282,187414,2,0,L|420:131,1,147.840001804688,2|10,1:2|0:2,0:0:0:0:
352,60,187855,6,0,P|286:31|222:64,1,147.840001804688,6|0,1:2|1:2,0:2:0:0:
161,138,188297,1,10,0:2:0:0:
312,252,188590,2,0,P|325:217|322:180,1,73.9200009023438,2|0,1:2|1:2,0:2:0:0:
236,134,188884,2,0,L|161:137,1,73.9200009023438,10|0,0:2|0:0,0:0:0:0:
100,214,189179,5,0,1:2:0:0:
100,214,189326,1,0,1:2:0:0:
146,300,189473,2,0,L|232:296,1,73.9200009023438,10|10,0:2|0:2,0:0:0:0:
312,252,189766,2,0,L|386:255,1,73.9200009023438,2|8,1:2|0:2,0:0:0:0:
462,194,190061,2,0,L|465:158,3,36.9600004511719,10|8|8|4,0:2|0:2|3:2|3:2,0:0:0:0:
450,124,190355,5,4,1:2:0:0:
292,70,190649,2,0,P|218:37|142:72,2,147.840001804688,2|10|0,1:2|0:2|1:2,0:2:0:0:
221,138,191385,1,8,0:2:0:0:
221,138,191532,6,0,L|219:213,1,73.9200009023438,0|8,1:2|0:2,0:0:0:0:
164,292,191825,2,0,P|90:326|17:287,2,147.840001804688,2|10|0,1:2|0:2|1:2,0:2:0:0:
97,232,192561,1,8,0:2:0:0:
97,232,192708,6,0,L|100:158,1,73.9200009023438,0|8,1:2|0:2,0:0:0:0:
157,78,193002,2,0,P|192:68|228:76,1,73.9200009023438,2|0,1:2|0:2,0:0:0:0:
308,134,193297,2,0,P|350:142|386:127,1,73.9200009023438,10|0,0:2|0:0,0:2:0:0:
447,60,193591,1,2,1:2:0:0:
488,146,193738,6,0,L|476:317,1,147.840001804688,10|10,0:2|0:2,0:2:0:0:
398,350,194179,1,2,1:2:0:0:
221,270,194473,2,0,L|147:264,1,73.9200009023438,10|8,0:2|0:2,0:0:0:0:
90,168,194767,2,0,L|176:161,1,73.9200009023438,0|8,1:2|0:2,0:0:0:0:
252,82,195061,5,4,1:2:0:0:
465,40,196384,5,8,0:2:0:0:
414,110,196531,2,0,L|411:188,1,54.1200008258057,10|8,3:2|3:2,0:0:0:0:
356,230,196825,2,0,P|325:238|286:226,1,54.1200008258057,10|0,0:2|1:2,0:0:0:0:
236,184,197119,1,10,0:2:0:0:
162,126,197266,6,0,P|112:106|38:149,1,121.43999592334,4|0,1:2|0:2,0:2:0:0:
11,215,197708,2,0,L|7:288,1,60.71999796167,2|0,1:2|0:2,0:2:0:0:
65,347,198002,1,10,0:2:0:0:
81,370,198296,2,0,L|162:366,1,60.71999796167,0|0,1:2|0:2,0:2:0:0:
205,300,198590,6,0,L|268:303,1,60.71999796167,0|0,1:2|0:0,0:2:0:0:
345,257,198884,2,0,P|356:223|349:184,1,60.71999796167,2|0,1:2|0:2,0:0:0:0:
306,122,199178,1,10,0:2:0:0:
286,106,199472,2,0,L|222:102,1,60.71999796167,0|0,1:2|0:2,0:2:0:0:
162,40,199766,6,0,B|182:87|182:87|147:164,1,121.43999592334,0|2,1:2|1:2,0:2:0:0:
77,199,200208,1,2,0:2:0:0:
77,199,200355,2,0,P|123:238|201:223,1,121.43999592334,10|2,0:2|1:2,0:0:0:0:
263,273,200796,1,2,0:2:0:0:
263,273,200943,6,0,L|399:265,1,121.43999592334,0|2,1:2|1:2,0:0:0:0:
453,203,201384,1,2,0:2:0:0:
453,203,201531,2,0,L|457:129,1,60.71999796167,10|0,0:2|0:2,0:0:0:0:
372,110,201825,2,0,L|368:36,1,60.71999796167,2|0,1:2|0:0,0:2:0:0:
453,5,202119,5,4,1:2:0:0:
100,60,203296,5,8,0:2:0:0:
100,60,203443,1,8,3:2:0:0:
155,122,203590,2,0,L|158:191,1,60.71999796167,0|0,1:2|1:2,0:0:0:0:
96,238,203884,2,0,L|92:308,1,60.71999796167,8|8,0:2|0:2,0:0:0:0:
151,358,204178,1,0,0:0:0:0:
228,289,204325,6,0,B|304:266|300:338|382:312,1,147.840001804688,6|0,1:2|1:2,0:2:0:0:
436,244,204766,2,0,L|440:161,1,73.9200009023438,10|0,0:2|1:2,0:0:0:0:
346,150,205060,2,0,L|342:67,1,73.9200009023438,10|0,0:2|1:2,0:0:0:0:
275,5,205355,1,14,0:2:0:0:
116,74,205649,6,0,L|112:149,1,73.9200009023438,10|0,0:2|0:0,0:0:0:0:
188,210,205943,2,0,P|224:199|278:222,1,73.9200009023438,10|0,0:2|1:2,0:2:0:0:
288,229,206163,1,8,0:2:0:0:
288,229,206237,2,0,L|285:303,1,73.9200009023438,14|0,0:2|1:2,0:0:0:0:
206,356,206531,2,0,P|168:368|116:346,1,73.9200009023438,10|0,0:2|1:2,0:0:0:0:
66,293,206825,6,0,B|70:232|70:232|48:202|48:202|52:138,1,147.840001804688,10|14,0:2|0:2,0:0:0:0:
108,71,207266,1,0,1:2:0:0:
172,142,207413,2,0,L|254:138,1,73.9200009023438,10|0,0:2|1:2,0:0:0:0:
288,48,207708,1,10,0:2:0:0:
447,124,208002,6,0,L|443:293,1,147.840001804688,14|10,0:2|0:2,0:0:0:0:
372,338,208443,1,0,1:2:0:0:
308,266,208590,2,0,L|232:262,1,73.9200009023438,10|0,0:2|1:2,0:0:0:0:
194,172,208884,2,0,L|120:175,1,73.9200009023438,14|0,0:2|1:2,0:0:0:0:
44,236,209178,6,0,P|33:278|48:326,1,73.9200009023438,10|0,0:2|1:2,0:0:0:0:
127,350,209472,2,0,L|201:346,1,73.9200009023438,10|0,0:2|1:2,0:0:0:0:
224,326,209693,1,8,0:2:0:0:
224,326,209766,2,0,L|299:329,1,73.9200009023438,14|0,0:2|1:2,0:0:0:0:
392,307,210060,1,10,0:2:0:0:
304,176,210355,6,0,L|218:172,1,73.9200009023438,10|0,0:2|1:2,0:0:0:0:
138,142,210649,2,0,P|127:106|131:70,1,73.9200009023438,14|0,0:2|1:2,0:0:0:0:
218,22,210943,2,0,L|304:18,1,73.9200009023438,10|0,0:2|1:2,0:0:0:0:
352,94,211237,2,0,L|427:96,1,73.9200009023438,10|0,0:2|1:2,0:0:0:0:
499,173,211531,5,10,0:2:0:0:
440,235,211678,2,0,L|335:227,1,95.0400023203126,6|2,1:2|0:2,0:0:0:0:
279,281,212119,2,0,L|213:281,1,47.5200011601563,2|0,0:2|0:2,0:2:0:0:
166,226,212413,1,2,0:2:0:0:
15,149,212708,5,2,0:2:0:0:
77,91,212855,2,0,L|182:98,1,95.0400023203126,2|2,0:2|0:2,0:2:0:0:
240,44,213296,2,0,L|306:44,1,47.5200011601563,2|0,0:2|0:2,0:2:0:0:
352,98,213590,1,2,0:2:0:0:
438,246,213884,5,2,0:2:0:0:
376,304,214031,2,0,P|325:316|273:291,1,95.0400023203126,2|2,0:2|0:2,0:2:0:0:
232,234,214472,2,0,L|236:176,1,47.5200011601563,2|0,0:2|0:2,0:2:0:0:
193,110,214766,1,2,0:2:0:0:
61,215,215060,5,10,0:2:0:0:
61,215,215208,1,2,1:2:0:0:
