osu file format v14

[General]
AudioFilename: audio.mp3
AudioLeadIn: 0
PreviewTime: -1
Countdown: 1
SampleSet: None
StackLeniency: 0.7
Mode: 0
LetterboxInBreaks: 0
WidescreenStoryboard: 0

[Editor]
DistanceSpacing: 1.5
BeatDivisor: 4
GridSize: 8
TimelineZoom: 4.099998

[Metadata]
Title:Sora Ni Utaeba
TitleUnicode:空に歌えば
Artist:amazarashi
ArtistUnicode:amazarashi
Creator:Rachneru
Version:Plus Ultra!!
Source:僕のヒーローアカデミア 2ndシーズン
Tags:
BeatmapID:1432291
BeatmapSetID:677190

[Difficulty]
HPDrainRate:5.5
CircleSize:4
OverallDifficulty:8.5
ApproachRate:9.6
SliderMultiplier:1.5
SliderTickRate:1

[Events]
//Background and Video events
//Break Periods
//Storyboard Layer 0 (Background)
//Storyboard Layer 1 (Fail)
//Storyboard Layer 2 (Pass)
//Storyboard Layer 3 (Foreground)
//Storyboard Sound Samples

[TimingPoints]
763,294.117647058824,4,2,0,50,1,0
1792,-200,4,2,0,50,0,0
6498,-133.333333333333,4,2,0,50,0,0
11351,-117.647058823529,4,2,0,50,0,0
18263,-86.9565217391304,4,2,0,50,0,0

[HitObjects]
123,35,615,5,0,0:0:0:0:
148,145,763,1,0,0:0:0:0:
117,156,1057,1,0,0:0:0:0:
86,167,1351,1,0,0:0:0:0:
55,178,1645,1,0,0:0:0:0:
250,41,1792,6,0,P|307:45|371:16,1,112.5
493,169,2527,2,0,P|483:133|485:92,1,75
369,257,3115,2,0,P|336:239|309:212,2,75
449,245,3998,1,0,0:0:0:0:
295,185,4145,6,0,P|230:181|179:201,1,112.5
19,141,4880,2,0,P|39:172|50:215,1,75
31,285,5321,1,0,0:0:0:0:
131,355,5468,2,0,P|141:319|161:287,2,75
239,262,6351,1,0,0:0:0:0:
344,349,6498,6,0,B|322:349|302:354|302:354|276:343|276:343|254:350|235:349,1,112.500004291535
380,227,6939,2,0,P|387:257|388:287,1,56.2500021457673
237,230,7233,6,0,P|238:201|245:174,1,56.2500021457673
459,150,7527,2,0,L|397:147,1,56.2500021457673
280,95,7821,6,0,P|275:71|275:38,1,56.2500021457673
376,0,8115,2,0,P|376:28|370:55,1,56.2500021457673
200,128,8410,6,0,L|137:124,2,56.2500021457673
1,209,8851,6,0,L|113:202,1,112.500004291535
192,261,9292,2,0,P|199:289|199:319,1,56.2500021457673
124,355,9586,6,0,L|63:352,1,56.2500021457673
224,259,9880,2,0,L|280:256,1,56.2500021457673
364,253,10174,1,0,0:0:0:0:
193,55,10468,6,0,P|193:83|198:110,1,56.2500021457673
249,175,10763,1,0,0:0:0:0:
282,68,10910,1,0,0:0:0:0:
141,208,11057,1,0,0:0:0:0:
90,15,11204,1,0,0:0:0:0:
276,197,11351,6,0,L|339:193,1,63.7500012159348
225,266,11645,2,0,P|217:297|218:328,1,63.7500012159348
419,215,11939,6,0,P|420:183|412:152,1,63.7500012159348
339,110,12233,1,0,0:0:0:0:
339,110,12380,1,0,0:0:0:0:
299,307,12527,6,0,L|363:312,1,63.7500012159348
240,238,12821,2,0,L|176:243,1,63.7500012159348
108,310,13115,6,0,P|99:340|99:374,1,63.7500012159348
192,358,13410,1,0,0:0:0:0:
192,358,13557,1,0,0:0:0:0:
21,256,13704,6,0,P|12:226|12:192,1,63.7500012159348
175,147,13998,2,0,P|184:177|184:211,1,63.7500012159348
245,99,14218,1,0,0:0:0:0:
245,99,14292,2,0,L|312:94,1,63.7500012159348
161,59,14586,1,0,0:0:0:0:
264,182,14733,6,0,L|328:186,1,63.7500012159348
238,68,15027,1,0,0:0:0:0:
153,172,15174,1,0,0:0:0:0:
163,26,15321,1,0,0:0:0:0:
282,210,15468,6,0,L|276:277,1,63.7500012159348
21,164,15763,2,0,P|54:154|83:153,1,63.7500012159348
85,360,16057,6,0,L|79:296,1,63.7500012159348
76,266,16277,1,0,0:0:0:0:
76,266,16351,1,0,0:0:0:0:
261,375,16498,6,0,P|230:385|200:385,1,63.7500012159348
215,289,16792,1,0,0:0:0:0:
359,379,16939,1,0,0:0:0:0:
365,210,17086,1,0,0:0:0:0:
276,346,17233,1,0,0:0:0:0:
270,177,17380,1,0,0:0:0:0:
443,343,17527,5,0,0:0:0:0:
185,284,17674,1,0,0:0:0:0:
155,279,18263,6,0,B|249:259|234:313|323:296,1,172.500003290176
190,378,18704,1,0,0:0:0:0:
291,196,18851,1,0,0:0:0:0:
124,289,18998,1,0,0:0:0:0:
351,283,19145,1,0,0:0:0:0:
