osu file format v14

[General]
AudioFilename: audio.mp3
AudioLeadIn: 0
PreviewTime: 46871
Countdown: 0
SampleSet: Soft
StackLeniency: 0.7
Mode: 0
LetterboxInBreaks: 0
WidescreenStoryboard: 1

[Editor]
DistanceSpacing: 0.9
BeatDivisor: 2
GridSize: 4
TimelineZoom: 1.9

[Metadata]
Title:Kyoukaisen (TV Size)
TitleUnicode:境界線 (TV Size)
Artist:amazarashi
ArtistUnicode:amazarashi
Creator:Soue
Version:Normal
Source:86―エイティシックス―
Tags:86 Eighty Six 2nd Season Japanese TV Anime Opening Second Two 2 Male Vocals J rock Jrock J-rock Vladilena Milizé Milize ヴラディレーナ・ミリーゼ Shinei Nouzen シンエイ・ノウゼン GodKei
BeatmapID:3253635
BeatmapSetID:1592522

[Difficulty]
HPDrainRate:3.6
CircleSize:3.2
OverallDifficulty:4
ApproachRate:4
SliderMultiplier:1.04
SliderTickRate:1

[Events]
//Background and Video events
0,0,"background.jpg",0,0
Video,48,"video.mp4"
//Break Periods
//Storyboard Layer 0 (Background)
//Storyboard Layer 1 (Fail)
//Storyboard Layer 2 (Pass)
//Storyboard Layer 3 (Foreground)
//Storyboard Layer 4 (Overlay)
//Storyboard Sound Samples

[TimingPoints]
749,320.855614973262,4,2,1,40,1,0
749,-111.111111111111,4,2,1,40,0,0
5561,-111.111111111111,4,2,1,5,0,0
5882,-111.111111111111,4,2,1,40,0,0
16150,-111.111111111111,4,2,1,50,0,0
26417,-111.111111111111,4,2,1,60,0,0
36684,-111.111111111111,4,2,1,60,0,0
45668,-111.111111111111,4,2,1,60,0,0
45989,-111.111111111111,4,2,1,60,0,0
46310,-111.111111111111,4,2,1,60,0,0
46952,-111.111111111111,4,2,1,70,0,1
67406,-111.111111111111,4,2,1,70,0,0
67486,-111.111111111111,4,2,1,70,0,1
86738,-111.111111111111,4,2,1,70,0,0
87540,-111.111111111111,4,2,1,60,0,0
87861,-111.111111111111,4,2,1,60,0,0

[Colours]
Combo1 : 188,99,241
Combo2 : 235,141,172
Combo3 : 175,226,226
Combo4 : 130,120,255

[HitObjects]
445,114,749,6,0,P|373:78|353:230,1,280.799991430664,2|0,3:2|3:2,0:0:0:0:
418,246,2032,2,0,B|309:269|309:269|277:309|277:309|155:336,1,280.799991430664,2|0,3:2|3:2,0:0:0:0:
91,381,3315,6,0,B|42:298|42:298|90:115,1,280.799991430664,2|0,3:2|3:2,0:0:0:0:
41,49,4599,2,0,B|112:-7|183:62|153:80|215:143|292:94,1,280.799991430664,2|0,3:2|0:0,0:0:0:0:
366,63,5882,6,0,B|403:103|403:103|387:194,2,140.399995715332,2|2|0,0:0|0:0|0:0,0:0:0:0:
288,96,7166,2,0,P|229:112|159:52,2,140.399995715332,2|2|0,0:0|0:0|0:0,0:0:0:0:
319,131,8289,5,2,0:0:0:0:
319,131,8449,2,0,L|307:222,1,93.5999971435548,2|2,0:0|0:0,0:0:0:0:
288,306,9091,2,0,P|247:329|194:315,1,93.5999971435548,2|2,0:0|0:0,0:0:0:0:
136,269,9732,2,0,B|121:226|121:226|137:179,1,93.5999971435548,2|2,0:0|0:0,0:0:0:0:
158,144,10214,2,0,B|173:101|173:101|157:54,1,93.5999971435548,2|0,0:0|0:0,0:0:0:0:
31,43,11016,6,0,P|7:98|42:167,2,140.399995715332,2|2|0,0:0|0:0|0:0,0:0:0:0:
113,61,12299,2,0,B|166:49|166:49|185:28|185:28|245:17,2,140.399995715332,2|2|0,0:0|0:0|0:0,0:0:0:0:
97,102,13422,5,2,0:0:0:0:
97,102,13583,2,0,L|120:200,1,93.5999971435548,2|2,0:0|0:0,0:0:0:0:
151,270,14224,2,0,P|194:285|238:267,1,93.5999971435548,2|2,0:0|0:0,0:0:0:0:
321,264,14866,2,0,B|338:218|338:218|316:168,1,93.5999971435548,2|2,0:0|0:0,0:0:0:0:
300,139,15347,2,0,B|283:93|283:93|305:43,1,93.5999971435548,2|0,0:0|0:0,0:0:0:0:
427,53,16150,6,0,P|448:88|429:153,1,93.5999971435548,2|8,3:2|0:0,0:0:0:0:
424,177,16631,2,0,L|444:281,1,93.5999971435548,2|8,3:2|0:0,0:0:0:0:
386,333,17273,1,2,3:2:0:0:
386,333,17433,2,0,B|344:355|344:355|297:343,1,93.5999971435548,2|8,1:2|0:0,0:0:0:0:
260,326,17914,2,0,B|215:314|215:314|173:336,1,93.5999971435548,2|8,3:2|0:0,0:0:0:0:
103,298,18556,5,2,0:0:0:0:
103,298,18716,2,0,P|81:251|90:210,2,93.5999971435548,2|10|2,3:2|0:0|0:0,0:0:0:0:
178,329,19679,1,2,0:0:0:0:
253,292,20000,2,0,L|343:314,1,93.5999971435548,2|10,1:2|0:0,0:0:0:0:
382,297,20481,2,0,P|400:254|381:197,1,93.5999971435548,2|8,3:2|0:0,0:0:0:0:
450,98,21283,6,0,B|418:119|418:119|342:98,1,93.5999971435548,2|10,3:2|0:0,0:0:0:0:
335,72,21765,2,0,P|290:53|237:76,1,93.5999971435548,2|8,3:2|0:0,0:0:0:0:
193,129,22406,1,2,3:2:0:0:
193,129,22567,2,0,L|219:242,1,93.5999971435548,2|8,1:2|0:0,0:0:0:0:
200,260,23048,2,0,P|153:282|111:264,1,93.5999971435548,2|8,3:2|0:0,0:0:0:0:
50,224,23690,5,2,0:0:0:0:
50,224,23850,2,0,B|30:262|30:262|48:320,2,93.5999971435548,2|10|2,3:2|0:0|0:0,0:0:0:0:
93,151,24813,1,2,0:0:0:0:
146,86,25134,1,2,1:2:0:0:
146,86,25294,2,0,L|240:72,1,93.5999971435548,2|2,1:2|3:2,0:0:0:0:
262,106,25775,2,0,L|309:112,1,46.7999985717774,2|8,1:2|0:0,0:0:0:0:
341,86,26096,1,10,0:0:0:0:
411,132,26417,6,0,P|431:169|419:221,1,93.5999971435548,4|0,1:2|0:0,0:0:0:0:
389,245,26898,2,0,L|288:257,1,93.5999971435548,8|0,0:0|1:2,0:0:0:0:
254,265,27380,1,10,0:0:0:0:
196,325,27700,2,0,P|174:337|148:333,1,46.7999985717774,2|0,3:2|1:2,0:0:0:0:
119,360,28021,2,0,P|97:346|88:322,1,46.7999985717774,2|8,1:2|0:0,0:0:0:0:
59,297,28342,2,0,L|70:204,1,93.5999971435548,2|10,0:0|0:0,0:0:0:0:
24,132,28984,6,0,B|68:112|68:112|113:129,1,93.5999971435548,4|0,1:2|0:0,0:0:0:0:
147,147,29465,2,0,B|191:167|191:167|236:150,1,93.5999971435548,8|0,0:0|1:2,0:0:0:0:
272,135,29946,1,10,0:0:0:0:
332,193,30267,2,0,P|354:205|380:201,1,46.7999985717774,2|0,3:2|1:2,0:0:0:0:
409,228,30588,2,0,P|430:214|439:190,1,46.7999985717774,2|8,0:0|0:0,0:0:0:0:
469,165,30909,2,0,L|458:72,1,93.5999971435548,2|10,0:0|0:0,0:0:0:0:
381,36,31551,6,0,P|331:21|290:43,1,93.5999971435548,4|0,1:2|0:0,0:0:0:0:
267,68,32032,2,0,P|217:83|176:61,1,93.5999971435548,8|0,0:0|1:2,0:0:0:0:
155,32,32513,1,10,0:0:0:0:
79,68,32834,2,0,B|62:115|62:115|81:154,1,93.5999971435548,2|2,3:2|0:0,0:0:0:0:
106,188,33315,1,10,0:0:0:0:
106,188,33476,1,2,0:0:0:0:
60,258,33797,1,10,0:0:0:0:
115,320,34117,6,0,L|207:299,1,93.5999971435548,6|0,1:2|0:0,0:0:0:0:
285,329,34759,2,0,L|295:375,2,46.7999985717774,2|2|10,0:0|1:2|0:0,0:0:0:0:
308,294,35240,1,2,3:2:0:0:
308,294,35401,2,0,P|313:266|301:247,1,46.7999985717774,2|0,3:2|1:2,0:0:0:0:
270,225,35722,1,2,0:0:0:0:
207,168,36043,2,0,P|202:140|214:121,1,46.7999985717774,2|0,0:0|1:2,0:0:0:0:
240,95,36363,1,10,0:0:0:0:
312,51,36684,6,0,L|420:38,1,93.5999971435548,6|0,1:2|1:2,0:0:0:0:
471,91,37326,1,10,0:0:0:0:
429,164,37647,1,2,1:2:0:0:
478,232,37968,2,0,L|491:340,2,93.5999971435548,2|2|10,1:2|1:2|0:0,0:0:0:0:
429,164,38930,2,0,P|398:159|373:168,1,46.7999985717774,2|0,1:2|3:2,0:0:0:0:
345,180,39251,6,0,B|324:138|324:138|339:93,2,93.5999971435548,6|0|8,1:2|1:2|0:0,0:0:0:0:
299,251,40214,2,0,L|248:243,1,46.7999985717774,2|0,1:2|0:0,0:0:0:0:
210,238,40535,1,2,1:2:0:0:
144,290,40855,1,2,1:2:0:0:
68,251,41176,1,10,0:0:0:0:
68,166,41497,2,0,L|76:112,1,46.7999985717774,2|4,1:2|0:3,0:0:0:0:
80,77,41818,6,0,P|40:82|-1:47,2,93.5999971435548,6|0|8,1:2|1:2|0:0,0:0:0:0:
149,28,42781,2,0,P|170:20|199:24,1,46.7999985717774,2|0,1:2|0:0,0:0:0:0:
226,49,43101,1,2,1:2:0:0:
289,104,43422,2,0,L|278:156,1,46.7999985717774,2|2,1:2|0:0,0:0:0:0:
269,190,43743,1,10,0:0:0:0:
325,252,44064,1,2,1:2:0:0:
402,217,44385,6,0,L|421:124,1,93.5999971435548,2|0,1:2|1:2,0:0:0:0:
442,43,45027,1,10,0:0:0:0:
366,5,45347,1,2,1:2:0:0:
296,52,45668,1,2,1:2:0:0:
217,20,45989,2,0,L|165:10,1,46.7999985717774,2|0,1:2|1:2,0:0:0:0:
136,31,46310,1,10,0:0:0:0:
136,31,46470,1,8,0:0:0:0:
39,113,46952,6,0,B|29:135|29:135|39:159,1,46.7999985717774,6|0,1:2|1:2,0:0:0:0:
65,187,47273,1,10,0:0:0:0:
30,263,47593,1,2,1:2:0:0:
83,328,47914,2,0,L|133:319,1,46.7999985717774,10|2,0:0|0:0,0:0:0:0:
156,287,48235,2,0,L|206:296,1,46.7999985717774,2|0,1:2|1:2,0:0:0:0:
231,325,48556,1,10,0:0:0:0:
300,277,48877,2,0,L|291:221,2,46.7999985717774,2|0|10,1:2|1:2|0:0,0:0:0:0:
367,327,49519,6,0,P|412:340|455:316,2,93.5999971435548,2|8|0,1:2|0:0|1:2,0:0:0:0:
300,277,50481,1,10,0:0:0:0:
335,200,50802,2,0,L|342:153,1,46.7999985717774,2|0,1:2|1:2,0:0:0:0:
311,124,51123,1,10,0:0:0:0:
251,63,51444,2,0,L|204:70,2,46.7999985717774,2|0|10,1:2|1:2|0:0,0:0:0:0:
322,16,52085,6,0,P|369:2|417:26,2,93.5999971435548,6|8|0,1:2|0:0|1:2,0:0:0:0:
251,63,53048,1,10,0:0:0:0:
175,24,53369,2,0,L|128:16,1,46.7999985717774,2|0,1:2|1:2,0:0:0:0:
96,43,53690,1,10,0:0:0:0:
22,84,54011,2,0,P|13:58|16:27,2,46.7999985717774,2|0|10,1:2|1:2|0:0,0:0:0:0:
86,137,54652,6,0,B|133:152|133:152|176:131,2,93.5999971435548,2|8|0,1:2|0:0|1:2,0:0:0:0:
22,84,55615,1,10,0:0:0:0:
96,43,55936,2,0,L|150:37,1,46.7999985717774,2|0,1:2|1:2,0:0:0:0:
184,35,56257,1,10,0:0:0:0:
255,79,56577,2,0,L|311:73,1,46.7999985717774,2|0,1:2|1:2,0:0:0:0:
328,41,56898,2,0,L|384:47,1,46.7999985717774,10|8,0:0|0:0,0:0:0:0:
416,54,57219,6,0,P|426:100|409:145,1,93.5999971435548,6|8,1:2|0:0,0:0:0:0:
353,206,57861,2,0,L|369:312,1,93.5999971435548,2|10,1:2|0:0,0:0:0:0:
350,339,58342,1,2,0:0:0:0:
350,339,58503,2,0,P|311:363|255:352,1,93.5999971435548,2|10,1:2|0:0,0:0:0:0:
226,341,58984,1,2,0:0:0:0:
152,381,59305,2,0,B|138:335|138:335|160:286,1,93.5999971435548,2|0,1:2|0:0,0:0:0:0:
178,257,59786,6,0,L|166:146,1,93.5999971435548,2|8,1:2|0:0,0:0:0:0:
225,102,60428,2,0,L|230:55,2,46.7999985717774,2|2|10,1:2|1:2|0:0,0:0:0:0:
252,134,60909,1,2,0:0:0:0:
252,134,61069,2,0,P|294:151|341:128,1,93.5999971435548,2|10,1:2|0:0,0:0:0:0:
392,70,61711,2,0,P|420:59|450:67,1,46.7999985717774,2|0,1:2|1:2,0:0:0:0:
472,82,62032,1,10,0:0:0:0:
490,164,62353,6,0,L|478:269,1,93.5999971435548,6|8,1:2|0:0,0:0:0:0:
466,340,62994,1,2,1:2:0:0:
389,369,63315,1,10,0:0:0:0:
389,369,63476,1,2,0:0:0:0:
389,369,63636,2,0,L|291:357,1,93.5999971435548,2|10,1:2|0:0,0:0:0:0:
254,352,64117,1,2,0:0:0:0:
172,372,64438,1,2,1:2:0:0:
90,348,64759,5,2,0:0:0:0:
90,348,64920,2,0,P|71:303|85:257,1,93.5999971435548,0|8,1:2|0:0,0:0:0:0:
141,201,65561,2,0,L|132:142,2,46.7999985717774,2|2|10,1:2|1:2|0:0,0:0:0:0:
171,230,66043,1,2,0:0:0:0:
171,230,66203,2,0,B|214:244|214:244|261:220,1,93.5999971435548,2|10,1:2|0:0,0:0:0:0:
294,201,66684,2,0,B|337:178|337:178|380:192,1,93.5999971435548,2|10,0:0|0:0,0:0:0:0:
418,210,67166,1,8,0:0:0:0:
467,142,67486,6,0,P|482:91|470:54,1,93.5999971435548,6|10,1:2|0:0,0:0:0:0:
395,14,68128,2,0,L|341:22,1,46.7999985717774,2|2,1:2|1:2,0:0:0:0:
307,30,68449,1,10,0:0:0:0:
238,78,68770,1,2,1:2:0:0:
159,48,69091,1,10,0:0:0:0:
84,87,69412,2,0,P|75:61|76:32,2,46.7999985717774,2|0|10,1:2|1:2|0:0,0:0:0:0:
127,159,70053,6,0,B|121:192|121:192|124:212|124:212|115:257,2,93.5999971435548,2|8|0,1:2|0:0|1:2,0:0:0:0:
198,113,71016,1,10,0:0:0:0:
266,162,71337,2,0,L|271:217,2,46.7999985717774,2|0|10,1:2|1:2|0:0,0:0:0:0:
319,96,71978,2,0,P|343:88|370:94,1,46.7999985717774,2|0,1:2|1:2,0:0:0:0:
398,115,72299,1,10,0:0:0:0:
466,163,72620,6,0,B|486:121|486:121|468:69,2,93.5999971435548,6|8|0,1:2|0:0|1:2,0:0:0:0:
421,235,73583,1,10,0:0:0:0:
466,306,73904,2,0,L|512:298,2,46.7999985717774,2|0|10,1:2|1:2|0:0,0:0:0:0:
405,364,74545,2,0,L|358:356,1,46.7999985717774,2|0,1:2|1:2,0:0:0:0:
317,348,74866,1,10,0:0:0:0:
245,291,75187,6,0,P|258:243|238:202,2,93.5999971435548,2|8|0,1:2|0:0|1:2,0:0:0:0:
177,342,76150,1,10,0:0:0:0:
100,306,76470,2,0,P|96:280|101:261,1,46.7999985717774,2|0,1:2|1:2,0:0:0:0:
131,231,76791,1,10,0:0:0:0:
168,155,77112,2,0,L|158:101,1,46.7999985717774,2|0,1:2|1:2,0:0:0:0:
197,89,77433,2,0,L|207:35,1,46.7999985717774,10|8,0:0|0:0,0:0:0:0:
169,19,77754,6,0,P|122:11|85:40,1,93.5999971435548,6|8,1:2|0:0,0:0:0:0:
44,112,78396,1,2,1:2:0:0:
44,112,78556,1,2,1:2:0:0:
44,112,78716,1,10,0:0:0:0:
82,187,79037,2,0,B|98:289,1,93.5999971435548,2|10,1:2|0:0,0:0:0:0:
106,320,79519,2,0,B|150:336|150:336|193:316,1,93.5999971435548,2|2,0:0|1:2,0:0:0:0:
229,295,80000,1,8,0:0:0:0:
301,251,80321,6,0,L|404:270,1,93.5999971435548,2|8,1:2|0:0,0:0:0:0:
459,216,80962,1,2,1:2:0:0:
501,144,81283,1,10,0:0:0:0:
501,144,81444,1,2,0:0:0:0:
501,144,81604,1,2,1:2:0:0:
449,70,81925,1,10,0:0:0:0:
377,25,82246,2,0,L|330:17,1,46.7999985717774,2|0,1:2|1:2,0:0:0:0:
289,8,82567,1,10,0:0:0:0:
207,28,82888,6,0,P|192:71|205:119,1,93.5999971435548,6|8,1:2|0:0,0:0:0:0:
162,189,83529,2,0,L|110:201,2,46.7999985717774,2|2|10,1:2|1:2|0:0,0:0:0:0:
195,221,84011,1,2,0:0:0:0:
195,221,84171,2,0,B|243:233|243:233|284:212,1,93.5999971435548,2|10,1:2|0:0,0:0:0:0:
321,196,84652,1,2,0:0:0:0:
391,241,84973,1,2,1:2:0:0:
460,191,85294,5,2,0:0:0:0:
460,191,85454,2,0,P|478:233|465:288,1,93.5999971435548,0|0,1:2|1:2,0:0:0:0:
410,338,86096,2,0,L|422:387,2,46.7999985717774,2|10|2,1:2|0:0|1:2,0:0:0:0:
374,326,86577,1,10,0:0:0:0:
374,326,86738,2,0,L|280:348,1,93.5999971435548,2|10,1:2|0:0,0:0:0:0:
243,361,87219,1,2,1:2:0:0:
170,318,87540,1,2,0:0:0:0:
