osu file format v14

[General]
AudioFilename: audio.mp3
AudioLeadIn: 0
PreviewTime: 46871
Countdown: 0
SampleSet: Soft
StackLeniency: 0.7
Mode: 0
LetterboxInBreaks: 0
WidescreenStoryboard: 1

[Editor]
DistanceSpacing: 1.5
BeatDivisor: 4
GridSize: 4
TimelineZoom: 1.9

[Metadata]
Title:Kyoukaisen (TV Size)
TitleUnicode:境界線 (TV Size)
Artist:amazarashi
ArtistUnicode:amazarashi
Creator:Soue
Version:Hard
Source:86―エイティシックス―
Tags:86 Eighty Six 2nd Season Japanese TV Anime Opening Second Two 2 Male Vocals J rock Jrock J-rock Vladilena Milizé Milize ヴラディレーナ・ミリーゼ Shinei Nouzen シンエイ・ノウゼン GodKei
BeatmapID:3253470
BeatmapSetID:1592522

[Difficulty]
HPDrainRate:4.6
CircleSize:3.6
OverallDifficulty:7
ApproachRate:7
SliderMultiplier:1.34
SliderTickRate:1

[Events]
//Background and Video events
0,0,"background.jpg",0,0
Video,48,"video.mp4"
//Break Periods
//Storyboard Layer 0 (Background)
//Storyboard Layer 1 (Fail)
//Storyboard Layer 2 (Pass)
//Storyboard Layer 3 (Foreground)
//Storyboard Layer 4 (Overlay)
//Storyboard Sound Samples

[TimingPoints]
749,320.855614973262,4,2,1,40,1,0
749,-250.000000000001,4,2,1,40,0,0
5561,-250.000000000001,4,2,1,5,0,0
5882,-166.666666666667,4,2,1,40,0,0
16150,-142.857142857143,4,2,1,50,0,0
26417,-111.111111111111,4,2,1,60,0,0
36604,-111.111111111111,4,2,1,5,0,0
36684,-142.857142857143,4,2,1,60,0,0
45668,-125,4,2,1,60,0,0
45989,-111.111111111111,4,2,1,60,0,0
46310,-100,4,2,1,60,0,0
46952,-90.909090909091,4,2,1,70,0,1
48476,-90.909090909091,4,2,1,5,0,1
48556,-90.909090909091,4,2,1,70,0,1
49117,-90.909090909091,4,2,1,5,0,1
49198,-90.909090909091,4,2,1,70,0,1
52005,-90.909090909091,4,2,1,5,0,1
52085,-90.909090909091,4,2,1,70,0,1
54572,-90.909090909091,4,2,1,5,0,1
54652,-90.909090909091,4,2,1,70,0,1
57460,-90.909090909091,4,2,1,5,0,1
57540,-90.909090909091,4,2,1,70,0,1
60027,-90.909090909091,4,2,1,5,0,1
60107,-90.909090909091,4,2,1,70,0,1
61310,-90.909090909091,4,2,1,5,0,1
61390,-90.909090909091,4,2,1,70,0,1
61952,-90.909090909091,4,2,1,5,0,1
62032,-90.909090909091,4,2,1,70,0,1
67406,-90.909090909091,4,2,1,70,0,0
67486,-90.909090909091,4,2,1,70,0,1
67727,-90.909090909091,4,2,1,5,0,1
67807,-90.909090909091,4,2,1,70,0,1
68690,-90.909090909091,4,2,1,5,0,1
68770,-90.909090909091,4,2,1,70,0,1
69331,-90.909090909091,4,2,1,5,0,1
69412,-90.909090909091,4,2,1,70,0,1
72540,-90.909090909091,4,2,1,5,0,1
72620,-90.909090909091,4,2,1,70,0,1
75107,-90.909090909091,4,2,1,5,0,1
75187,-90.909090909091,4,2,1,70,0,1
77994,-90.909090909091,4,2,1,5,0,1
78075,-90.909090909091,4,2,1,70,0,1
78957,-90.909090909091,4,2,1,5,0,1
79037,-90.909090909091,4,2,1,70,0,1
81845,-90.909090909091,4,2,1,5,0,1
81925,-90.909090909091,4,2,1,70,0,1
86738,-111.111111111111,4,2,1,70,0,0
87540,-142.857142857143,4,2,1,60,0,0
87861,-142.857142857143,4,2,1,60,0,0

[Colours]
Combo1 : 188,99,241
Combo2 : 235,141,172
Combo3 : 175,226,226
Combo4 : 130,120,255

[HitObjects]
44,335,749,6,0,P|26:303|115:261,1,160.8,2|0,3:2|3:2,0:0:0:0:
193,321,2032,2,0,B|255:308|255:308|273:286|273:286|340:272,1,160.8,2|0,3:2|3:2,0:0:0:0:
443,303,3315,6,0,L|460:139,1,160.8,2|0,3:2|3:2,0:0:0:0:
483,38,4599,2,0,B|437:15|397:44|417:59|380:88|331:68,1,160.8,2|0,3:2|0:0,0:0:0:0:
231,9,5882,6,0,P|207:65|229:123,2,120.59999631958,2|2|0,0:0|0:0|0:0,0:0:0:0:
133,137,7166,2,0,B|85:130|85:130|64:138|64:138|12:131,2,120.59999631958,2|2|0,0:0|0:0|0:0,0:0:0:0:
194,196,8289,1,2,0:0:0:0:
194,196,8449,2,0,P|201:221|198:241,1,40.1999987731934,2|0,0:0|0:0,0:0:0:0:
153,301,8770,2,0,P|145:322|150:341,1,40.1999987731934,2|0,0:0|0:0,0:0:0:0:
220,377,9091,2,0,L|301:364,1,80.3999975463868,2|2,0:0|0:0,0:0:0:0:
458,339,9732,6,0,B|466:301|466:301|452:262,1,80.3999975463868,2|2,0:0|0:0,0:0:0:0:
419,187,10214,2,0,B|406:129|406:129|428:70,1,120.59999631958,2|0,0:0|0:0,0:0:0:0:
318,190,11016,6,0,P|264:216|210:196,2,120.59999631958,2|2|0,0:0|0:0|0:0,0:0:0:0:
259,32,12299,2,0,B|232:72|232:72|265:148,2,120.59999631958,2|2|0,0:0|0:0|0:0,0:0:0:0:
342,22,13422,5,2,0:0:0:0:
342,22,13583,2,0,L|336:65,1,40.1999987731934,2|0,0:0|0:0,0:0:0:0:
393,119,13904,2,0,L|399:162,1,40.1999987731934,2|0,0:0|0:0,0:0:0:0:
359,228,14224,2,0,L|346:314,1,80.3999975463868,2|2,0:0|0:0,0:0:0:0:
200,373,14866,2,0,P|157:383|120:366,1,80.3999975463868,2|2,0:0|0:0,0:0:0:0:
77,304,15347,2,0,L|59:181,1,120.59999631958,2|0,0:0|0:0,0:0:0:0:
194,52,16150,6,0,L|206:6,2,46.8999985687256,2|0|8,3:2|1:2|0:0,0:0:0:0:
123,98,16631,2,0,P|155:129|218:129,1,93.7999971374513,2|8,3:2|0:0,0:0:0:0:
360,75,17273,5,2,3:2:0:0:
360,75,17433,2,0,B|373:52|373:52|370:26,2,46.8999985687256,2|0|8,1:2|1:2|0:0,0:0:0:0:
336,156,17914,2,0,L|351:256,1,93.7999971374513,2|8,3:2|0:0,0:0:0:0:
226,364,18556,5,2,0:0:0:0:
226,364,18716,2,0,L|220:317,1,46.8999985687256,2|0,3:2|1:2,0:0:0:0:
203,234,19037,2,0,L|250:228,1,46.8999985687256,10|0,0:0|3:2,0:0:0:0:
332,213,19358,1,2,0:0:0:0:
353,380,19679,1,2,0:0:0:0:
486,275,20000,6,0,P|499:242|481:186,1,93.7999971374513,2|10,1:2|0:0,0:0:0:0:
417,134,20481,2,0,L|404:39,1,93.7999971374513,2|8,3:2|0:0,0:0:0:0:
152,16,21283,6,0,L|140:109,1,93.7999971374513,2|10,3:2|0:0,0:0:0:0:
191,176,21765,2,0,P|153:196|96:185,1,93.7999971374513,2|8,3:2|0:0,0:0:0:0:
17,335,22406,5,2,3:2:0:0:
17,335,22567,2,0,B|57:316|57:316|114:334,1,93.7999971374513,2|8,1:2|0:0,0:0:0:0:
183,360,23048,2,0,B|230:374|230:374|270:355,1,93.7999971374513,2|8,3:2|0:0,0:0:0:0:
399,246,23690,5,2,0:0:0:0:
399,246,23850,2,0,L|390:187,1,46.8999985687256,2|0,3:2|1:2,0:0:0:0:
341,131,24171,2,0,L|350:72,1,46.8999985687256,10|0,0:0|3:2,0:0:0:0:
398,16,24492,1,2,0:0:0:0:
248,94,24813,1,2,0:0:0:0:
90,32,25134,5,2,1:2:0:0:
90,32,25294,2,0,L|97:88,1,46.8999985687256,2|8,1:2|0:0,0:0:0:0:
42,144,25615,1,2,3:2:0:0:
42,144,25775,2,0,P|26:191|45:243,1,93.7999971374513,2|10,1:2|0:0,0:0:0:0:
108,279,26257,1,10,0:0:0:0:
208,234,26417,6,0,L|328:249,1,120.59999631958,4|0,1:2|0:0,0:0:0:0:
411,201,26898,2,0,B|433:241|433:241|409:321,1,120.59999631958,8|0,0:0|1:2,0:0:0:0:
337,376,27380,1,10,0:0:0:0:
337,376,27540,1,2,0:0:0:0:
241,363,27700,6,0,L|178:355,1,60.2999981597901,2|0,3:2|1:2,0:0:0:0:
102,299,28021,2,0,L|39:306,1,60.2999981597901,2|8,1:2|0:0,0:0:0:0:
76,216,28342,2,0,P|126:189|183:210,1,120.59999631958,2|10,0:0|0:0,0:0:0:0:
273,265,28823,5,2,3:2:0:0:
273,265,28904,1,8,0:0:0:0:
273,265,28984,2,0,B|292:222|292:222|272:149,1,120.59999631958,4|0,1:2|0:0,0:0:0:0:
245,58,29465,2,0,L|119:40,1,120.59999631958,8|0,0:0|1:2,0:0:0:0:
45,95,29946,1,10,0:0:0:0:
77,196,30107,5,10,0:0:0:0:
77,196,30187,1,8,0:0:0:0:
77,196,30267,2,0,L|68:255,1,60.2999981597901,2|0,3:2|1:2,0:0:0:0:
154,298,30588,2,0,L|163:239,1,60.2999981597901,2|8,0:0|0:0,0:0:0:0:
237,176,30909,2,0,P|273:156|345:190,1,120.59999631958,2|10,0:0|0:0,0:0:0:0:
428,136,31390,5,2,3:2:0:0:
428,136,31470,1,8,0:0:0:0:
428,136,31551,2,0,B|450:175|450:175|420:257,1,120.59999631958,4|0,1:2|0:0,0:0:0:0:
382,333,32032,2,0,P|346:353|271:324,1,120.59999631958,8|0,0:0|1:2,0:0:0:0:
219,255,32513,1,10,0:0:0:0:
219,255,32674,1,2,0:0:0:0:
268,172,32834,6,0,L|277:102,1,60.2999981597901,2|0,3:2|1:2,0:0:0:0:
296,20,33155,1,2,0:0:0:0:
296,20,33315,1,10,0:0:0:0:
391,33,33476,2,0,L|461:42,1,60.2999981597901,2|0,0:0|1:2,0:0:0:0:
488,129,33797,2,0,L|418:138,1,60.2999981597901,10|0,0:0|3:2,0:0:0:0:
416,148,34037,5,8,0:0:0:0:
406,160,34117,2,0,B|411:207|411:207|424:227|424:227|430:284,1,120.59999631958,6|0,1:2|0:0,0:0:0:0:
376,357,34599,1,8,0:0:0:0:
297,301,34759,2,0,L|301:232,2,60.2999981597901,2|2|10,0:0|1:2|0:0,0:0:0:0:
218,352,35240,5,2,3:2:0:0:
218,352,35321,1,8,0:0:0:0:
218,352,35401,2,0,P|188:363|157:353,1,60.2999981597901,2|0,3:2|1:2,0:0:0:0:
68,381,35722,2,0,P|57:351|67:320,1,60.2999981597901,2|8,0:0|0:0,0:0:0:0:
120,245,36043,2,0,L|112:173,1,60.2999981597901,2|0,0:0|1:2,0:0:0:0:
53,109,36363,2,0,P|85:86|146:95,1,90.4499972396851,10|0,0:0|0:0,0:0:0:0:
162,101,36684,6,0,P|195:118|248:91,1,93.7999971374513,6|0,1:2|1:2,0:0:0:0:
387,24,37326,2,0,P|376:50|384:84,1,46.8999985687256,10|0,0:0|0:0,0:0:0:0:
423,133,37647,2,0,P|434:159|426:193,1,46.8999985687256,2|0,1:2|0:0,0:0:0:0:
400,250,37968,2,0,L|417:348,2,93.7999971374513,2|2|10,1:2|1:2|0:0,0:0:0:0:
254,196,38930,1,2,1:2:0:0:
254,196,39091,1,0,3:2:0:0:
291,125,39251,6,0,L|274:32,2,93.7999971374513,6|0|8,1:2|1:2|0:0,0:0:0:0:
206,260,40214,6,0,P|177:271|156:266,1,46.8999985687256,2|0,1:2|0:0,0:0:0:0:
93,226,40535,2,0,P|82:197|87:176,1,46.8999985687256,2|0,1:2|3:2,0:0:0:0:
111,107,40855,2,0,P|153:90|198:101,1,93.7999971374513,2|10,1:2|0:0,0:0:0:0:
334,196,41497,1,2,1:2:0:0:
334,196,41658,1,4,0:3:0:0:
388,253,41818,6,0,P|430:269|475:258,2,93.7999971374513,6|0|8,1:2|1:2|0:0,0:0:0:0:
434,99,42781,6,0,L|440:47,1,46.8999985687256,2|0,1:2|0:0,0:0:0:0:
363,27,43101,2,0,L|357:73,1,46.8999985687256,2|0,1:2|3:2,0:0:0:0:
292,117,43422,1,2,1:2:0:0:
292,117,43583,1,2,0:0:0:0:
223,68,43743,2,0,P|184:52|129:76,1,93.7999971374513,10|2,0:0|1:2,0:0:0:0:
36,192,44385,6,0,B|18:230|18:230|40:288,1,93.7999971374513,2|0,1:2|1:2,0:0:0:0:
173,361,45027,2,0,L|184:311,1,46.8999985687256,10|0,0:0|0:0,0:0:0:0:
262,315,45347,2,0,L|251:360,1,46.8999985687256,2|0,1:2|0:0,0:0:0:0:
328,372,45668,2,0,L|340:317,1,53.6,2|0,1:2|1:2,0:0:0:0:
419,319,45989,2,0,L|405:380,1,60.2999981597901,2|0,1:2|1:2,0:0:0:0:
510,297,46310,5,10,0:0:0:0:
449,213,46470,1,8,0:0:0:0:
196,38,46952,6,0,L|209:123,1,73.7000022491456,6|0,1:2|1:2,0:0:0:0:
306,160,47273,2,0,L|317:87,1,73.7000022491456,10|0,0:0|0:0,0:0:0:0:
414,35,47593,2,0,L|425:107,1,73.7000022491456,2|0,1:2|1:2,0:0:0:0:
449,213,47914,1,10,0:0:0:0:
449,213,48075,1,2,0:0:0:0:
381,300,48235,6,0,L|271:284,1,110.550003373718,2|0,1:2|0:0,0:0:0:0:
252,255,48556,2,0,L|178:265,1,73.7000022491456,10|0,0:0|0:0,0:0:0:0:
88,329,48877,2,0,P|65:278|78:224,1,110.550003373718,2|0,1:2|0:0,0:0:0:0:
97,206,49198,2,0,P|111:173|103:138,1,73.7000022491456,10|0,0:0|0:0,0:0:0:0:
25,40,49519,6,0,B|75:67|75:67|172:30,2,147.400004498291,2|8|0,1:2|0:0|1:2,0:0:0:0:
198,177,50481,6,0,L|280:193,1,73.7000022491456,10|0,0:0|0:0,0:0:0:0:
355,262,50802,2,0,L|369:189,1,73.7000022491456,2|0,1:2|1:2,0:0:0:0:
437,102,51123,2,0,L|364:87,1,73.7000022491456,10|0,0:0|0:0,0:0:0:0:
278,17,51444,2,0,L|263:89,1,73.7000022491456,2|0,1:2|1:2,0:0:0:0:
105,113,51765,2,0,P|96:59|139:26,1,110.550003373718,10|0,0:0|0:0,0:0:0:0:
169,32,52085,6,0,L|197:180,2,147.400004498291,6|8|0,1:2|0:0|1:2,0:0:0:0:
43,214,53048,6,0,P|78:195|116:204,1,73.7000022491456,10|0,0:0|0:0,0:0:0:0:
211,154,53369,2,0,P|230:189|221:227,1,73.7000022491456,2|0,1:2|1:2,0:0:0:0:
266,323,53690,2,0,P|231:342|193:333,1,73.7000022491456,10|0,0:0|0:0,0:0:0:0:
98,384,54011,2,0,P|79:349|88:311,1,73.7000022491456,2|0,1:2|1:2,0:0:0:0:
136,219,54331,2,0,L|114:107,1,110.550003373718,10|0,0:0|0:0,0:0:0:0:
142,80,54652,6,0,B|87:70|87:70|59:84|59:84|0:74,2,147.400004498291,2|8|0,1:2|0:0|1:2,0:0:0:0:
299,235,55615,6,0,L|314:321,1,73.7000022491456,10|0,0:0|0:0,0:0:0:0:
414,349,55936,2,0,L|426:276,1,73.7000022491456,2|0,1:2|1:2,0:0:0:0:
493,187,56257,2,0,P|503:149|493:117,1,73.7000022491456,10|0,0:0|0:0,0:0:0:0:
426,29,56577,2,0,P|388:19|356:29,1,73.7000022491456,2|0,1:2|1:2,0:0:0:0:
278,108,56898,1,10,0:0:0:0:
192,54,57059,5,8,0:0:0:0:
192,54,57139,1,8,0:0:0:0:
192,54,57219,2,0,L|71:36,1,110.550003373718,6|0,1:2|0:0,0:0:0:0:
51,36,57540,2,0,P|29:70|37:107,1,73.7000022491456,8|0,0:0|0:0,0:0:0:0:
116,175,57861,2,0,L|188:164,1,73.7000022491456,2|0,1:2|1:2,0:0:0:0:
284,219,58182,1,10,0:0:0:0:
284,219,58342,1,2,0:0:0:0:
370,149,58503,6,0,B|398:193|398:193|373:292,1,147.400004498291,2|10,1:2|0:0,0:0:0:0:
284,349,58984,2,0,P|230:361|184:290,1,147.400004498291,2|2,0:0|1:2,0:0:0:0:
110,209,59465,2,0,B|85:237|85:237|115:261,1,73.7000022491456,8|0,0:0|0:0,0:0:0:0:
189,178,59786,6,0,B|198:135|198:135|193:117|193:117|205:65,1,110.550003373718,2|0,1:2|0:0,0:0:0:0:
214,39,60107,2,0,P|251:25|286:43,1,73.7000022491456,8|0,0:0|0:0,0:0:0:0:
356,125,60428,1,2,1:2:0:0:
356,125,60588,1,2,1:2:0:0:
451,67,60748,1,10,0:0:0:0:
451,67,60909,1,2,0:0:0:0:
496,167,61069,6,0,L|474:281,1,110.550003373718,2|0,1:2|0:0,0:0:0:0:
445,287,61390,2,0,L|459:362,1,73.7000022491456,10|0,0:0|0:0,0:0:0:0:
357,313,61711,2,0,P|336:264|352:210,1,110.550003373718,2|0,1:2|0:0,0:0:0:0:
373,187,62032,2,0,P|387:154|376:117,1,73.7000022491456,10|0,0:0|0:0,0:0:0:0:
297,41,62353,6,0,B|240:50|240:50|223:72|223:72|161:82,1,147.400004498291,6|8,1:2|0:0,0:0:0:0:
26,260,62994,2,0,B|60:281|60:281|92:259,1,73.7000022491456,2|0,1:2|1:2,0:0:0:0:
183,202,63315,1,10,0:0:0:0:
183,202,63476,1,2,0:0:0:0:
79,164,63636,6,0,L|64:10,1,147.400004498291,2|10,1:2|0:0,0:0:0:0:
175,6,64117,2,0,L|183:90,1,73.7000022491456,2|0,0:0|1:2,0:0:0:0:
269,147,64438,2,0,L|342:139,1,73.7000022491456,2|8,1:2|0:0,0:0:0:0:
413,54,64759,1,2,0:0:0:0:
478,143,64920,6,0,B|506:190|506:190|484:283,1,147.400004498291,0|8,1:2|0:0,0:0:0:0:
286,373,65561,1,2,1:2:0:0:
286,373,65722,1,2,1:2:0:0:
197,316,65882,1,10,0:0:0:0:
197,316,66043,1,2,0:0:0:0:
100,369,66203,6,0,P|68:317|90:232,1,147.400004498291,2|10,1:2|0:0,0:0:0:0:
178,174,66684,2,0,L|267:187,1,73.7000022491456,2|0,0:0|1:2,0:0:0:0:
341,266,67005,1,10,0:0:0:0:
341,266,67085,1,8,0:0:0:0:
341,266,67166,1,8,0:0:0:0:
427,196,67326,5,8,0:0:0:0:
427,196,67406,1,8,0:0:0:0:
427,196,67486,2,0,P|444:149|419:92,1,110.550003373718,6|0,1:2|0:0,0:0:0:0:
395,71,67807,2,0,L|322:81,1,73.7000022491456,10|0,0:0|0:0,0:0:0:0:
234,23,68128,1,2,1:2:0:0:
234,23,68289,1,2,1:2:0:0:
167,110,68449,6,0,L|183:223,1,110.550003373718,10|0,0:0|0:0,0:0:0:0:
188,252,68770,2,0,P|225:261|258:243,1,73.7000022491456,2|0,1:2|1:2,0:0:0:0:
95,154,69091,2,0,P|50:159|28:228,1,110.550003373718,10|0,0:0|0:0,0:0:0:0:
47,243,69412,2,0,L|35:321,1,73.7000022491456,2|0,1:2|1:2,0:0:0:0:
125,380,69732,1,10,0:0:0:0:
147,364,70053,6,0,B|206:353|206:353|224:330|224:330|289:319,2,147.400004498291,2|8|0,1:2|0:0|1:2,0:0:0:0:
368,372,71016,6,0,L|378:292,1,73.7000022491456,10|0,0:0|0:0,0:0:0:0:
429,201,71337,2,0,L|355:191,1,73.7000022491456,2|0,1:2|1:2,0:0:0:0:
261,133,71658,2,0,L|251:206,1,73.7000022491456,10|0,0:0|0:0,0:0:0:0:
194,300,71978,2,0,L|267:309,1,73.7000022491456,2|0,1:2|1:2,0:0:0:0:
166,211,72299,2,0,P|114:200|63:238,1,110.550003373718,10|0,0:0|0:0,0:0:0:0:
50,258,72620,6,0,B|22:218|22:218|50:114,2,147.400004498291,6|8|0,1:2|0:0|1:2,0:0:0:0:
136,53,73583,6,0,P|178:39|213:50,1,73.7000022491456,10|0,0:0|0:0,0:0:0:0:
308,3,73904,2,0,P|322:45|311:80,1,73.7000022491456,2|0,1:2|1:2,0:0:0:0:
358,173,74224,2,0,P|316:187|281:176,1,73.7000022491456,10|0,0:0|0:0,0:0:0:0:
185,222,74545,2,0,P|171:180|182:145,1,73.7000022491456,2|0,1:2|1:2,0:0:0:0:
265,262,74866,2,0,L|244:383,1,110.550003373718,10|0,0:0|0:0,0:0:0:0:
218,383,75187,6,0,B|173:397|144:364|163:356|134:319|91:333,2,147.400004498291,2|8|0,1:2|0:0|1:2,0:0:0:0:
438,363,76150,6,0,B|448:326|448:326|436:291,1,73.7000022491456,10|0,0:0|0:0,0:0:0:0:
392,191,76470,2,0,B|382:154|382:154|394:119,1,73.7000022491456,2|0,1:2|1:2,0:0:0:0:
290,40,76791,2,0,B|300:77|300:77|288:112,1,73.7000022491456,10|0,0:0|0:0,0:0:0:0:
211,189,77112,2,0,L|137:179,1,73.7000022491456,2|0,1:2|1:2,0:0:0:0:
84,276,77433,2,0,L|121:281,3,36.8500011245728,10|8|8|8,0:0|0:0|0:0|0:0,0:0:0:0:
141,304,77754,6,0,P|186:334|240:309,1,110.550003373718,6|0,1:2|0:0,0:0:0:0:
268,322,78075,2,0,B|283:284|283:284|268:249,1,73.7000022491456,8|0,0:0|0:0,0:0:0:0:
220,160,78396,1,2,1:2:0:0:
220,160,78556,1,2,1:2:0:0:
296,80,78716,2,0,P|343:59|401:88,1,110.550003373718,10|0,0:0|0:0,0:0:0:0:
415,106,79037,6,0,L|400:185,1,73.7000022491456,2|0,1:2|1:2,0:0:0:0:
466,268,79358,1,10,0:0:0:0:
393,351,79519,2,0,L|314:336,1,73.7000022491456,2|0,0:0|1:2,0:0:0:0:
239,262,79839,2,0,B|185:276|185:276|167:300|167:300|100:317,1,147.400004498291,2|0,1:2|0:0,0:0:0:0:
30,234,80321,6,0,P|0:174|36:97,1,147.400004498291,2|8,1:2|0:0,0:0:0:0:
232,17,80962,2,0,L|213:105,1,73.7000022491456,2|0,1:2|1:2,0:0:0:0:
186,198,81283,1,10,0:0:0:0:
186,198,81444,1,2,0:0:0:0:
293,175,81604,6,0,B|336:165|336:165|354:145|354:145|400:136,1,110.550003373718,2|0,1:2|0:0,0:0:0:0:
428,131,81925,2,0,P|443:164|434:204,1,73.7000022491456,10|0,0:0|0:0,0:0:0:0:
383,297,82246,2,0,L|302:284,1,73.7000022491456,2|0,1:2|1:2,0:0:0:0:
225,357,82567,2,0,L|144:370,1,73.7000022491456,10|0,0:0|0:0,0:0:0:0:
55,314,82888,6,0,P|28:265|62:182,1,147.400004498291,6|8,1:2|0:0,0:0:0:0:
238,54,83529,1,2,1:2:0:0:
238,54,83690,1,2,1:2:0:0:
137,21,83850,1,10,0:0:0:0:
137,21,84011,1,2,0:0:0:0:
150,130,84171,6,0,L|171:282,1,147.400004498291,2|10,1:2|0:0,0:0:0:0:
248,355,84652,2,0,P|300:377|374:326,1,147.400004498291,2|2,0:0|1:2,0:0:0:0:
411,227,85134,1,8,0:0:0:0:
339,157,85294,5,2,1:2:0:0:
339,157,85374,1,0,1:2:0:0:
339,157,85454,2,0,B|311:108|327:75|344:89|362:52|337:15,1,147.400004498291,0|0,1:2|1:2,0:0:0:0:
411,227,86096,6,0,L|399:280,3,36.8500011245728,2|8|10|8,1:2|0:0|0:0|0:0,0:0:0:0:
378,279,86417,2,0,L|390:332,3,36.8500011245728,2|8|10|8,1:2|0:0|0:0|0:0,0:0:0:0:
367,343,86738,6,0,P|330:368|263:342,1,120.59999631958,2|10,1:2|0:0,0:0:0:0:
228,259,87219,2,0,L|242:190,1,60.2999981597901,2|0,1:2|0:0,0:0:0:0:
193,128,87540,1,2,0:0:0:0:
