osu file format v14

[General]
AudioFilename: audio.mp3
AudioLeadIn: 0
PreviewTime: 46871
Countdown: 0
SampleSet: Soft
StackLeniency: 0.7
Mode: 0
LetterboxInBreaks: 0
WidescreenStoryboard: 0

[Editor]
DistanceSpacing: 2.6
BeatDivisor: 4
GridSize: 4
TimelineZoom: 1.9

[Metadata]
Title:Kyoukaisen (TV Size)
TitleUnicode:境界線 (TV Size)
Artist:amazarashi
ArtistUnicode:amazarashi
Creator:Soue
Version:Expert
Source:86―エイティシックス―
Tags:86 Eighty Six 2nd Season Japanese TV Anime Opening Second Two 2 Male Vocals J rock Jrock J-rock Vladilena Milizé Milize ヴラディレーナ・ミリーゼ Shinei Nouzen シンエイ・ノウゼン GodKei
BeatmapID:3252495
BeatmapSetID:1592522

[Difficulty]
HPDrainRate:5.8
CircleSize:4.2
OverallDifficulty:8.6
ApproachRate:9
SliderMultiplier:1.74
SliderTickRate:1

[Events]
//Background and Video events
0,0,"background.jpg",0,0
Video,48,"video.mp4"
//Break Periods
//Storyboard Layer 0 (Background)
//Storyboard Layer 1 (Fail)
//Storyboard Layer 2 (Pass)
//Storyboard Layer 3 (Foreground)
//Storyboard Layer 4 (Overlay)
//Storyboard Sound Samples

[TimingPoints]
749,320.855614973262,4,2,1,40,1,0
749,-250.000000000001,4,2,1,40,0,0
5722,-250.000000000001,4,2,1,5,0,0
5882,-166.666666666667,4,2,1,40,0,0
8690,-166.666666666667,4,2,1,5,0,0
8770,-166.666666666667,4,2,1,40,0,0
9011,-166.666666666667,4,2,1,5,0,0
9091,-166.666666666667,4,2,1,40,0,0
14786,-166.666666666667,4,2,1,5,0,0
14866,-166.666666666667,4,2,1,40,0,0
16150,-142.857142857143,4,2,1,50,0,0
24732,-142.857142857143,4,2,1,5,0,0
24813,-142.857142857143,4,2,1,50,0,0
25053,-142.857142857143,4,2,1,5,0,0
25134,-142.857142857143,4,2,1,50,0,0
26417,-111.111111111111,4,2,1,60,0,0
36604,-111.111111111111,4,2,1,5,0,0
36684,-142.857142857143,4,2,1,60,0,0
38208,-142.857142857143,4,2,1,5,0,0
38289,-142.857142857143,4,2,1,60,0,0
40134,-142.857142857143,4,2,1,5,0,0
40214,-142.857142857143,4,2,1,60,0,0
41096,-142.857142857143,4,2,1,5,0,0
41176,-142.857142857143,4,2,1,60,0,0
42700,-142.857142857143,4,2,1,5,0,0
42781,-142.857142857143,4,2,1,60,0,0
43984,-142.857142857143,4,2,1,5,0,0
44064,-142.857142857143,4,2,1,60,0,0
45267,-142.857142857143,4,2,1,5,0,0
45347,-142.857142857143,4,2,1,60,0,0
45588,-142.857142857143,4,2,1,5,0,0
45668,-125,4,2,1,60,0,0
45989,-111.111111111111,4,2,1,60,0,0
46310,-100,4,2,1,60,0,0
46952,-90.909090909091,4,2,1,70,0,1
47513,-90.909090909091,4,2,1,5,0,1
47593,-90.909090909091,4,2,1,70,0,1
49117,-90.909090909091,4,2,1,5,0,1
49198,-90.909090909091,4,2,1,70,0,1
51043,-90.909090909091,4,2,1,5,0,1
51123,-90.909090909091,4,2,1,70,0,1
52005,-90.909090909091,4,2,1,5,0,1
52085,-90.909090909091,4,2,1,70,0,1
53289,-90.909090909091,4,2,1,5,0,1
53369,-90.909090909091,4,2,1,70,0,1
53609,-90.909090909091,4,2,1,5,0,1
53690,-90.909090909091,4,2,1,70,0,1
54572,-90.909090909091,4,2,1,5,0,1
54652,-90.909090909091,4,2,1,70,0,1
56176,-90.909090909091,4,2,1,5,0,1
56257,-90.909090909091,4,2,1,70,0,1
57460,-90.909090909091,4,2,1,5,0,1
57540,-90.909090909091,4,2,1,70,0,1
59706,-90.909090909091,4,2,1,5,0,1
59786,-90.909090909091,4,2,1,70,0,1
60027,-90.909090909091,4,2,1,5,0,1
60107,-90.909090909091,4,2,1,70,0,1
61310,-90.909090909091,4,2,1,5,0,1
61390,-90.909090909091,4,2,1,70,0,1
61952,-90.909090909091,4,2,1,5,0,1
62032,-90.909090909091,4,2,1,70,0,1
63235,-90.909090909091,4,2,1,5,0,1
63315,-90.909090909091,4,2,1,70,0,1
67406,-90.909090909091,4,2,1,70,0,0
67486,-90.909090909091,4,2,1,70,0,1
67727,-90.909090909091,4,2,1,5,0,1
67807,-90.909090909091,4,2,1,70,0,1
68690,-90.909090909091,4,2,1,5,0,1
68770,-90.909090909091,4,2,1,70,0,1
69331,-90.909090909091,4,2,1,5,0,1
69412,-90.909090909091,4,2,1,70,0,1
70294,-90.909090909091,4,2,1,5,0,1
70374,-90.909090909091,4,2,1,70,0,1
71257,-90.909090909091,4,2,1,5,0,1
71337,-90.909090909091,4,2,1,70,0,1
72540,-90.909090909091,4,2,1,5,0,1
72620,-90.909090909091,4,2,1,70,0,1
73182,-90.909090909091,4,2,1,5,0,1
73262,-90.909090909091,4,2,1,70,0,1
74144,-90.909090909091,4,2,1,5,0,1
74224,-90.909090909091,4,2,1,70,0,1
75107,-90.909090909091,4,2,1,5,0,1
75187,-90.909090909091,4,2,1,70,0,1
76390,-90.909090909091,4,2,1,5,0,1
76470,-90.909090909091,4,2,1,70,0,1
77994,-90.909090909091,4,2,1,5,0,1
78075,-90.909090909091,4,2,1,70,0,1
80240,-90.909090909091,4,2,1,5,0,1
80321,-90.909090909091,4,2,1,70,0,1
81845,-90.909090909091,4,2,1,5,0,1
81925,-90.909090909091,4,2,1,70,0,1
82486,-90.909090909091,4,2,1,5,0,1
82567,-90.909090909091,4,2,1,70,0,1
83128,-90.909090909091,4,2,1,5,0,1
83208,-90.909090909091,4,2,1,70,0,1
85695,-90.909090909091,4,2,1,5,0,1
85775,-90.909090909091,4,2,1,70,0,1
86016,-90.909090909091,4,2,1,5,0,1
86096,-90.909090909091,4,2,1,70,0,1
86738,-166.666666666667,4,2,1,70,0,0
87540,-250.000000000001,4,2,1,60,0,0
87861,-250.000000000001,4,2,1,5,0,0

[Colours]
Combo1 : 188,99,241
Combo2 : 235,141,172
Combo3 : 175,226,226
Combo4 : 130,120,255

[HitObjects]
59,285,749,6,0,L|65:322,2,34.8,2|0|0,3:2|3:2|3:2,0:0:0:0:
157,242,1230,2,0,L|151:279,2,34.8,0|0|0,3:2|3:2|3:2,0:0:0:0:
248,280,1711,2,0,L|254:317,1,34.8,0|0,3:2|3:2,0:0:0:0:
338,359,2032,6,0,B|351:275|351:275|339:244|339:244|357:153,1,208.8,2|0,3:2|3:2,0:0:0:0:
453,24,3315,6,0,L|418:31,2,34.8,2|0|0,3:2|3:2|3:2,0:0:0:0:
489,120,3797,2,0,L|454:112,2,34.8,0|0|0,3:2|3:2|3:2,0:0:0:0:
452,201,4278,2,0,L|417:208,1,34.8,0|0,3:2|3:2,0:0:0:0:
362,288,4599,6,0,B|299:325|243:265|278:239|228:181|147:223,1,243.6,2|0,3:2|0:0,0:0:0:0:
98,158,5882,6,0,B|58:150|47:186|47:186|86:274,2,156.599995220947,2|2|0,0:0|0:0|0:0,0:0:0:0:
345,79,7166,6,0,P|311:90|272:-1,2,156.599995220947,2|2|0,0:0|0:0|0:0,0:0:0:0:
416,32,8289,5,2,0:0:0:0:
416,32,8449,2,0,P|432:62|426:107,1,78.2999976104737,2|0,0:0|0:0,0:0:0:0:
408,123,8770,2,0,P|392:153|398:198,1,78.2999976104737,2|0,0:0|0:0,0:0:0:0:
418,214,9091,2,0,B|461:205|461:205|476:187|476:187|514:180,1,104.399996813965,2|2,0:0|0:0,0:0:0:0:
339,357,9732,6,0,P|292:379|242:359,1,104.399996813965,2|2,0:0|0:0,0:0:0:0:
191,305,10214,2,0,L|215:149,1,156.599995220947,2|0,0:0|0:0,0:0:0:0:
37,14,11016,6,0,B|15:63|15:63|36:116,1,104.399996813965,2|2,0:0|0:0,0:0:0:0:
74,178,11497,2,0,B|117:203|152:170|139:158|175:129|220:153,1,156.599995220947,2|0,0:0|0:0,0:0:0:0:
276,210,12139,5,2,0:0:0:0:
276,210,12299,2,0,P|314:234|368:212,1,104.399996813965,2|0,0:0|0:0,0:0:0:0:
417,154,12781,2,0,B|453:143|472:172|472:172|442:272,1,156.599995220947,2|0,0:0|0:0,0:0:0:0:
416,343,13422,5,2,0:0:0:0:
416,343,13583,2,0,B|461:352|461:352|476:368|476:368|514:376,2,104.399996813965,2|2|2,0:0|0:0|0:0,0:0:0:0:
196,242,14545,2,0,P|174:275|192:315,1,78.2999976104737,2|0,0:0|0:0,0:0:0:0:
207,331,14866,6,0,L|315:311,1,104.399996813965,2|2,0:0|0:0,0:0:0:0:
389,334,15347,2,0,B|406:291|382:256|370:269|343:230|365:186,1,156.599995220947,2|0,0:0|0:0,0:0:0:0:
491,15,16150,6,0,L|480:75,2,60.8999981414796,2|0|8,3:2|1:2|0:0,0:0:0:0:
388,81,16631,2,0,P|337:103|283:56,1,121.799996282959,2|8,3:2|0:0,0:0:0:0:
203,159,17112,1,0,3:2:0:0:
132,99,17273,1,2,3:2:0:0:
182,232,17433,6,0,L|174:271,2,30.4499990707398,2|0|0,1:2|1:2|1:2,0:0:0:0:
200,341,17754,1,8,0:0:0:0:
104,299,17914,2,0,B|69:290|50:322|64:328|44:363|5:354,1,121.799996282959,2|8,3:2|0:0,0:0:0:0:
124,375,18396,1,0,3:2:0:0:
200,341,18556,1,2,3:2:0:0:
315,366,18716,6,0,L|387:383,1,60.8999981414796,2|0,3:2|1:2,0:0:0:0:
483,293,19037,2,0,L|423:306,1,60.8999981414796,10|0,0:0|3:2,0:0:0:0:
335,243,19358,2,0,P|322:212|330:183,1,60.8999981414796,2|8,0:0|0:0,0:0:0:0:
437,150,19679,2,0,P|450:181|442:210,1,60.8999981414796,2|0,0:0|3:2,0:0:0:0:
350,82,20000,6,0,L|355:47,3,30.4499990707398,2|0|0|0,1:2|1:2|1:2|1:2,0:0:0:0:
335,32,20321,1,10,0:0:0:0:
249,100,20481,2,0,P|207:119|149:70,1,121.799996282959,2|8,3:2|0:0,0:0:0:0:
62,145,20962,1,0,3:2:0:0:
46,161,21283,6,0,L|75:291,1,121.799996282959,2|10,3:2|0:0,0:0:0:0:
95,366,21765,2,0,P|148:379|203:336,1,121.799996282959,2|8,3:2|0:0,0:0:0:0:
160,245,22246,1,0,3:2:0:0:
205,158,22406,1,2,3:2:0:0:
150,78,22567,6,0,L|107:69,2,30.4499990707398,2|0|0,1:2|1:2|1:2,0:0:0:0:
236,28,22888,1,8,0:0:0:0:
317,94,23048,1,2,3:2:0:0:
377,37,23208,2,0,P|409:23|437:30,1,60.8999981414796,0|8,1:2|0:0,0:0:0:0:
457,114,23529,2,0,P|425:128|397:121,1,60.8999981414796,0|2,3:2|0:0,0:0:0:0:
330,212,23850,6,0,L|346:284,1,60.8999981414796,2|0,3:2|1:2,0:0:0:0:
458,336,24171,2,0,L|471:276,1,60.8999981414796,10|0,0:0|3:2,0:0:0:0:
359,361,24492,2,0,L|267:381,1,91.3499972122193,2|0,0:0|0:0,0:0:0:0:
238,378,24813,2,0,P|211:347|224:286,1,91.3499972122193,2|0,0:0|0:0,0:0:0:0:
234,273,25134,5,2,1:2:0:0:
314,198,25294,2,0,L|345:204,2,30.4499990707398,2|0|8,1:2|1:2|0:0,0:0:0:0:
259,113,25615,1,2,3:2:0:0:
320,46,25775,1,2,1:2:0:0:
180,102,25936,5,8,0:0:0:0:
180,102,26016,1,8,0:0:0:0:
180,102,26096,2,0,L|139:92,1,30.4499990707398,10|8,0:0|0:0,0:0:0:0:
101,184,26257,2,0,L|130:191,1,30.4499990707398,10|8,0:0|0:0,0:0:0:0:
234,273,26417,5,4,1:2:0:0:
336,186,26577,2,0,L|355:277,1,78.2999976104737,0|0,1:2|0:0,0:0:0:0:
181,104,26898,1,8,0:0:0:0:
298,31,27059,2,0,L|279:122,1,78.2999976104737,0|0,0:0|1:2,0:0:0:0:
454,220,27380,5,10,0:0:0:0:
505,142,27540,1,2,0:0:0:0:
445,68,27700,2,0,L|354:87,1,78.2999976104737,2|0,3:2|1:2,0:0:0:0:
237,181,28021,2,0,L|328:200,1,78.2999976104737,2|8,1:2|0:0,0:0:0:0:
133,27,28342,2,0,L|152:118,1,78.2999976104737,2|0,0:0|1:2,0:0:0:0:
35,246,28663,1,10,0:0:0:0:
38,166,28823,5,2,3:2:0:0:
38,166,28904,1,8,0:0:0:0:
38,166,28984,2,0,B|84:151|117:193|94:203|121:238|166:232,1,156.599995220947,4|0,1:2|0:0,0:0:0:0:
300,119,29465,2,0,B|260:108|250:141|250:141|285:228,1,156.599995220947,8|0,0:0|1:2,0:0:0:0:
411,358,29946,1,10,0:0:0:0:
323,320,30107,2,0,P|309:314|326:317,1,39.1499988052369,10|8,0:0|0:0,0:0:0:0:
219,365,30267,6,0,P|175:382|137:367,1,78.2999976104737,2|0,3:2|1:2,0:0:0:0:
77,311,30588,1,2,0:0:0:0:
190,197,30748,1,8,0:0:0:0:
117,141,30909,2,0,L|104:61,1,78.2999976104737,2|0,0:0|1:2,0:0:0:0:
24,221,31230,1,10,0:0:0:0:
166,284,31390,5,2,3:2:0:0:
166,284,31470,1,8,0:0:0:0:
166,284,31551,2,0,P|236:282|282:198,1,156.599995220947,4|0,1:2|0:0,0:0:0:0:
188,60,32032,2,0,B|152:153|152:153|189:196,1,156.599995220947,8|0,0:0|1:2,0:0:0:0:
324,319,32513,1,10,0:0:0:0:
411,247,32674,5,2,3:2:0:0:
411,247,32754,1,8,0:0:0:0:
411,247,32834,2,0,L|494:232,1,78.2999976104737,2|0,3:2|1:2,0:0:0:0:
426,153,33155,1,2,0:0:0:0:
475,73,33315,1,10,0:0:0:0:
342,10,33476,6,0,L|359:98,1,78.2999976104737,2|0,0:0|1:2,0:0:0:0:
222,203,33797,2,0,L|236:126,1,78.2999976104737,10|0,0:0|3:2,0:0:0:0:
230,109,34037,5,8,0:0:0:0:
222,94,34117,1,6,1:2:0:0:
101,26,34278,2,0,P|60:65|90:157,1,156.599995220947,0|8,1:2|0:0,0:0:0:0:
28,301,34759,1,2,0:0:0:0:
152,185,34920,1,2,1:2:0:0:
22,211,35080,1,10,0:0:0:0:
153,347,35240,5,2,3:2:0:0:
153,347,35321,1,8,0:0:0:0:
153,347,35401,1,2,3:2:0:0:
216,289,35561,1,0,1:2:0:0:
298,342,35722,1,2,0:0:0:0:
406,267,35882,1,8,0:0:0:0:
494,383,36043,1,2,0:0:0:0:
373,337,36203,1,0,1:2:0:0:
485,233,36363,2,0,L|501:116,1,117.449996415711,10|0,0:0|0:0,0:0:0:0:
482,98,36684,6,0,P|435:101|415:170,1,121.799996282959,6|0,1:2|1:2,0:0:0:0:
219,83,37326,6,0,L|207:15,1,60.8999981414796,10|0,0:0|0:0,0:0:0:0:
114,7,37647,2,0,L|103:66,1,60.8999981414796,2|0,1:2|0:0,0:0:0:0:
6,178,37968,6,0,P|-2:151|51:126,1,91.3499972122193,2|0,1:2|0:0,0:0:0:0:
70,136,38289,2,0,L|80:195,1,60.8999981414796,2|0,1:2|0:0,0:0:0:0:
184,295,38609,2,0,B|193:263|193:263|179:240,1,60.8999981414796,10|0,0:0|0:0,0:0:0:0:
95,378,38930,1,2,1:2:0:0:
24,321,39091,1,0,3:2:0:0:
185,369,39251,6,0,L|311:346,1,121.799996282959,6|0,1:2|1:2,0:0:0:0:
388,382,39732,1,8,0:3:0:0:
467,340,39893,2,0,P|485:300|463:255,1,91.3499972122193,8|0,0:0|0:0,0:0:0:0:
444,243,40214,2,0,L|384:253,1,60.8999981414796,2|0,1:2|0:0,0:0:0:0:
294,169,40535,6,0,L|353:158,1,60.8999981414796,2|0,1:2|3:2,0:0:0:0:
452,28,40855,2,0,L|440:127,1,91.3499972122193,2|0,1:2|0:0,0:0:0:0:
450,142,41176,2,0,P|486:156|511:135,1,60.8999981414796,10|0,0:0|0:0,0:0:0:0:
371,41,41497,1,2,1:2:0:0:
301,85,41658,1,4,0:3:0:0:
167,15,41818,6,0,L|182:143,1,121.799996282959,6|0,1:2|1:2,0:0:0:0:
111,197,42299,1,8,0:3:0:0:
31,165,42460,2,0,P|5:127|19:84,1,91.3499972122193,8|0,0:0|0:0,0:0:0:0:
40,72,42781,2,0,L|100:79,1,60.8999981414796,2|0,1:2|0:0,0:0:0:0:
181,135,43101,6,0,L|241:127,1,60.8999981414796,2|0,1:2|3:2,0:0:0:0:
303,11,43422,1,2,1:2:0:0:
232,49,43583,1,2,0:0:0:0:
319,154,43743,2,0,P|355:168|404:139,1,91.3499972122193,10|0,0:0|0:0,0:0:0:0:
418,125,44064,2,0,B|439:151|439:151|422:181,1,60.8999981414796,2|8,1:2|0:3,0:0:0:0:
400,371,44385,6,0,L|375:239,1,121.799996282959,2|0,1:2|1:2,0:0:0:0:
141,350,45027,6,0,P|181:367|225:340,1,91.3499972122193,10|0,0:0|0:0,0:0:0:0:
237,320,45347,2,0,P|231:276|186:252,1,91.3499972122193,2|0,1:2|0:0,0:0:0:0:
161,255,45668,5,2,1:2:0:0:
67,364,45829,1,0,1:2:0:0:
145,180,45989,1,2,1:2:0:0:
257,338,46150,1,0,1:2:0:0:
16,183,46310,1,10,0:0:0:0:
236,17,46470,1,8,0:0:0:0:
236,17,46952,6,0,L|222:119,1,95.7000029205323,6|0,1:2|1:2,0:0:0:0:
411,342,47273,2,0,P|445:273|409:205,1,143.550004380798,10|0,0:0|0:0,0:0:0:0:
359,177,47593,2,0,L|257:190,1,95.7000029205323,2|0,1:2|1:2,0:0:0:0:
468,65,47914,1,10,0:0:0:0:
346,271,48075,1,2,0:0:0:0:
128,98,48235,6,0,L|222:111,1,95.7000029205323,2|0,1:2|1:2,0:0:0:0:
94,244,48556,2,0,L|0:257,1,95.7000029205323,10|0,0:0|0:0,0:0:0:0:
242,377,48877,2,0,L|262:226,1,143.550004380798,2|0,1:2|0:0,0:0:0:0:
278,166,49198,2,0,P|231:168|194:206,1,95.7000029205323,10|0,0:0|0:0,0:0:0:0:
330,374,49519,5,2,1:2:0:0:
154,287,49679,1,0,1:2:0:0:
359,177,49839,2,0,L|346:274,1,95.7000029205323,8|0,0:0|0:0,0:0:0:0:
375,86,50160,1,0,1:2:0:0:
260,234,50321,1,0,1:2:0:0:
464,127,50481,2,0,P|479:81|463:37,1,95.7000029205323,10|0,0:0|0:0,0:0:0:0:
225,2,50802,6,0,L|244:148,1,143.550004380798,2|0,1:2|0:0,0:0:0:0:
194,201,51123,2,0,P|143:210|111:177,1,95.7000029205323,10|0,0:0|0:0,0:0:0:0:
301,0,51444,1,2,1:2:0:0:
136,108,51604,1,0,1:2:0:0:
339,251,51765,2,0,P|394:271|469:211,1,143.550004380798,10|0,0:0|0:0,0:0:0:0:
492,160,52085,6,0,B|475:203|475:203|497:248,1,95.7000029205323,6|0,1:2|1:2,0:0:0:0:
330,362,52406,2,0,B|347:319|347:319|325:274,1,95.7000029205323,8|0,0:0|0:0,0:0:0:0:
207,129,52727,1,0,1:2:0:0:
391,189,52888,1,0,1:2:0:0:
210,342,53048,2,0,P|159:366|85:315,1,143.550004380798,10|0,0:0|0:0,0:0:0:0:
58,254,53369,6,0,L|79:100,1,143.550004380798,2|0,1:2|0:0,0:0:0:0:
90,39,53690,2,0,P|32:51|8:85,1,95.7000029205323,10|0,0:0|0:0,0:0:0:0:
229,256,54011,1,2,1:2:0:0:
0,158,54171,1,0,1:2:0:0:
197,20,54331,2,0,L|216:171,1,143.550004380798,10|0,0:0|0:0,0:0:0:0:
227,237,54652,5,2,1:2:0:0:
113,365,54813,1,0,1:2:0:0:
346,238,54973,2,0,L|443:225,1,95.7000029205323,8|0,0:0|0:0,0:0:0:0:
178,147,55294,1,0,1:2:0:0:
328,339,55454,1,0,1:2:0:0:
448,116,55615,2,0,L|351:129,1,95.7000029205323,10|0,0:0|0:0,0:0:0:0:
96,280,55936,6,0,P|163:309|225:278,1,143.550004380798,2|0,1:2|0:0,0:0:0:0:
261,215,56257,2,0,L|248:120,1,95.7000029205323,10|0,0:0|0:0,0:0:0:0:
397,312,56577,1,2,1:2:0:0:
160,222,56738,1,0,1:2:0:0:
369,67,56898,1,10,0:0:0:0:
62,172,57059,5,8,0:0:0:0:
62,172,57139,1,8,0:0:0:0:
62,172,57219,2,0,P|24:122|59:47,1,143.550004380798,6|0,1:2|0:0,0:0:0:0:
122,27,57540,2,0,L|218:48,1,95.7000029205323,8|0,0:0|0:0,0:0:0:0:
382,231,57861,2,0,P|403:182|375:130,1,95.7000029205323,2|0,1:2|1:2,0:0:0:0:
182,206,58182,1,10,0:0:0:0:
353,40,58342,1,2,0:0:0:0:
296,272,58503,6,0,L|317:368,1,95.7000029205323,2|0,1:2|1:2,0:0:0:0:
260,106,58823,1,10,0:0:0:0:
115,282,58984,2,0,L|19:303,1,95.7000029205323,2|0,0:0|1:2,0:0:0:0:
308,243,59305,1,2,1:2:0:0:
159,65,59465,2,0,P|134:120|177:189,1,143.550004380798,8|0,0:0|0:0,0:0:0:0:
252,185,59786,6,0,B|307:168|307:168|324:144|324:144|379:130,1,143.550004380798,2|0,1:2|0:0,0:0:0:0:
454,121,60107,2,0,P|479:157|472:212,1,95.7000029205323,8|0,0:0|0:0,0:0:0:0:
324,376,60428,1,2,1:2:0:0:
173,186,60588,1,2,1:2:0:0:
397,335,60748,1,10,0:0:0:0:
146,270,60909,1,2,0:0:0:0:
380,97,61069,6,0,L|350:246,1,143.550004380798,2|0,1:2|0:0,0:0:0:0:
387,307,61390,2,0,P|443:316|471:276,1,95.7000029205323,10|0,0:0|0:0,0:0:0:0:
258,101,61711,6,0,B|219:90|189:121|205:129|176:166|133:157,1,143.550004380798,2|0,1:2|0:0,0:0:0:0:
69,120,62032,2,0,P|52:77|78:31,1,95.7000029205323,10|0,0:0|0:0,0:0:0:0:
209,295,62353,6,0,L|106:280,1,95.7000029205323,6|0,1:2|1:2,0:0:0:0:
52,143,62674,2,0,L|146:129,1,95.7000029205323,8|0,0:0|0:0,0:0:0:0:
332,28,62994,2,0,B|298:70|298:70|326:166,1,143.550004380798,2|0,1:2|0:0,0:0:0:0:
343,229,63315,1,10,0:0:0:0:
463,80,63476,1,2,0:0:0:0:
263,213,63636,6,0,L|168:199,1,95.7000029205323,2|0,1:2|1:2,0:0:0:0:
5,80,63957,1,10,0:0:0:0:
140,275,64117,2,0,L|126:369,1,95.7000029205323,2|0,0:0|1:2,0:0:0:0:
170,112,64438,1,2,1:2:0:0:
2,242,64599,1,8,0:0:0:0:
220,184,64759,1,2,0:0:0:0:
371,302,64920,6,0,P|424:316|458:296,1,95.7000029205323,0|0,1:2|1:2,0:0:0:0:
446,134,65240,2,0,P|393:120|359:140,1,95.7000029205323,8|0,0:0|0:0,0:0:0:0:
259,327,65561,1,2,1:2:0:0:
127,182,65722,1,2,1:2:0:0:
309,255,65882,1,10,0:0:0:0:
120,355,66043,1,2,0:0:0:0:
236,95,66203,6,0,L|259:207,1,95.7000029205323,2|0,1:2|1:2,0:0:0:0:
73,21,66524,1,10,0:0:0:0:
319,77,66684,2,0,L|412:57,1,95.7000029205323,2|0,0:0|1:2,0:0:0:0:
130,224,67005,1,10,0:0:0:0:
118,204,67085,1,8,0:0:0:0:
127,182,67165,1,8,0:0:0:0:
381,227,67326,5,8,0:0:0:0:
393,247,67406,1,8,0:0:0:0:
384,269,67486,2,0,B|350:296|313:273|327:261|286:233|248:259,1,143.550004380798,6|0,1:2|0:0,0:0:0:0:
190,298,67807,2,0,P|174:343|198:384,1,95.7000029205323,10|0,0:0|0:0,0:0:0:0:
438,168,68128,1,2,1:2:0:0:
330,59,68289,1,2,1:2:0:0:
412,244,68449,2,0,B|400:300|400:300|409:327|409:327|399:384,1,143.550004380798,10|0,0:0|0:0,0:0:0:0:
475,376,68770,6,0,P|496:328|475:291,1,95.7000029205323,2|0,1:2|1:2,0:0:0:0:
230,114,69091,2,0,L|254:272,1,143.550004380798,10|0,0:0|0:0,0:0:0:0:
192,303,69412,2,0,P|152:268|156:225,1,95.7000029205323,2|0,1:2|1:2,0:0:0:0:
420,6,69732,2,0,L|404:106,1,95.7000029205323,10|0,0:0|0:0,0:0:0:0:
155,103,70053,6,0,P|176:60|271:51,1,143.550004380798,2|0,1:2|0:0,0:0:0:0:
311,104,70374,2,0,L|326:204,1,95.7000029205323,8|0,0:0|0:0,0:0:0:0:
238,376,70695,1,0,1:2:0:0:
430,261,70855,1,0,1:2:0:0:
214,187,71016,2,0,B|172:173|146:202|162:214|134:245|90:235,1,143.550004380798,10|0,0:0|0:0,0:0:0:0:
26,200,71337,6,0,P|9:155|35:110,1,95.7000029205323,2|0,1:2|1:2,0:0:0:0:
215,270,71658,2,0,L|194:373,1,95.7000029205323,10|0,0:0|0:0,0:0:0:0:
350,235,71978,1,2,1:2:0:0:
115,138,72139,1,0,1:2:0:0:
311,319,72299,2,0,P|361:334|434:275,1,143.550004380798,10|0,0:0|0:0,0:0:0:0:
442,212,72620,6,0,L|422:113,1,95.7000029205323,6|0,1:2|1:2,0:0:0:0:
233,7,72941,2,0,L|204:149,1,143.550004380798,8|0,0:0|0:0,0:0:0:0:
182,221,73262,1,0,1:2:0:0:
41,338,73422,1,0,1:2:0:0:
268,203,73583,2,0,L|362:222,1,95.7000029205323,10|0,0:0|0:0,0:0:0:0:
88,28,73904,6,0,P|53:70|80:148,1,143.550004380798,2|0,1:2|0:0,0:0:0:0:
135,199,74224,2,0,L|154:295,1,95.7000029205323,10|0,0:0|0:0,0:0:0:0:
274,353,74545,1,2,1:2:0:0:
37,248,74706,1,0,1:2:0:0:
233,108,74866,2,0,B|281:80|287:130|287:130|265:211,1,143.550004380798,10|0,0:0|0:0,0:0:0:0:
297,270,75187,6,0,P|346:277|389:241,1,95.7000029205323,2|0,1:2|1:2,0:0:0:0:
187,49,75508,2,0,P|156:87|166:143,1,95.7000029205323,8|0,0:0|0:0,0:0:0:0:
434,75,75829,2,0,P|415:29|362:9,1,95.7000029205323,0|0,1:2|1:2,0:0:0:0:
190,218,76150,2,0,B|202:276|202:276|221:294|221:294|233:354,1,143.550004380798,10|0,0:0|0:0,0:0:0:0:
158,370,76470,6,0,P|121:325|131:279,1,95.7000029205323,2|0,1:2|1:2,0:0:0:0:
399,158,76791,2,0,L|379:266,1,95.7000029205323,10|0,0:0|0:0,0:0:0:0:
268,80,77112,1,2,1:2:0:0:
492,195,77273,1,0,1:2:0:0:
312,352,77433,1,10,0:0:0:0:
312,352,77513,1,8,0:0:0:0:
312,352,77593,2,0,L|303:304,1,47.8500014602662,8|8,0:0|0:0,0:0:0:0:
174,96,77754,6,0,P|151:167|194:220,1,143.550004380798,6|0,1:2|0:0,0:0:0:0:
262,238,78075,2,0,L|356:220,1,95.7000029205323,8|0,0:0|0:0,0:0:0:0:
504,378,78396,1,2,1:2:0:0:
303,304,78556,1,2,1:2:0:0:
492,195,78716,2,0,L|509:100,1,95.7000029205323,10|0,0:0|0:0,0:0:0:0:
279,8,79037,6,0,L|296:102,1,95.7000029205323,2|0,1:2|1:2,0:0:0:0:
442,257,79358,1,10,0:0:0:0:
228,151,79519,2,0,L|133:168,1,95.7000029205323,2|0,0:0|1:2,0:0:0:0:
366,47,79839,1,2,1:2:0:0:
232,227,80000,2,0,L|85:254,1,143.550004380798,8|0,0:0|0:0,0:0:0:0:
53,188,80321,6,0,B|-3:147|-18:212|-18:212|27:304,1,191.400005841065,2|8,1:2|0:0,0:0:0:0:
133,167,80802,1,0,3:2:0:0:
265,299,80962,2,0,L|365:317,1,95.7000029205323,2|0,1:2|1:2,0:0:0:0:
155,353,81283,1,10,0:0:0:0:
305,208,81444,1,2,0:0:0:0:
115,157,81604,6,0,L|87:8,1,143.550004380798,2|0,1:2|0:0,0:0:0:0:
16,11,81925,2,0,P|0:59|25:104,1,95.7000029205323,10|0,0:0|0:0,0:0:0:0:
208,221,82246,6,0,L|233:79,1,143.550004380798,2|0,1:2|0:0,0:0:0:0:
302,43,82567,2,0,L|319:137,1,95.7000029205323,10|0,0:0|0:0,0:0:0:0:
463,369,82888,6,0,P|490:300|457:243,1,143.550004380798,6|0,1:2|0:0,0:0:0:0:
388,216,83208,2,0,L|294:233,1,95.7000029205323,8|0,0:0|0:0,0:0:0:0:
135,167,83529,1,2,1:2:0:0:
323,330,83690,1,2,1:2:0:0:
149,258,83850,1,10,0:0:0:0:
349,121,84011,1,2,0:0:0:0:
244,380,84171,6,0,L|227:286,1,95.7000029205323,2|0,1:2|1:2,0:0:0:0:
54,152,84492,1,10,0:0:0:0:
301,213,84652,2,0,L|395:195,1,95.7000029205323,2|0,0:0|1:2,0:0:0:0:
146,353,84973,2,0,L|52:370,1,95.7000029205323,2|8,1:2|0:0,0:0:0:0:
194,80,85294,5,2,1:2:0:0:
194,80,85374,1,0,1:2:0:0:
194,80,85454,2,0,P|229:122|202:205,1,143.550004380798,0|0,1:2|0:0,0:0:0:0:
147,246,85775,2,0,B|189:226|220:256|203:270|233:297|273:286,1,143.550004380798,0|0,1:2|0:0,0:0:0:0:
322,349,86096,5,2,1:2:0:0:
350,362,86176,1,8,0:0:0:0:
380,356,86256,1,10,0:0:0:0:
401,332,86336,1,8,0:0:0:0:
403,301,86416,1,2,1:2:0:0:
385,275,86497,1,8,0:0:0:0:
355,265,86577,2,0,P|346:284|363:280,1,47.8500014602662,10|8,0:0|0:0,0:0:0:0:
440,191,86738,5,2,1:2:0:0:
369,98,86898,1,0,1:2:0:0:
478,11,87059,1,10,0:0:0:0:
345,117,87219,6,0,L|277:105,1,52.1999984069825,2|0,1:2|0:0,0:0:0:0:
224,159,87540,2,0,L|145:172,1,69.6,2|0,0:0|0:0,0:0:0:0:
