osu file format v14

[General]
AudioFilename: audio.mp3
AudioLeadIn: 0
PreviewTime: 46871
Countdown: 0
SampleSet: Soft
StackLeniency: 0.7
Mode: 0
LetterboxInBreaks: 0
WidescreenStoryboard: 1

[Editor]
DistanceSpacing: 1.2
BeatDivisor: 4
GridSize: 4
TimelineZoom: 1.9

[Metadata]
Title:Kyoukaisen (TV Size)
TitleUnicode:境界線 (TV Size)
Artist:amazarashi
ArtistUnicode:amazarashi
Creator:Soue
Version:Easy
Source:86―エイティシックス―
Tags:86 Eighty Six 2nd Season Japanese TV Anime Opening Second Two 2 Male Vocals J rock Jrock J-rock Vladilena Milizé Milize ヴラディレーナ・ミリーゼ Shinei Nouzen シンエイ・ノウゼン GodKei
BeatmapID:3253745
BeatmapSetID:1592522

[Difficulty]
HPDrainRate:3
CircleSize:2.5
OverallDifficulty:3.2
ApproachRate:3
SliderMultiplier:0.94
SliderTickRate:0.5

[Events]
//Background and Video events
0,0,"background.jpg",0,0
Video,48,"video.mp4"
//Break Periods
//Storyboard Layer 0 (Background)
//Storyboard Layer 1 (Fail)
//Storyboard Layer 2 (Pass)
//Storyboard Layer 3 (Foreground)
//Storyboard Layer 4 (Overlay)
//Storyboard Sound Samples

[TimingPoints]
749,320.855614973262,4,2,1,40,1,0
749,-125,4,2,1,40,0,0
5882,-125,4,2,1,40,0,0
16150,-125,4,2,1,50,0,0
26417,-125,4,2,1,60,0,0
36684,-125,4,2,1,60,0,0
45668,-125,4,2,1,60,0,0
45989,-125,4,2,1,60,0,0
46310,-125,4,2,1,60,0,0
46952,-125,4,2,1,70,0,1
67406,-125,4,2,1,70,0,0
67486,-125,4,2,1,70,0,1
86738,-125,4,2,1,70,0,0
87540,-125,4,2,1,60,0,0
87861,-125,4,2,1,60,0,0

[Colours]
Combo1 : 188,99,241
Combo2 : 235,141,172
Combo3 : 175,226,226
Combo4 : 130,120,255

[HitObjects]
476,40,5882,6,0,L|358:23,1,112.8,2|2,0:0|0:0,0:0:0:0:
205,184,7166,2,0,L|323:167,1,112.8,2|2,0:0|0:0,0:0:0:0:
462,339,8449,2,0,L|387:328,1,75.2,2|2,0:0|0:0,0:0:0:0:
306,367,9091,2,0,L|230:377,1,75.2,2|2,0:0|0:0,0:0:0:0:
151,333,9732,2,0,P|125:290|144:232,1,112.8,2|2,0:0|0:0,0:0:0:0:
26,28,11016,6,0,B|66:49|66:49|132:33,1,112.8,2|2,0:0|0:0,0:0:0:0:
311,168,12299,2,0,B|271:189|271:189|205:173,1,112.8,2|2,0:0|0:0,0:0:0:0:
55,341,13583,2,0,B|88:326|88:326|125:336,1,75.2,2|2,0:0|0:0,0:0:0:0:
212,359,14224,2,0,B|246:373|246:373|283:363,1,75.2,2|2,0:0|0:0,0:0:0:0:
368,331,14866,2,0,L|383:211,1,112.8,2|2,0:0|0:0,0:0:0:0:
201,80,16150,6,0,P|148:68|100:97,2,112.8,2|2|0,3:2|3:2|0:0,0:0:0:0:
290,92,17433,2,0,P|284:38|242:1,2,112.8,2|2|0,1:2|3:2|0:0,0:0:0:0:
375,120,18716,2,0,P|362:150|329:176,1,75.2,2|10,3:2|0:0,0:0:0:0:
238,173,19358,1,2,0:0:0:0:
171,233,19679,1,2,0:0:0:0:
99,178,20000,2,0,B|93:136|93:136|102:112|102:112|97:66,2,112.8,2|2|0,1:2|3:2|0:0,0:0:0:0:
77,265,21283,6,0,P|58:313|78:371,2,112.8,2|2|0,3:2|3:2|0:0,0:0:0:0:
99,178,22567,2,0,P|45:175|-3:211,2,112.8,2|2|0,1:2|3:2|0:0,0:0:0:0:
150,103,23850,2,0,P|178:125|192:160,1,75.2,2|10,3:2|0:0,0:0:0:0:
191,251,24492,1,2,0:0:0:0:
265,302,24813,1,2,0:0:0:0:
339,250,25134,2,0,B|399:240|399:240|421:217|421:217|481:208,1,150.4,2|2,1:2|1:2,0:0:0:0:
506,122,26096,1,10,0:0:0:0:
444,55,26417,6,0,P|395:41|346:72,1,112.8,4|8,1:2|0:0,0:0:0:0:
270,185,27380,1,10,0:0:0:0:
208,118,27700,2,0,B|219:83|219:83|207:47,2,75.2,2|2|2,3:2|1:2|0:0,0:0:0:0:
143,182,28663,1,10,0:0:0:0:
72,238,28984,6,0,P|52:287|73:341,1,112.8,4|8,1:2|0:0,0:0:0:0:
203,377,29946,1,10,0:0:0:0:
269,316,30267,2,0,B|304:326|304:326|340:313,2,75.2,2|2|2,3:2|0:0|0:0,0:0:0:0:
206,250,31230,1,10,0:0:0:0:
243,168,31551,6,0,L|224:55,1,112.8,4|8,1:2|0:0,0:0:0:0:
349,5,32513,1,10,0:0:0:0:
421,58,32834,2,0,L|407:133,1,75.2,2|2,3:2|0:0,0:0:0:0:
362,210,33476,1,2,0:0:0:0:
410,285,33797,1,10,0:0:0:0:
359,359,34117,6,0,P|322:374|286:367,1,75.2,6|0,1:2|0:0,0:0:0:0:
219,309,34759,2,0,L|223:268,2,37.6,2|2|10,0:0|1:2|0:0,0:0:0:0:
144,360,35401,2,0,P|110:370|71:358,1,75.2,2|2,3:2|0:0,0:0:0:0:
19,285,36043,1,2,0:0:0:0:
85,224,36363,1,10,0:0:0:0:
47,141,36684,6,0,L|33:47,1,75.2,6|0,1:2|1:2,0:0:0:0:
104,9,37326,1,10,0:0:0:0:
178,60,37647,1,2,1:2:0:0:
266,42,37968,2,0,L|341:30,1,75.2,2|2,1:2|1:2,0:0:0:0:
428,11,38609,1,10,0:0:0:0:
491,74,38930,1,2,1:2:0:0:
443,150,39251,6,0,B|451:209|451:209|469:230|469:230|478:292,1,150.4,6|8,1:2|0:0,0:0:0:0:
416,359,40214,1,2,1:2:0:0:
340,309,40535,2,0,P|302:299|271:313,1,75.2,2|2,1:2|1:2,0:0:0:0:
199,369,41176,1,10,0:0:0:0:
128,313,41497,1,2,1:2:0:0:
166,231,41818,6,0,B|186:182|186:182|156:86,1,150.4,6|8,1:2|0:0,0:0:0:0:
87,30,42781,1,2,1:2:0:0:
27,97,43101,2,0,P|15:140|22:169,1,75.2,2|2,1:2|1:2,0:0:0:0:
77,240,43743,1,10,0:0:0:0:
29,316,44064,1,2,1:2:0:0:
99,371,44385,6,0,L|182:361,1,75.2,2|0,1:2|1:2,0:0:0:0:
236,296,45027,2,0,L|319:306,1,75.2,10|2,0:0|1:2,0:0:0:0:
373,369,45668,1,2,1:2:0:0:
461,349,45989,1,2,1:2:0:0:
484,261,46310,2,0,L|476:223,1,37.6,10|8,0:0|0:0,0:0:0:0:
505,91,46952,5,6,1:2:0:0:
422,54,47273,1,10,0:0:0:0:
351,109,47593,1,2,1:2:0:0:
365,198,47914,1,10,0:0:0:0:
296,257,48235,2,0,P|257:273|224:265,1,75.2,2|10,1:2|0:0,0:0:0:0:
155,209,48877,2,0,P|138:171|146:138,1,75.2,2|10,1:2|0:0,0:0:0:0:
218,85,49519,6,0,B|226:48|226:48|213:13,2,75.2,2|8|0,1:2|0:0|1:2,0:0:0:0:
145,139,50481,1,10,0:0:0:0:
80,76,50802,1,2,1:2:0:0:
4,124,51123,1,10,0:0:0:0:
1,214,51444,1,2,1:2:0:0:
81,255,51765,1,10,0:0:0:0:
166,225,52085,6,0,L|243:210,2,75.2,6|8|0,1:2|0:0|1:2,0:0:0:0:
81,255,53048,1,10,0:0:0:0:
54,341,53369,1,2,1:2:0:0:
133,383,53690,1,10,0:0:0:0:
203,326,54011,1,2,1:2:0:0:
286,360,54331,1,10,0:0:0:0:
367,321,54652,6,0,P|405:333|439:324,2,75.2,2|8|0,1:2|0:0|1:2,0:0:0:0:
340,234,55615,1,10,0:0:0:0:
407,173,55936,2,0,L|418:91,1,75.2,2|10,1:2|0:0,0:0:0:0:
368,22,56577,1,2,1:2:0:0:
284,55,56898,1,10,0:0:0:0:
255,140,57219,6,0,B|220:151|220:151|184:137,1,75.2,6|8,1:2|0:0,0:0:0:0:
102,97,57861,2,0,L|95:177,1,75.2,2|10,1:2|0:0,0:0:0:0:
31,236,58503,2,0,P|12:285|34:340,2,112.8,2|2|8,1:2|0:0|0:0,0:0:0:0:
95,171,59786,6,0,L|169:176,1,75.2,2|8,1:2|0:0,0:0:0:0:
219,252,60428,1,2,1:2:0:0:
308,261,60748,1,10,0:0:0:0:
363,189,61069,2,0,P|375:147|363:113,1,75.2,2|10,1:2|0:0,0:0:0:0:
332,33,61711,1,2,1:2:0:0:
417,3,62032,1,10,0:0:0:0:
489,56,62353,6,0,L|475:141,1,75.2,6|8,1:2|0:0,0:0:0:0:
461,219,62994,2,0,L|498:224,2,37.6,2|0|10,1:2|1:2|0:0,0:0:0:0:
390,275,63636,2,0,B|347:281|347:281|335:297|335:297|285:306,1,112.8,2|2,1:2|0:0,0:0:0:0:
226,373,64438,1,2,1:2:0:0:
151,321,64759,6,0,P|129:272|148:212,1,112.8,2|8,0:0|0:0,0:0:0:0:
217,162,65561,2,0,L|209:126,2,37.6,2|2|10,1:2|1:2|0:0,0:0:0:0:
299,199,66203,2,0,L|413:172,2,112.8,2|2|8,1:2|0:0|0:0,0:0:0:0:
217,162,67486,5,6,1:2:0:0:
147,103,67807,1,10,0:0:0:0:
183,20,68128,1,2,1:2:0:0:
273,21,68449,1,10,0:0:0:0:
328,91,68770,2,0,L|402:74,1,75.2,2|10,1:2|0:0,0:0:0:0:
472,130,69412,2,0,L|487:204,1,75.2,2|10,1:2|0:0,0:0:0:0:
503,292,70053,6,0,B|492:367,2,75.2,2|8|0,1:2|0:0|1:2,0:0:0:0:
487,203,71016,1,10,0:0:0:0:
399,180,71337,1,2,1:2:0:0:
333,241,71658,1,10,0:0:0:0:
348,329,71978,1,2,1:2:0:0:
269,373,72299,1,10,0:0:0:0:
188,332,72620,6,0,B|174:296|174:296|187:261,2,75.2,6|8|0,1:2|0:0|1:2,0:0:0:0:
106,372,73583,1,10,0:0:0:0:
34,317,73904,1,2,1:2:0:0:
48,228,74224,1,10,0:0:0:0:
132,195,74545,1,2,1:2:0:0:
145,105,74866,1,10,0:0:0:0:
71,52,75187,6,0,L|-4:31,2,75.2,2|8|0,1:2|0:0|1:2,0:0:0:0:
152,12,76150,1,10,0:0:0:0:
228,59,76470,1,2,1:2:0:0:
310,22,76791,1,10,0:0:0:0:
374,85,77112,1,2,1:2:0:0:
342,169,77433,1,10,0:0:0:0:
253,184,77754,6,0,L|244:263,1,75.2,6|8,1:2|0:0,0:0:0:0:
231,348,78396,2,0,L|191:343,2,37.6,2|2|10,1:2|1:2|0:0,0:0:0:0:
320,360,79037,2,0,P|372:379|426:349,1,112.8,2|2,1:2|0:0,0:0:0:0:
479,286,79839,1,2,1:2:0:0:
407,171,80321,6,0,L|398:96,1,75.2,2|8,1:2|0:0,0:0:0:0:
385,6,80962,1,2,1:2:0:0:
294,1,81283,1,10,0:0:0:0:
245,77,81604,2,0,P|211:91|172:86,1,75.2,2|10,1:2|0:0,0:0:0:0:
97,37,82246,1,2,1:2:0:0:
30,98,82567,1,10,0:0:0:0:
77,174,82888,6,0,L|87:253,1,75.2,6|8,1:2|0:0,0:0:0:0:
95,338,83529,1,2,1:2:0:0:
180,368,83850,1,10,0:0:0:0:
256,320,84171,2,0,P|285:301|358:320,2,112.8,2|2|8,1:2|0:0|0:0,0:0:0:0:
180,368,85454,6,0,L|105:357,1,75.2,0|0,1:2|1:2,0:0:0:0:
39,295,86096,1,2,1:2:0:0:
99,227,86417,1,2,1:2:0:0:
31,166,86738,2,0,L|11:54,1,112.8,2|2,1:2|1:2,0:0:0:0:
85,2,87540,1,2,0:0:0:0:
