osu file format v14

[General]
AudioFilename: audio.mp3
AudioLeadIn: 0
PreviewTime: 46723
Countdown: 0
SampleSet: Soft
StackLeniency: 0.4
Mode: 0
LetterboxInBreaks: 0
WidescreenStoryboard: 1

[Editor]
DistanceSpacing: 1.1
BeatDivisor: 4
GridSize: 4
TimelineZoom: 1.7

[Metadata]
Title:Kyoukaisen (TV Size)
TitleUnicode:境界線 (TV Size)
Artist:amazarashi
ArtistUnicode:amazarashi
Creator:RK657
Version:Easy
Source:86―エイティシックス―
Tags:秋田ひろむ Akita Hiromu 豊川真奈美 Toyokawa Manami eiti shikkusu 86 eighty six 2nd season japanese opening op 2 j-rock jrock rock anime
BeatmapID:3263698
BeatmapSetID:1598060

[Difficulty]
HPDrainRate:3
CircleSize:3
OverallDifficulty:3
ApproachRate:4
SliderMultiplier:0.9
SliderTickRate:1

[Events]
//Background and Video events
Video,208,"123.avi"
0,0,"bg.jpg",0,0
//Break Periods
//Storyboard Layer 0 (Background)
//Storyboard Layer 1 (Fail)
//Storyboard Layer 2 (Pass)
//Storyboard Layer 3 (Foreground)
//Storyboard Layer 4 (Overlay)
//Storyboard Sound Samples

[TimingPoints]
601,320.855614973262,4,2,1,55,1,0
601,-111.111111111111,4,2,1,55,0,0
5734,-111.111111111111,4,2,1,60,0,0
16002,-111.111111111111,4,2,1,65,0,0
25627,-111.111111111111,4,2,1,75,0,0
26269,-111.111111111111,4,2,1,70,0,0
46804,-111.111111111111,4,2,2,85,0,1
46884,-111.111111111111,4,2,1,85,0,1
67178,-111.111111111111,4,2,1,85,0,0
67338,-111.111111111111,4,2,1,85,0,1
85948,-111.111111111111,4,2,1,75,0,1
86269,-111.111111111111,4,2,1,90,0,1
87071,-111.111111111111,4,2,1,85,0,0

[Colours]
Combo1 : 160,230,150
Combo2 : 250,180,240
Combo3 : 120,200,230
Combo4 : 255,230,130

[HitObjects]
256,192,601,12,2,4451,3:2:0:0:
259,73,5734,6,0,P|315:51|378:66,1,121.499996292114,2|2,3:2|0:0,0:0:0:0:
460,204,7018,2,0,P|404:225|345:213,1,121.499996292114,2|2,0:0|0:0,0:0:0:0:
197,146,8301,2,0,L|208:229,1,80.9999975280763,2|2,0:0|0:0,0:0:0:0:
121,250,8943,2,0,L|132:333,1,80.9999975280763,2|2,0:0|0:0,0:0:0:0:
212,367,9584,2,0,P|265:348|339:340,1,121.499996292114,2|2,0:0|0:0,0:0:0:0:
471,168,10868,6,0,B|426:185|426:185|349:175,1,121.499996292114,2|2,0:0|0:0,0:0:0:0:
224,61,12151,2,0,B|269:44|269:44|346:54,1,121.499996292114,2|2,0:0|0:0,0:0:0:0:
238,195,13435,2,0,L|143:185,1,80.9999975280763,2|2,0:0|0:0,0:0:0:0:
146,275,14076,2,0,L|241:285,1,80.9999975280763,2|2,0:0|0:0,0:0:0:0:
310,253,14718,2,0,P|362:198|415:202,1,121.499996292114,2|2,0:0|0:0,0:0:0:0:
451,378,16002,6,0,P|403:366|316:348,1,121.499996292114,2|2,3:2|3:2,0:0:0:0:
276,281,16804,1,8,0:3:0:0:
156,341,17285,2,0,B|126:306|126:306|134:216,1,121.499996292114,2|2,3:2|3:2,0:0:0:0:
139,142,18087,1,8,0:3:0:0:
247,62,18568,2,0,B|342:77,2,80.9999975280763,2|10|2,3:2|0:3|0:0,0:0:0:0:
168,18,19531,1,2,0:0:0:0:
82,41,19852,1,2,3:2:0:0:
48,123,20173,2,0,L|55:180,1,40.4999987640381,10|2,0:3|3:2,0:0:0:0:
174,350,21135,6,0,P|228:318|284:302,1,121.499996292114,2|2,3:2|3:2,0:0:0:0:
372,312,21937,1,8,0:3:0:0:
470,221,22419,2,0,P|416:189|360:173,1,121.499996292114,2|2,3:2|3:2,0:0:0:0:
272,183,23221,1,8,0:3:0:0:
203,68,23702,2,0,L|116:86,2,80.9999975280763,2|10|2,3:2|0:3|0:0,0:0:0:0:
278,20,24665,1,2,0:0:0:0:
367,24,24986,2,0,B|368:119|418:69|422:191,1,161.999995056153,2|2,3:2|3:2,0:0:0:0:
370,245,25948,1,10,0:0:0:0:
297,297,26269,6,0,P|235:266|171:258,2,121.499996292114,4|8|10,3:2|0:0|0:0,0:0:0:0:
364,354,27552,1,2,3:2:0:0:
450,331,27873,1,2,0:0:0:0:
485,249,28194,2,0,P|456:205|446:170,1,80.9999975280763,2|10,0:0|0:0,0:0:0:0:
394,106,28836,2,0,P|426:52|496:42,2,121.499996292114,0|8|10,3:2|0:0|0:0,0:0:0:0:
320,155,30119,1,2,3:2:0:0:
240,195,30440,1,2,0:0:0:0:
164,147,30761,2,0,P|123:124|85:129,1,80.9999975280763,2|10,0:0|0:0,0:0:0:0:
60,211,31403,6,0,B|53:348,2,121.499996292114,0|8|10,3:2|0:0|0:0,0:0:0:0:
90,126,32686,2,0,L|71:36,1,80.9999975280763,2|2,3:2|0:0,0:0:0:0:
161,31,33328,2,0,L|180:121,1,80.9999975280763,2|10,0:0|0:0,0:0:0:0:
207,194,33969,2,0,B|304:203|266:144|365:152,1,161.999995056153,2|2,3:2|0:0,0:0:0:0:
429,204,34932,1,10,0:0:0:0:
365,266,35253,2,0,L|378:360,2,80.9999975280763,2|2|2,3:2|0:0|0:0,0:0:0:0:
288,311,36215,1,10,0:0:0:0:
236,239,36536,6,0,B|163:279|163:279|83:246,1,161.999995056153,6|10,3:2|0:0,0:0:0:0:
32,180,37499,1,2,3:2:0:0:
69,99,37820,2,0,L|168:111,1,80.9999975280763,2|2,0:0|3:2,0:0:0:0:
199,34,38461,2,0,L|298:46,1,80.9999975280763,10|2,0:0|3:2,0:0:0:0:
365,18,39103,2,0,P|440:19|451:98,1,161.999995056153,2|8,3:2|0:0,0:0:0:0:
386,151,40066,1,2,3:2:0:0:
450,212,40387,2,0,L|436:299,1,80.9999975280763,2|2,3:2|3:2,0:0:0:0:
352,320,41028,2,0,L|366:233,1,80.9999975280763,10|2,0:0|3:2,0:0:0:0:
386,151,41670,6,0,P|283:140|244:189,1,161.999995056153,2|8,3:2|0:0,0:0:0:0:
212,258,42633,1,2,3:2:0:0:
219,346,42953,2,0,P|181:364|136:357,2,80.9999975280763,2|2|10,3:2|3:2|0:0,0:0:0:0:
299,306,43916,1,2,3:2:0:0:
365,365,44237,2,0,L|452:375,1,80.9999975280763,2|0,3:2|3:2,0:0:0:0:
503,306,44879,2,0,P|486:261|474:221,1,80.9999975280763,10|2,0:0|3:2,0:0:0:0:
448,144,45520,2,0,P|395:155|357:162,2,80.9999975280763,2|2|10,3:2|3:2|0:0,0:0:0:0:
294,52,46804,6,0,P|245:73|231:109,1,80.9999975280763,6|10,3:2|0:0,0:0:0:0:
146,117,47445,2,0,P|139:169|163:200,1,80.9999975280763,2|10,3:2|0:0,0:0:0:0:
205,264,48087,1,2,3:2:0:0:
288,295,48408,1,10,0:0:0:0:
349,230,48729,2,0,L|392:220,2,40.4999987640381,2|0|10,3:2|3:2|0:0,0:0:0:0:
288,295,49371,2,0,B|254:346|254:346|137:359,1,161.999995056153,2|0,3:2|3:2,0:0:0:0:
83,303,50333,1,10,0:0:0:0:
49,219,50654,2,0,L|37:121,1,80.9999975280763,2|10,3:2|0:0,0:0:0:0:
122,104,51296,2,0,L|134:202,1,80.9999975280763,2|10,3:2|0:0,0:0:0:0:
194,247,51937,6,0,P|262:254|346:301,1,161.999995056153,2|0,3:2|3:2,0:0:0:0:
424,335,52900,1,10,0:0:0:0:
497,279,53221,2,0,L|509:188,1,80.9999975280763,2|10,3:2|0:0,0:0:0:0:
427,158,53863,2,0,L|415:249,1,80.9999975280763,2|10,3:2|0:0,0:0:0:0:
330,215,54504,2,0,P|332:145|271:74,1,161.999995056153,2|0,3:2|3:2,0:0:0:0:
206,20,55467,1,10,0:0:0:0:
167,100,55788,1,2,3:2:0:0:
78,110,56109,1,10,0:0:0:0:
16,174,56429,2,0,L|24:227,2,40.4999987640381,2|0|10,3:2|3:2|0:0,0:0:0:0:
101,201,57071,6,0,P|203:203|237:251,1,161.999995056153,6|2,3:2|3:2,0:0:0:0:
281,321,58034,1,10,0:0:0:0:
361,279,58355,2,0,P|434:306|464:348,2,121.499996292114,2|2|8,3:2|0:0|0:0,0:0:0:0:
314,203,59638,2,0,L|327:112,1,80.9999975280763,2|8,3:2|0:0,0:0:0:0:
290,40,60280,1,2,3:2:0:0:
202,25,60600,1,10,0:0:0:0:
145,93,60921,2,0,L|50:107,1,80.9999975280763,2|10,3:2|0:0,0:0:0:0:
13,177,61563,2,0,P|6:201|-2:223,2,40.4999987640381,2|0|10,3:2|3:2|0:0,0:0:0:0:
80,235,62205,6,0,B|173:243|123:298|229:308,1,161.999995056153,2|2,3:2|3:2,0:0:0:0:
307,302,63167,1,10,0:0:0:0:
256,228,63488,2,0,L|241:102,2,121.499996292114,2|2|8,3:2|0:0|0:0,0:0:0:0:
307,302,64772,2,0,P|354:311|399:326,1,80.9999975280763,0|8,3:2|0:0,0:0:0:0:
468,352,65413,1,2,3:2:0:0:
507,272,65734,1,10,0:0:0:0:
437,214,66055,2,0,L|422:132,1,80.9999975280763,2|10,3:2|0:0,0:0:0:0:
412,90,66536,2,0,P|365:70|338:78,1,80.9999975280763,2|10,0:0|0:0,0:0:0:0:
204,80,67338,6,0,P|184:120|146:137,1,80.9999975280763,6|10,3:2|0:0,0:0:0:0:
74,178,67980,2,0,P|64:158|57:133,2,40.4999987640381,2|2|10,3:2|3:2|0:0,0:0:0:0:
38,260,68622,1,2,3:2:0:0:
47,348,68943,1,10,0:0:0:0:
132,373,69264,2,0,L|177:374,2,40.4999987640381,2|0|10,3:2|3:2|0:0,0:0:0:0:
126,284,69905,2,0,P|212:236|284:255,1,161.999995056153,2|0,3:2|3:2,0:0:0:0:
322,319,70868,1,10,0:0:0:0:
403,355,71189,2,0,L|499:347,1,80.9999975280763,2|10,3:2|0:0,0:0:0:0:
480,259,71830,2,0,L|384:267,1,80.9999975280763,2|10,3:2|0:0,0:0:0:0:
315,235,72472,6,0,L|306:137,2,80.9999975280763,2|8|0,3:2|0:0|3:2,0:0:0:0:
249,295,73435,1,10,0:0:0:0:
176,346,73756,2,0,L|93:351,1,80.9999975280763,2|10,3:2|0:0,0:0:0:0:
29,290,74397,2,0,P|7:249|21:211,1,80.9999975280763,2|10,3:2|0:0,0:0:0:0:
52,137,75039,2,0,L|23:45,2,80.9999975280763,2|8|0,3:2|0:0|3:2,0:0:0:0:
133,100,76002,1,10,0:0:0:0:
218,75,76322,1,2,3:2:0:0:
299,111,76643,1,10,0:0:0:0:
344,187,76964,2,0,P|377:184|396:180,2,40.4999987640381,2|0|10,3:2|3:2|0:0,0:0:0:0:
385,266,77606,6,0,B|315:275|315:275|292:300|292:300|225:309,1,161.999995056153,6|2,3:2|3:2,0:0:0:0:
176,240,78568,1,10,0:0:0:0:
104,293,78889,2,0,P|55:253|-13:240,2,121.499996292114,2|2|8,3:2|0:0|0:0,0:0:0:0:
176,240,80173,2,0,L|164:154,1,80.9999975280763,2|8,3:2|0:0,0:0:0:0:
197,76,80814,1,2,3:2:0:0:
112,48,81135,1,10,0:0:0:0:
48,110,81456,2,0,P|31:154|37:194,1,80.9999975280763,2|10,3:2|0:0,0:0:0:0:
58,273,82098,2,0,L|137:260,1,80.9999975280763,2|10,3:2|0:0,0:0:0:0:
224,273,82740,6,0,B|318:280|275:344|379:349,1,161.999995056153,2|2,3:2|3:2,0:0:0:0:
438,302,83702,1,10,0:0:0:0:
483,225,84023,2,0,P|499:143|514:101,2,121.499996292114,2|2|8,3:2|0:0|0:0,0:0:0:0:
403,185,85306,2,0,L|315:200,1,80.9999975280763,0|0,3:2|3:2,0:0:0:0:
250,146,85948,1,10,0:0:0:0:
167,180,86269,1,10,0:0:0:0:
138,264,86590,2,0,L|47:254,1,80.9999975280763,14|10,0:0|0:0,0:0:0:0:
13,249,87071,2,0,L|27:343,1,80.9999975280763,2|2,3:2|0:0,0:0:0:0:
