osu file format v14

[General]
AudioFilename: audio.mp3
AudioLeadIn: 0
PreviewTime: -1
Countdown: 1
SampleSet: Soft
StackLeniency: 0.7
Mode: 0
LetterboxInBreaks: 0
WidescreenStoryboard: 0

[Editor]
Bookmarks: 533,11140,32356,42963,53571,74787,85394,89372
DistanceSpacing: 0.9
BeatDivisor: 4
GridSize: 4
TimelineZoom: 1.3

[Metadata]
Title:Kisetsu wa Tsugitsugi Shindeiku -Tokyo Ghoul Root A Edit-
TitleUnicode:季節は次々死んでいく -東京喰種トーキョーグール√A Edit-
Artist:amazarashi
ArtistUnicode:アマザラシ
Creator:Canonbomb18
Version:Ghoul
Source:東京喰種 トーキョーグール√A
Tags:
BeatmapID:1718530
BeatmapSetID:819656

[Difficulty]
HPDrainRate:6
CircleSize:4
OverallDifficulty:8
ApproachRate:9
SliderMultiplier:1.4
SliderTickRate:1

[Events]
//Background and Video events
0,0,"382589_tokyo-ghoul-wallpaper-1920x1080.jpg",0,0
//Break Periods
//Storyboard Layer 0 (Background)
//Storyboard Layer 1 (Fail)
//Storyboard Layer 2 (Pass)
//Storyboard Layer 3 (Foreground)
//Storyboard Sound Samples

[TimingPoints]
533,331.491712707182,4,2,1,35,1,0
533,-133.333333333333,4,2,1,35,0,0
11140,-100,4,2,1,35,0,0
32356,-133.333333333333,4,2,1,35,0,0
42963,-100,4,2,1,35,0,0
53571,-66.6666666666667,4,2,1,35,0,1
74787,-100,4,2,1,35,0,0
88046,-200,4,2,1,35,0,0

[Colours]
Combo1 : 181,106,255
Combo2 : 83,83,255
Combo3 : 255,106,106
Combo4 : 255,113,255

[HitObjects]
141,87,533,6,0,L|69:87,1,52.5000020027161
147,184,864,2,0,L|73:185,1,52.5000020027161
243,142,1195,2,0,L|306:142,1,52.5000020027161
249,240,1527,2,0,L|316:240,1,52.5000020027161
402,80,1858,6,0,L|404:152,1,52.5000020027161
305,161,2190,2,0,L|306:233,1,52.5000020027161
213,164,2521,2,0,L|214:236,1,52.5000020027161
116,83,2853,2,0,L|117:155,1,52.5000020027161
387,84,3184,6,0,L|440:35,1,52.5000020027161
288,84,3516,2,0,L|236:35,1,52.5000020027161
389,181,3847,2,0,L|440:132,1,52.5000020027161
290,181,4179,2,0,L|238:133,1,52.5000020027161
138,268,4510,5,0,0:0:0:0:
138,268,4676,1,0,0:0:0:0:
164,109,4842,5,0,0:0:0:0:
258,240,5008,1,0,0:0:0:0:
298,58,5173,5,0,0:0:0:0:
270,219,5339,1,0,0:0:0:0:
447,92,5505,5,0,0:0:0:0:
282,199,5671,1,0,0:0:0:0:
504,219,5836,6,0,P|487:256|472:282,1,52.5000020027161
386,149,6168,2,0,P|402:197|407:222,1,52.5000020027161
252,138,6499,2,0,P|282:167|301:189,1,52.5000020027161
119,198,6831,2,0,P|155:203|190:211,1,52.5000020027161
96,344,7162,6,0,P|67:312|51:287,1,52.5000020027161
231,301,7494,2,0,P|183:293|159:287,1,52.5000020027161
286,175,7825,2,0,P|251:203|231:215,1,52.5000020027161
244,49,8157,2,0,P|235:89|225:119,1,52.5000020027161
38,58,8488,6,0,P|43:101|51:126,1,52.5000020027161
149,115,8820,2,0,P|177:154|190:168,1,52.5000020027161
299,153,9151,2,0,P|347:167|369:168,1,52.5000020027161
422,78,9483,2,0,P|465:56|484:41,1,52.5000020027161
285,40,9814,5,0,0:0:0:0:
285,40,9980,1,0,0:0:0:0:
153,113,10146,5,0,0:0:0:0:
113,220,10312,1,0,0:0:0:0:
280,136,10477,1,0,0:0:0:0:
266,271,10643,1,0,0:0:0:0:
148,89,10809,1,0,0:0:0:0:
69,281,10974,1,0,0:0:0:0:
316,98,11140,6,0,P|355:102|390:126,1,70
237,49,11472,2,0,L|233:165,1,105
233,191,11803,1,0,0:0:0:0:
229,338,11969,1,0,0:0:0:0:
78,213,12135,2,0,P|109:175|143:162,1,70
265,149,12466,6,0,L|261:66,1,70
270,252,12798,2,0,P|193:241|164:215,1,105
151,195,13129,1,0,0:0:0:0:
135,65,13295,1,0,0:0:0:0:
309,43,13461,2,0,L|313:127,1,70
337,213,13792,6,0,P|383:200|418:203,1,70
353,316,14124,2,0,P|313:326|262:318,1,70
202,239,14455,2,0,P|239:226|276:228,1,70
212,328,14787,2,0,P|168:330|130:317,1,70
58,202,15118,5,0,0:0:0:0:
58,202,15284,1,0,0:0:0:0:
191,76,15450,2,0,B|225:78|225:78|300:107,1,105
326,119,15781,1,0,0:0:0:0:
282,212,15947,1,0,0:0:0:0:
151,81,16113,1,0,0:0:0:0:
90,262,16278,1,0,0:0:0:0:
90,262,16444,6,0,L|165:287,1,70
272,291,16776,2,0,L|269:176,1,105
268,156,17107,1,0,0:0:0:0:
155,156,17273,1,0,0:0:0:0:
82,254,17439,2,0,P|47:226|30:189,1,70
196,265,17770,6,0,P|238:260|271:232,1,70
334,124,18102,2,0,L|333:239,1,105
331,263,18433,1,0,0:0:0:0:
457,250,18599,1,0,0:0:0:0:
334,93,18765,1,0,0:0:0:0:
208,196,18930,1,0,0:0:0:0:
208,196,19096,6,0,P|175:225|143:234,1,70
191,105,19428,2,0,P|231:74|262:62,1,70
287,166,19759,2,0,P|304:207|327:229,1,70
195,131,20091,2,0,P|173:97|143:76,1,70
255,192,20422,5,0,0:0:0:0:
255,192,20588,1,0,0:0:0:0:
413,296,20753,6,0,B|426:258|426:258|421:187,1,105
412,160,21085,1,0,0:0:0:0:
278,108,21251,1,0,0:0:0:0:
218,312,21416,2,0,P|263:296|287:269,1,70
110,242,21748,6,0,P|89:208|83:169,1,70
117,62,22079,2,0,L|218:117,1,105
244,129,22411,1,0,0:0:0:0:
378,194,22577,1,0,0:0:0:0:
322,26,22742,1,0,0:0:0:0:
322,26,22908,1,0,0:0:0:0:
118,155,23240,5,0,0:0:0:0:
177,264,23405,2,0,B|205:236|205:236|276:207,1,105
296,197,23737,1,0,0:0:0:0:
429,176,23903,1,0,0:0:0:0:
252,36,24068,2,0,P|279:77|281:104,1,70
273,139,24317,1,0,0:0:0:0:
249,164,24400,6,0,P|211:186|195:211,1,70
52,117,24731,2,0,P|130:100|172:100,1,105
195,100,25063,1,0,0:0:0:0:
313,161,25229,1,0,0:0:0:0:
450,33,25394,1,0,0:0:0:0:
450,33,25560,1,0,0:0:0:0:
442,229,25892,5,0,0:0:0:0:
361,298,26057,2,0,B|324:297|324:297|249:316,1,105
228,323,26389,1,0,0:0:0:0:
90,346,26555,1,0,0:0:0:0:
54,155,26720,1,0,0:0:0:0:
254,193,26886,1,0,0:0:0:0:
254,193,27052,6,0,P|282:159|281:114,1,70
201,30,27383,2,0,B|239:20|239:20|324:32,1,105
343,36,27715,1,0,0:0:0:0:
424,143,27881,1,0,0:0:0:0:
232,147,28046,1,0,0:0:0:0:
424,143,28212,1,0,0:0:0:0:
424,143,28378,6,0,P|397:175|368:200,1,70
182,242,28709,2,0,B|223:247|223:247|294:286,1,105
311,297,29041,1,0,0:0:0:0:
409,342,29207,1,0,0:0:0:0:
373,142,29372,1,0,0:0:0:0:
249,106,29538,1,0,0:0:0:0:
249,106,29704,6,0,P|219:138|186:150,1,70
82,61,30035,2,0,B|69:93|69:93|72:172,1,105
76,196,30367,1,0,0:0:0:0:
198,230,30532,1,0,0:0:0:0:
98,37,30698,1,0,0:0:0:0:
98,37,31195,5,0,0:0:0:0:
73,139,31361,2,0,B|93:173|93:173|101:244,1,105
105,277,31693,1,0,0:0:0:0:
105,312,31776,1,0,0:0:0:0:
104,349,31858,1,0,0:0:0:0:
75,136,32024,1,0,0:0:0:0:
343,50,32356,6,0,L|404:23,1,52.5000020027161
309,167,32687,2,0,L|256:146,1,52.5000020027161
359,276,33019,2,0,L|410:245,1,52.5000020027161
90,70,33682,6,0,L|36:45,1,52.5000020027161
153,175,34013,2,0,L|213:144,1,52.5000020027161
97,303,34345,2,0,L|30:264,1,52.5000020027161
70,56,35008,6,0,L|70:117,1,52.5000020027161
166,150,35339,2,0,L|168:209,1,52.5000020027161
275,234,35671,2,0,L|276:302,1,52.5000020027161
383,301,36002,2,0,L|386:374,1,52.5000020027161
492,362,36334,6,0,P|496:300|473:254,1,105.000004005432
406,328,36831,1,0,0:0:0:0:
339,246,36997,2,0,P|279:223|227:244,1,105.000004005432
29,355,37660,6,0,L|30:280,1,52.5000020027161
136,281,37991,2,0,L|139:209,1,52.5000020027161
249,210,38323,2,0,L|254:140,1,52.5000020027161
360,140,38654,2,0,L|364:75,1,52.5000020027161
485,28,38986,6,0,P|485:94|456:139,1,105.000004005432
391,62,39483,1,0,0:0:0:0:
339,147,39649,2,0,P|287:197|242:202,1,105.000004005432
98,183,40312,6,0,L|95:240,1,52.5000020027161
203,183,40643,2,0,L|201:116,1,52.5000020027161
316,186,40974,2,0,L|312:249,1,52.5000020027161
433,185,41306,2,0,L|422:122,1,52.5000020027161
255,26,41637,6,0,L|255:136,1,105.000004005432
257,370,42300,2,0,L|257:245,1,105.000004005432
32,37,42963,6,0,L|86:112,1,70
186,94,43295,2,0,L|185:179,1,70
305,197,43626,2,0,L|248:258,1,70
488,26,44289,6,0,L|487:114,1,70
368,144,44621,2,0,L|439:202,1,70
283,274,44952,2,0,L|375:270,1,70
190,109,45615,6,0,L|191:31,1,70
296,190,45947,2,0,L|296:108,1,70
205,233,46278,2,0,L|204:327,1,70
298,315,46610,2,0,L|297:403,1,70
338,193,46941,6,0,L|421:192,1,70
194,140,47273,5,0,0:0:0:0:
139,204,47439,1,0,0:0:0:0:
298,143,47604,1,0,0:0:0:0:
311,268,47770,1,0,0:0:0:0:
201,108,47936,1,0,0:0:0:0:
98,287,48102,1,0,0:0:0:0:
317,114,48267,6,0,L|390:78,1,70
372,209,48599,2,0,L|304:249,1,70
216,155,48930,2,0,L|151:111,1,70
137,228,49262,1,0,0:0:0:0:
64,288,49428,1,0,0:0:0:0:
63,113,49593,6,0,L|48:41,1,70
199,148,49925,2,0,L|144:94,1,70
401,123,50256,2,0,P|284:97|214:32,1,210
98,70,50919,6,0,L|157:109,1,70
345,180,51251,2,0,L|399:103,1,70
187,273,51582,2,0,L|118:229,1,70
338,373,51914,2,0,L|397:311,1,70
258,194,52245,2,0,L|258:34,1,140
256,31,52742,1,0,0:0:0:0:
132,131,52908,5,0,0:0:0:0:
110,224,53074,1,0,0:0:0:0:
242,101,53240,1,0,0:0:0:0:
220,240,53405,1,0,0:0:0:0:
361,55,53571,6,0,P|407:94|422:173,1,105.000004005432
328,219,53903,1,0,0:0:0:0:
292,99,54068,1,0,0:0:0:0:
422,134,54234,2,0,P|423:255|336:305,1,210.000008010865
249,234,54731,1,0,0:0:0:0:
294,32,54897,6,0,L|197:82,1,105.000004005432
97,116,55229,2,0,L|222:117,1,105.000004005432
320,92,55560,2,0,L|217:150,1,105.000004005432
113,184,55892,2,0,L|235:181,1,105.000004005432
319,122,56223,6,0,P|378:157|401:197,1,105.000004005432
458,154,56555,2,0,P|422:197|423:251,1,105.000004005432
488,288,56886,2,0,P|429:321|384:312,1,105.000004005432
404,379,57218,2,0,P|370:329|313:323,1,105.000004005432
158,322,57549,6,0,L|247:259,1,105.000004005432
268,145,57881,2,0,L|279:265,1,105.000004005432
219,307,58212,2,0,L|313:259,1,105.000004005432
330,129,58544,2,0,L|335:233,1,105.000004005432
342,322,58875,2,0,P|382:370|436:385,2,105.000004005432
127,50,59538,6,0,P|79:93|72:136,1,105.000004005432
240,59,59870,2,0,P|185:84|126:68,1,105.000004005432
255,83,60201,2,0,P|315:41|359:38,1,105.000004005432
449,97,60532,2,0,P|380:75|358:35,1,105.000004005432
441,218,60864,2,0,P|424:149|451:105,1,105.000004005432
415,224,61195,2,0,P|376:257|367:308,1,105.000004005432
109,349,61527,5,0,0:0:0:0:
235,223,61693,1,0,0:0:0:0:
227,384,61858,5,0,0:0:0:0:
259,208,62024,1,0,0:0:0:0:
362,342,62190,5,0,0:0:0:0:
273,189,62356,1,0,0:0:0:0:
463,209,62521,5,0,0:0:0:0:
284,166,62687,1,0,0:0:0:0:
85,88,62853,6,0,P|120:29|241:75,1,210.000008010865
249,91,63350,1,0,0:0:0:0:
133,299,63516,5,0,0:0:0:0:
63,128,63682,1,0,0:0:0:0:
338,203,63847,5,0,0:0:0:0:
119,85,64013,1,0,0:0:0:0:
219,40,64179,6,0,B|256:36|256:36|337:75,1,105.000004005432
421,140,64510,2,0,P|442:229|421:302,1,157.500006008148
406,325,64842,1,0,0:0:0:0:
241,152,65008,5,0,0:0:0:0:
101,312,65173,1,0,0:0:0:0:
353,370,65339,1,0,0:0:0:0:
353,370,65505,6,0,P|405:319|415:266,1,105.000004005432
384,146,65836,6,0,B|358:189|358:189|254:233,1,157.500006008148
225,247,66168,1,0,0:0:0:0:
128,60,66334,5,0,0:0:0:0:
334,96,66499,1,0,0:0:0:0:
448,328,66665,1,0,0:0:0:0:
448,328,66831,6,0,P|399:357|338:359,1,105.000004005432
242,231,67162,2,0,P|305:214|337:169,1,105.000004005432
281,41,67494,2,0,P|200:60|171:47,1,105.000004005432
394,63,67825,1,0,0:0:0:0:
226,181,67991,1,0,0:0:0:0:
218,180,68157,6,0,P|156:199|127:236,1,105.000004005432
58,348,68488,2,0,B|85:319|85:319|216:328,1,157.500006008148
229,330,68820,1,0,0:0:0:0:
459,333,68986,5,0,0:0:0:0:
362,162,69151,1,0,0:0:0:0:
111,105,69317,1,0,0:0:0:0:
111,105,69483,6,0,P|95:159|104:210,1,105.000004005432
232,124,69814,2,0,P|261:74|318:49,1,105.000004005432
354,172,70146,2,0,P|349:251|374:293,1,105.000004005432
472,189,70477,2,0,P|486:132|520:97,1,105.000004005432
269,66,70809,6,0,P|266:131|300:169,1,105.000004005432
199,294,71140,2,0,P|237:236|288:223,1,105.000004005432
102,143,71472,2,0,L|222:175,1,105.000004005432
412,215,71803,5,0,0:0:0:0:
272,53,71969,1,0,0:0:0:0:
272,53,72135,6,0,P|200:74|168:103,1,105.000004005432
170,319,72466,5,0,0:0:0:0:
281,172,72632,1,0,0:0:0:0:
328,355,72798,5,0,0:0:0:0:
298,161,72963,1,0,0:0:0:0:
461,270,73129,5,0,0:0:0:0:
311,143,73295,1,0,0:0:0:0:
281,172,73378,1,0,0:0:0:0:
250,189,73461,1,0,0:0:0:0:
47,132,73626,5,0,0:0:0:0:
237,332,73792,2,0,P|175:344|123:327,1,105.000004005432
325,109,74124,6,0,P|388:105|431:131,1,105.000004005432
233,41,74455,2,0,P|254:95|299:122,1,105.000004005432
75,68,74787,5,0,0:0:0:0:
136,244,74952,1,0,0:0:0:0:
240,89,75118,1,0,0:0:0:0:
41,174,75284,1,0,0:0:0:0:
324,249,75450,5,0,0:0:0:0:
420,80,75615,1,0,0:0:0:0:
420,80,75781,2,0,P|366:70|328:81,1,70
135,50,76113,5,0,0:0:0:0:
158,235,76278,1,0,0:0:0:0:
317,122,76444,1,0,0:0:0:0:
111,146,76610,1,0,0:0:0:0:
261,345,76776,5,0,0:0:0:0:
438,286,76941,1,0,0:0:0:0:
438,286,77107,2,0,P|475:233|478:210,1,70
352,70,77439,5,0,0:0:0:0:
238,240,77604,1,0,0:0:0:0:
424,277,77770,1,0,0:0:0:0:
273,134,77936,1,0,0:0:0:0:
88,329,78102,5,0,0:0:0:0:
54,127,78267,1,0,0:0:0:0:
54,127,78433,2,0,P|84:84|116:76,1,70
254,73,78765,5,0,0:0:0:0:
144,226,78930,1,0,0:0:0:0:
341,242,79096,1,0,0:0:0:0:
162,132,79262,1,0,0:0:0:0:
454,85,79428,5,0,0:0:0:0:
444,287,79593,1,0,0:0:0:0:
444,287,79759,2,0,P|406:323|383:329,1,70
194,305,80091,5,0,0:0:0:0:
309,150,80256,1,0,0:0:0:0:
110,129,80422,1,0,0:0:0:0:
280,250,80588,1,0,0:0:0:0:
376,17,80753,5,0,0:0:0:0:
465,194,80919,1,0,0:0:0:0:
465,194,81085,2,0,P|453:245|434:262,1,70
229,300,81416,5,0,0:0:0:0:
162,118,81582,1,0,0:0:0:0:
369,150,81748,1,0,0:0:0:0:
171,230,81914,1,0,0:0:0:0:
429,351,82079,5,0,0:0:0:0:
268,225,82245,1,0,0:0:0:0:
461,115,82411,1,0,0:0:0:0:
341,308,82577,1,0,0:0:0:0:
341,308,82742,5,0,0:0:0:0:
393,98,82908,1,0,0:0:0:0:
341,308,83074,1,0,0:0:0:0:
185,299,83405,5,0,0:0:0:0:
115,90,83571,1,0,0:0:0:0:
185,299,83737,1,0,0:0:0:0:
317,42,84068,5,0,0:0:0:0:
152,231,84234,1,0,0:0:0:0:
317,42,84400,1,0,0:0:0:0:
400,302,84731,5,0,0:0:0:0:
207,115,84897,1,0,0:0:0:0:
400,302,85063,1,0,0:0:0:0:
400,302,85229,1,0,0:0:0:0:
400,302,85394,6,0,P|429:255|427:226,1,70
368,118,85726,1,0,0:0:0:0:
288,212,85892,2,0,P|239:240|204:238,1,70
74,125,86223,1,0,0:0:0:0:
74,125,86389,1,0,0:0:0:0:
274,55,86555,1,0,0:0:0:0:
274,55,86720,6,0,P|313:74|335:99,1,70
365,215,87052,1,0,0:0:0:0:
153,303,87218,1,0,0:0:0:0:
153,303,87383,2,0,P|113:280|86:255,1,70
72,120,87715,1,0,0:0:0:0:
291,85,87881,1,0,0:0:0:0:
291,85,88046,6,0,P|224:131|328:241,1,280
