osu file format v14

[General]
AudioFilename: Amazarashi.mp3
AudioLeadIn: 0
PreviewTime: 53286
Countdown: 0
SampleSet: Normal
StackLeniency: 0.7
Mode: 0
LetterboxInBreaks: 1
WidescreenStoryboard: 0

[Editor]
DistanceSpacing: 1
BeatDivisor: 4
GridSize: 16
TimelineZoom: 1.3

[Metadata]
Title:Kisetsu wa Tsugitsugi Shindeiku (Tokyo Ghoul Root A Edit)
TitleUnicode:季節は次々死んでいく -東京喰種トーキョーグール√A Edit-
Artist:amazarashi
ArtistUnicode:amazarashi
Creator:Sognux
Version:Normal
Source:東京喰種 トーキョーグール√A
Tags:tokyo ghoul root a season 2 ending Seasons die one after another
BeatmapID:705419
BeatmapSetID:316617

[Difficulty]
HPDrainRate:4
CircleSize:3
OverallDifficulty:5
ApproachRate:5
SliderMultiplier:1.2
SliderTickRate:1

[Events]
//Background and Video events
0,0,"tokyo_ghoul_wallpaper_by_dickywardhana-d83151n.png",0,0
Video,0,"amazarashi.avi"
//Break Periods
//Storyboard Layer 0 (Background)
//Storyboard Layer 1 (Fail)
//Storyboard Layer 2 (Pass)
//Storyboard Layer 3 (Foreground)
//Storyboard Layer 4 (Overlay)
//Storyboard Sound Samples

[TimingPoints]
248,331.491712707182,4,1,0,60,1,0
248,-133.333333333333,4,2,0,75,0,0
10524,-133.333333333333,4,1,0,50,0,0
32071,-200,4,1,0,50,0,0
40027,-166.666666666667,4,1,0,50,0,0
42678,-125,4,1,0,50,0,0
53286,-100,4,1,0,80,0,1
74502,-100,4,1,0,80,0,0
77485,-133.333333333333,4,1,0,80,0,0

[HitObjects]
96,112,248,6,0,L|192:64,2,90.0000034332277,0|2|0,0:0|0:0|0:0,0:0:0:0:
80,224,1242,2,0,B|96:288|144:304,1,90.0000034332277
218,297,1905,1,2,0:0:0:0:
307,295,2236,2,0,L|307:231|307:199,1,90.0000034332277,2|0,0:0|0:0,0:0:0:0:
371,141,2899,6,0,P|323:109|275:109,1,90.0000034332277,0|2,0:0|0:0,0:0:0:0:
227,170,3562,2,0,P|262:197|306:204,1,90.0000034332277,0|2,0:0|0:0,0:0:0:0:
382,252,4225,1,0,0:0:0:0:
308,303,4557,1,0,0:0:0:0:
219,317,4888,2,0,B|172:330|136:294,1,90.0000034332277,2|4,0:0|0:0,0:0:0:0:
256,192,5551,12,0,10192,0:0:0:0:
112,96,10855,6,0,P|144:96|192:128,1,90.0000034332277,8|0,0:0|0:0,0:0:0:0:
192,176,11352,1,0,0:0:0:0:
192,224,11518,2,0,P|208:272|256:304,1,90.0000034332277,8|0,0:0|0:0,0:0:0:0:
288,224,12181,2,0,P|352:224|384:208,2,90.0000034332277
288,128,13176,1,8,0:0:0:0:
256,48,13507,6,2,P|208:32|160:48,1,90.0000034332277
112,112,14170,2,0,P|96:176|112:208,1,90.0000034332277
160,256,14833,1,0,0:0:0:0:
240,224,15165,1,0,0:0:0:0:
320,176,15496,2,0,L|336:80,1,90.0000034332277
432,96,16159,6,2,B|432:176|432:176|464:192|464:192|464:272|464:272,1,180.000006866455,0|0,0:0|0:0,0:0:0:0:
368,272,17154,1,0,0:0:0:0:
352,192,17485,2,2,B|352:96|352:96|272:64,1,180.000006866455
192,112,18480,1,8,0:0:0:0:
192,208,18811,6,0,L|192:256,2,45.0000017166138
192,112,19474,2,2,L|288:112,1,90.0000034332277,2|6,0:0|0:0,0:0:0:0:
368,128,20137,2,0,L|416:128,2,45.0000017166138
368,224,20800,2,0,P|320:256|272:256,1,90.0000034332277
208,240,21463,6,0,L|208:144,1,90.0000034332277
208,64,22126,2,0,P|256:80|304:112,1,90.0000034332277,0|4,0:0|0:0,0:0:0:0:
288,192,22789,1,0,0:0:0:0:
192,192,23120,1,0,0:0:0:0:
96,192,23452,2,0,L|96:240,2,45.0000017166138,0|8|0,0:0|0:0|0:0,0:0:0:0:
96,96,24115,6,0,L|192:96,1,90.0000034332277
272,96,24778,1,0,0:0:0:0:
304,176,25109,2,0,P|288:224|256:272,1,90.0000034332277,8|0,0:0|0:0,0:0:0:0:
240,288,25607,1,0,0:0:0:0:
192,288,25772,2,0,L|96:288,1,90.0000034332277,8|0,0:0|0:0,0:0:0:0:
112,192,26435,2,0,L|112:144,1,45.0000017166138
112,96,26767,6,8,L|208:96,1,90.0000034332277
240,96,27264,1,0,0:0:0:0:
288,96,27430,2,0,L|288:192,2,90.0000034332277
192,96,28424,2,0,L|96:96,1,90.0000034332277,8|0,0:0|0:0,0:0:0:0:
96,192,29087,1,8,0:0:0:0:
192,192,29419,6,0,B|256:192|256:192|256:160|256:160,1,90.0000034332277
256,128,29916,1,8,0:0:0:0:
256,80,30082,2,4,B|256:16|256:16|224:16|224:16,1,90.0000034332277
144,16,30745,2,0,P|112:48|96:96,1,90.0000034332277
112,176,31408,1,0,0:0:0:0:
176,240,31739,1,4,0:0:0:0:
240,304,32071,6,0,P|256:288|256:240,1,60
256,192,32734,1,8,0:0:0:0:
208,80,33397,2,0,P|176:64|144:64,2,60,0|0|4,0:0|0:0|0:0,0:0:0:0:
128,176,34723,6,0,P|112:224|112:240,1,60
112,288,35386,1,8,0:0:0:0:
176,288,35717,2,0,P|208:256|209:238,1,60
208,176,36380,2,0,L|208:112,2,60,0|0|4,0:0|0:0|0:0,0:0:0:0:
272,176,37375,6,0,L|336:176,1,60
368,224,38038,1,8,0:0:0:0:
342,277,38369,2,0,L|310:341,2,60
368,224,39364,1,4,0:0:0:0:
224,128,40027,6,0,P|192:160|176:192,1,71.9999978027344,8|0,0:0|0:0,0:0:0:0:
160,256,40689,2,0,P|175:298|197:326,1,71.9999978027344,8|0,0:0|0:0,0:0:0:0:
260,338,41352,2,0,P|325:311|366:250,1,143.999995605469
368,144,42678,6,0,L|256:144,1,96,8|0,0:0|0:0,0:0:0:0:
224,144,43176,1,0,0:0:0:0:
224,192,43341,2,6,L|224:304,1,96,8|0,0:0|0:0,0:0:0:0:
320,288,44004,2,0,L|368:288,2,48,8|0|0,0:0|0:0|0:0,0:0:0:0:
320,240,44502,1,0,0:0:0:0:
320,192,44667,2,0,L|400:128,1,96,8|0,0:0|0:0,0:0:0:0:
320,64,45330,6,0,L|208:64,1,96
144,112,45993,2,0,L|144:208,2,96,8|0|8,0:0|0:0|0:0,0:0:0:0:
240,112,46988,1,0,0:0:0:0:
336,112,47319,1,4,0:0:0:0:
448,272,47982,6,0,P|416:320|368:336,1,96
352,240,48645,1,8,0:0:0:0:
256,208,48977,2,8,L|208:192,2,48,0|0|0,0:0|0:0|0:0,0:0:0:0:
272,112,49640,2,0,P|304:96|384:96,1,96
336,192,50303,1,8,0:0:0:0:
320,288,50634,1,8,0:0:0:0:
224,320,50966,1,4,0:0:0:0:
176,240,51297,2,0,B|128:272|96:240|96:240|80:192|80:192|16:176,2,192
64,32,53286,6,0,P|128:0|192:16,1,120
192,64,53783,1,8,0:0:0:0:
192,128,53949,2,0,P|128:160|64:144,1,120
96,272,54612,6,0,L|240:256,1,120,8|0,0:0|0:0,0:0:0:0:
336,256,55275,2,0,L|352:112,1,120,8|0,0:0|0:0,0:0:0:0:
256,48,55938,2,0,P|192:64|144:112,1,120,8|4,0:0|0:0,0:0:0:0:
176,224,56601,2,0,L|304:224,1,120,8|0,0:0|0:0,0:0:0:0:
352,224,57098,5,8,0:0:0:0:
352,160,57264,2,0,P|336:112|288:48,2,120,8|0|12,0:0|0:0|0:0,0:0:0:0:
352,288,58259,1,0,0:0:0:0:
240,240,58590,2,10,B|208:304|240:352|272:368,1,120
368,304,59253,6,0,P|400:288|432:192,2,120,0|0|4,0:0|0:0|0:0,0:0:0:0:
320,192,60247,1,8,0:0:0:0:
272,80,60579,2,0,P|160:96|144:112,1,120,0|8,0:0|0:0,0:0:0:0:
112,208,61242,1,0,0:0:0:0:
192,288,61573,1,8,0:0:0:0:
224,176,61905,2,0,P|272:144|352:128,1,120,0|8,0:0|0:0,0:0:0:0:
320,256,62568,6,0,P|288:304|208:336,1,120,0|8,0:0|0:0,0:0:0:0:
160,240,63231,1,8,0:0:0:0:
144,128,63562,2,0,L|208:144,1,60
256,160,63894,2,0,L|384:160,2,120,8|0|8,0:0|0:0|0:0,0:0:0:0:
256,288,64888,1,8,0:0:0:0:
384,288,65220,6,0,B|384:368|384:368|336:368,1,120,8|0,0:0|0:0,0:0:0:0:
224,352,65883,1,0,0:0:0:0:
112,336,66214,2,0,L|112:208,1,120,0|8,0:0|0:0,0:0:0:0:
176,208,66712,1,8,0:0:0:0:
240,208,66877,2,0,L|240:80,1,120,0|8,0:0|0:0,0:0:0:0:
352,80,67540,1,8,0:0:0:0:
480,80,67872,6,0,B|480:160|480:160|432:160,2,120,8|0|8,0:0|0:0|0:0,0:0:0:0:
384,160,68866,2,0,L|384:288,1,120,0|8,0:0|0:0,0:0:0:0:
323,282,69364,1,0,0:0:0:0:
263,282,69529,2,0,L|263:154,1,120,0|8,0:0|0:0,0:0:0:0:
320,64,70192,2,0,P|240:64|192:80,1,120,0|8,0:0|0:0,0:0:0:0:
112,160,70855,6,8,P|160:224|224:240,1,120
256,240,71352,1,8,0:0:0:0:
256,176,71518,2,0,L|320:176,1,60
384,176,71850,2,0,L|384:304,2,120,8|0|12,0:0|0:0|0:0,0:0:0:0:
384,48,72844,2,0,L|256:48,1,120,0|8,0:0|0:0,0:0:0:0:
160,96,73507,2,0,P|128:144|112:208,2,120,0|8|4,0:0|0:0|0:0,0:0:0:0:
256,192,74502,12,4,77154,0:0:0:0:
112,96,78480,6,0,B|176:96|176:96|192:128,1,90.0000034332277
208,160,78977,1,8,0:0:0:0:
192,208,79143,2,0,P|144:256|144:288,1,90.0000034332277
224,304,79806,2,0,L|320:304,1,90.0000034332277
400,272,80468,2,0,B|416:224|400:176,2,90.0000034332277,8|0|8,0:0|0:0|0:0,0:0:0:0:
320,224,81463,2,0,L|224:224,1,90.0000034332277,0|8,0:0|0:0,0:0:0:0:
176,144,82126,5,8,0:0:0:0:
240,80,82457,2,0,L|336:80,2,90.0000034332277,8|0|4,0:0|0:0|0:0,0:0:0:0:
160,64,83452,1,8,0:0:0:0:
128,144,83783,2,0,L|128:240,1,90.0000034332277,0|8,0:0|0:0,0:0:0:0:
224,240,84446,2,0,L|288:240,2,45.0000017166138,0|8|4,0:0|0:0|0:0,0:0:0:0:
192,160,85109,6,0,B|192:96|192:96|224:80,1,90.0000034332277,8|0,0:0|0:0,0:0:0:0:
304,94,85772,2,0,B|352:126|352:126|352:158,1,90.0000034332277,8|0,0:0|0:0,0:0:0:0:
352,256,86435,1,0,0:0:0:0:
262,270,86767,1,0,0:0:0:0:
189,323,87098,6,0,L|93:323,1,90.0000034332277,8|0,0:0|0:0,0:0:0:0:
81,234,87761,2,0,P|97:170|129:154,1,90.0000034332277,8|0,0:0|0:0,0:0:0:0:
202,174,88424,2,0,P|266:174|298:158,1,90.0000034332277,8|4,0:0|0:0,0:0:0:0:
