osu file format v14

[General]
AudioFilename: audio.mp3
AudioLeadIn: 0
PreviewTime: 295662
Countdown: 0
SampleSet: Soft
StackLeniency: 0.7
Mode: 0
LetterboxInBreaks: 0
WidescreenStoryboard: 0

[Editor]
DistanceSpacing: 6
BeatDivisor: 4
GridSize: 4
TimelineZoom: 1

[Metadata]
Title:Kisetsu wa Tsugitsugi Shindeiku
TitleUnicode:季節は次々死んでいく
Artist:amazarashi
ArtistUnicode:amazarashi
Creator:Battle
Version:Revival
Source:東京喰種 トーキョーグール√A
Tags:seasons die one after the other tokyo ghoul root a rock japanese j-rock full version season 2 ending
BeatmapID:1087018
BeatmapSetID:511335

[Difficulty]
HPDrainRate:6
CircleSize:4
OverallDifficulty:8.7
ApproachRate:9
SliderMultiplier:1.7
SliderTickRate:1

[Events]
//Background and Video events
0,0,"44734435_p0.jpg",0,0
//Break Periods
2,29591,39233
2,241746,251056
2,286829,290006
//Storyboard Layer 0 (Background)
//Storyboard Layer 1 (Fail)
//Storyboard Layer 2 (Pass)
//Storyboard Layer 3 (Foreground)
//Storyboard Layer 4 (Overlay)
//Storyboard Sound Samples

[TimingPoints]
8176,331.491712707182,4,2,2,40,1,0
13479,-100,4,2,1,50,0,0
18783,-100,4,2,1,60,0,0
29059,-100,4,2,1,50,0,0
29225,-100,4,2,1,60,0,0
29391,-100,4,2,1,40,0,0
39833,-100,4,2,1,50,0,0
50606,-100,4,2,1,60,0,0
54667,-100,4,2,1,5,0,0
54750,-100,4,2,1,60,0,0
71490,-100,4,2,1,40,0,0
71822,-133.333333333333,4,2,0,50,0,0
77126,-133.333333333333,4,2,1,40,0,0
77209,-133.333333333333,4,2,0,50,0,0
82430,-133.333333333333,4,2,1,60,0,0
90385,-133.333333333333,4,2,1,30,0,0
90717,-133.333333333333,4,2,1,40,0,0
91048,-133.333333333333,4,2,1,50,0,0
91380,-133.333333333333,4,2,1,60,0,0
91711,-133.333333333333,4,2,1,70,0,0
92374,-133.333333333333,4,2,0,60,0,0
93037,-90.9090909090909,4,2,1,80,0,1
103314,-90.9090909090909,4,2,1,60,0,1
103479,-90.9090909090909,4,2,1,80,0,1
113921,-90.9090909090909,4,2,1,60,0,1
114253,-90.9090909090909,4,2,1,80,0,1
118231,-133.333333333333,4,2,1,40,0,1
118399,-90.9090909090909,4,2,1,80,0,1
118562,-133.333333333333,4,2,1,50,0,1
118728,-90.9090909090909,4,2,1,80,0,1
118894,-90.9090909090909,4,2,1,60,0,1
119059,-90.9090909090909,4,2,1,80,0,1
119225,-90.9090909090909,4,2,1,70,0,1
119391,-90.9090909090909,4,2,1,80,0,1
124529,-90.9090909090909,4,2,1,60,0,1
124778,-90.9090909090909,4,2,1,80,0,1
135468,-100,4,2,1,60,0,0
140772,-117.647058823529,4,2,1,50,0,0
140938,-117.647058823529,4,2,0,50,0,0
146076,-117.647058823529,4,2,1,40,0,0
146242,-117.647058823529,4,2,1,50,0,0
155689,-100,4,2,1,60,0,0
167292,-125,4,2,1,60,0,0
177899,-133.333333333333,4,2,1,60,0,0
183203,-111.111111111111,4,2,1,60,0,0
185855,-133.333333333333,4,2,1,30,0,0
186187,-133.333333333333,4,2,1,40,0,0
186518,-133.333333333333,4,2,1,50,0,0
186850,-133.333333333333,4,2,1,60,0,0
187181,-133.333333333333,4,2,1,70,0,0
187678,-133.333333333333,4,2,0,60,0,0
188507,-90.9090909090909,4,2,1,80,0,1
198783,-90.9090909090909,4,2,1,60,0,1
198949,-90.9090909090909,4,2,1,80,0,1
213700,-133.333333333333,4,2,1,40,0,1
213866,-90.9090909090909,4,2,1,80,0,1
214032,-133.333333333333,4,2,1,50,0,1
214198,-90.9090909090909,4,2,1,80,0,1
214363,-133.333333333333,4,2,1,60,0,1
214529,-90.9090909090909,4,2,1,80,0,1
214695,-133.333333333333,4,2,1,70,0,1
214861,-90.9090909090909,4,2,1,80,0,1
215026,-90.9090909090909,4,2,1,70,0,1
219999,-90.9090909090909,4,2,1,60,0,1
220247,-90.9090909090909,4,2,1,80,0,1
230938,-200,4,2,1,50,0,0
237568,-200,4,2,1,30,0,0
238231,-200,4,2,1,50,0,0
240220,-133.333333333333,4,2,1,50,0,0
241214,-133.333333333333,4,2,1,30,0,0
241380,-133.333333333333,4,2,1,50,0,0
241546,-133.333333333333,4,2,1,30,0,0
251656,-117.647058823529,4,2,1,50,0,0
290606,-133.333333333333,4,2,1,30,0,0
290938,-133.333333333333,4,2,1,40,0,0
291269,-133.333333333333,4,2,1,50,0,0
291601,-100,4,2,1,60,0,0
297236,-90.9090909090909,4,2,1,80,0,1
307761,-90.9090909090909,4,2,1,80,0,0
307844,-90.9090909090909,4,2,1,80,0,1
311822,-90.9090909090909,4,2,1,40,0,1
311988,-90.9090909090909,4,2,1,80,0,1
312153,-90.9090909090909,4,2,1,50,0,1
312319,-90.9090909090909,4,2,1,80,0,1
312485,-90.9090909090909,4,2,1,60,0,1
312651,-90.9090909090909,4,2,1,80,0,1
312816,-133.333333333333,4,2,1,70,0,1
312982,-90.9090909090909,4,2,1,80,0,1
318120,-90.9090909090909,4,2,1,60,0,1
318286,-90.9090909090909,4,2,1,80,0,1
329059,-100,4,2,1,60,0,0
342319,-133.333333333333,4,2,0,45,0,0

[Colours]
Combo1 : 143,154,173
Combo2 : 90,94,112
Combo3 : 97,134,175
Combo4 : 114,152,138
SliderBorder : 212,231,238
SliderTrackOverride : 40,42,68

[HitObjects]
95,149,8175,5,2,0:2:0:0:
21,214,8341,1,0,0:0:0:0:
161,108,8507,2,0,P|124:75|63:79,1,85
126,219,8838,2,0,B|165:236|165:236|230:232,1,85,2|0,0:0|0:0,0:0:0:0:
320,156,9170,2,0,B|281:139|281:139|216:143,1,85
300,286,9501,5,2,0:0:0:0:
320,156,9667,1,0,0:0:0:0:
420,234,9833,2,0,P|428:290|417:331,1,85
226,334,10164,2,0,P|218:278|229:237,1,85,2|0,0:0|0:0,0:0:0:0:
304,125,10496,1,0,0:0:0:0:
300,286,10662,1,0,0:0:0:0:
229,169,10827,5,2,0:0:0:0:
363,216,10993,1,0,0:0:0:0:
304,125,11159,1,0,0:0:0:0:
183,232,11325,1,0,0:0:0:0:
128,76,11490,2,0,P|129:148|137:179,1,85,2|0,0:0|0:0,0:0:0:0:
193,17,11822,2,0,P|235:11|277:13,1,85
327,132,12153,5,2,0:0:0:0:
371,46,12319,1,0,0:0:0:0:
437,136,12485,2,0,P|440:193|442:227,1,85
318,296,12816,1,2,0:0:0:0:
419,313,12982,1,0,0:0:0:0:
248,250,13148,2,0,P|238:291|245:335,1,85
343,176,13479,5,2,0:0:0:0:
343,176,13645,1,0,0:0:0:0:
243,89,13811,1,2,0:0:0:0:
243,89,13977,1,0,0:0:0:0:
129,155,14142,1,2,0:0:0:0:
129,155,14308,1,0,0:0:0:0:
243,210,14474,1,2,0:0:0:0:
156,305,14640,1,0,0:1:0:0:
156,305,14722,1,0,1:1:0:0:
156,305,14805,6,0,P|91:294|58:286,1,85,2|0,0:0|0:0,0:0:0:0:
4,181,15137,2,0,P|69:170|102:162,1,85,2|0,0:0|0:0,0:0:0:0:
166,50,15468,1,2,0:0:0:0:
166,50,15634,1,0,0:0:0:0:
221,180,15800,1,2,0:0:0:0:
310,90,15966,1,0,0:0:0:0:
310,90,16048,1,0,1:0:0:0:
310,90,16131,6,0,P|378:77|403:86,1,85,2|0,0:0|0:0,0:0:0:0:
358,239,16463,2,0,P|348:198|358:157,1,85,2|0,0:0|0:0,0:0:0:0:
512,198,16794,2,0,L|428:197,1,85,2|0,0:0|0:0,0:0:0:0:
281,144,17126,1,2,0:0:0:0:
281,144,17292,1,0,0:0:0:0:
273,301,17457,6,0,P|173:298|108:298,1,127.5,2|0,0:0|0:0,0:0:0:0:
116,297,17789,1,2,0:0:0:0:
228,184,17955,1,2,0:0:0:0:
40,98,18120,1,2,0:0:0:0:
123,217,18286,1,0,0:2:0:0:
123,217,18369,1,0,1:2:0:0:
123,217,18452,1,0,1:0:0:0:
181,25,18617,1,0,0:0:0:0:
181,25,18700,1,0,1:0:0:0:
181,25,18783,6,0,P|187:79|190:113,1,85,4|0,0:3|0:0,0:0:0:0:
274,240,19115,2,0,P|277:197|282:155,1,85,2|0,0:0|0:0,0:0:0:0:
312,49,19446,1,0,1:0:0:0:
189,109,19612,1,0,0:0:0:0:
358,200,19778,2,0,P|402:205|460:211,1,85,2|0,0:0|0:0,0:0:0:0:
322,334,20109,6,0,P|270:254|182:262,1,170,0|2,1:0|0:0,0:0:0:0:
108,332,20606,1,0,1:0:0:0:
108,332,20689,1,0,1:0:0:0:
108,332,20772,2,0,P|107:247|108:162,1,170,2|2,0:0|0:0,0:0:0:0:
175,54,21269,1,2,0:0:0:0:
285,165,21435,6,0,P|230:157|196:154,1,85,0|0,1:0|0:0,0:0:0:0:
59,72,21767,2,0,P|114:64|148:61,1,85,2|0,0:0|0:0,0:0:0:0:
250,254,22098,2,0,B|252:173|258:78,1,170,0|2,1:0|0:0,0:0:0:0:
337,10,22595,1,0,0:0:0:0:
473,103,22761,6,0,P|492:197|413:218,1,170,0|2,1:0|0:0,0:0:0:0:
351,170,23258,1,0,0:0:0:0:
262,347,23424,1,0,1:0:0:0:
214,146,23590,1,2,0:0:0:0:
383,278,23756,1,2,0:0:0:0:
152,224,23921,2,0,L|213:223,1,42.5,0|0,1:0|1:0,0:0:0:0:
305,56,24087,6,0,B|306:123|306:123|319:151|319:151|319:227,1,170,4|2,0:3|0:0,0:0:0:0:
319,223,24750,1,0,1:0:0:0:
258,323,24916,1,0,0:0:0:0:
173,198,25082,2,0,P|153:143|155:92,1,85,2|0,0:0|0:0,0:0:0:0:
259,299,25413,6,0,P|151:300|71:303,1,170,0|2,1:0|0:0,0:0:0:0:
89,302,26076,1,0,1:0:0:0:
7,230,26242,1,0,0:0:0:0:
133,109,26408,2,0,P|155:148|154:190,1,85,2|0,0:0|1:0,0:0:0:0:
71,174,26656,1,0,1:0:0:0:
71,174,26739,6,0,B|152:202|152:202|273:171,1,170,0|2,1:0|0:0,0:0:0:0:
310,77,27236,1,0,0:0:0:0:
382,214,27402,1,0,1:0:0:0:
439,112,27568,1,0,0:0:0:0:
320,163,27734,2,0,P|304:210|312:254,1,85,2|0,0:0|1:0,0:0:0:0:
338,331,27982,1,0,1:0:0:0:
338,331,28065,6,0,P|297:246|211:285,1,170,0|2,1:0|0:0,0:0:0:0:
126,208,28562,1,0,0:0:0:0:
292,115,28728,1,8,1:3:0:0:
134,107,28893,1,8,0:3:0:0:
266,21,29059,1,4,0:3:0:0:
210,168,29225,1,0,0:0:0:0:
169,16,29391,5,4,0:3:0:0:
92,97,39833,5,0,1:0:0:0:
92,97,39916,1,0,1:0:0:0:
92,97,39999,2,0,P|130:111|182:110,1,85,2|0,0:0|0:0,0:0:0:0:
265,30,40330,2,0,P|274:109|279:158,1,127.5,0|0,1:0|0:0,0:0:0:0:
284,188,40662,2,0,B|314:149|373:155,1,85,2|0,0:0|0:0,0:0:0:0:
498,300,40993,2,0,L|495:193,1,85,0|0,1:0|0:0,0:0:0:0:
495,215,41242,1,0,1:0:0:0:
495,215,41325,5,2,0:0:0:0:
433,114,41490,1,2,0:0:0:0:
325,179,41656,2,0,P|281:179|222:178,1,85,0|0,1:0|0:0,0:0:0:0:
95,89,41905,1,0,1:0:0:0:
95,89,41988,2,0,P|130:144|125:186,1,85,2|0,0:0|0:0,0:0:0:0:
77,303,42319,1,0,1:0:0:0:
11,217,42485,2,0,L|88:214,1,42.5,0|0,0:0|1:0,0:0:0:0:
176,347,42651,6,0,P|170:275|193:231,1,85,2|0,0:0|0:0,0:0:0:0:
322,175,42982,2,0,P|250:181|194:147,1,127.5,0|0,1:0|1:0,0:0:0:0:
180,132,43314,2,0,P|175:77|173:41,1,85,2|0,0:0|0:0,0:0:0:0:
294,99,43645,2,0,P|293:195|292:223,1,85,0|0,1:0|0:0,0:0:0:0:
267,286,43894,1,0,1:0:0:0:
267,286,43977,6,0,P|318:262|357:268,1,85,2|0,0:0|0:0,0:0:0:0:
486,206,44308,1,0,1:0:0:0:
373,148,44474,1,0,0:0:0:0:
373,148,44557,1,0,1:0:0:0:
373,148,44640,1,2,0:0:0:0:
418,307,44805,1,0,0:0:0:0:
493,192,44971,2,0,P|504:136|479:43,1,127.5,0|0,1:0|1:0,0:0:0:0:
423,26,45303,6,0,B|377:39|377:39|335:32,1,85,2|0,0:0|0:0,0:0:0:0:
218,1,45634,1,0,1:0:0:0:
201,123,45800,1,0,0:0:0:0:
201,123,45883,1,0,1:0:0:0:
201,123,45966,2,0,P|234:155|233:200,1,85,2|0,0:0|0:0,0:0:0:0:
88,150,46297,2,0,P|80:107|67:32,1,85,0|0,1:0|0:0,0:0:0:0:
57,287,46629,6,0,P|115:262|167:272,1,85,2|0,0:0|0:0,0:0:0:0:
228,350,46960,1,0,1:0:0:0:
306,246,47126,1,0,0:0:0:0:
306,246,47209,1,0,1:0:0:0:
306,246,47292,2,0,P|349:230|394:229,1,85,2|0,0:0|0:0,0:0:0:0:
484,105,47623,1,0,1:0:0:0:
491,254,47789,1,0,0:0:0:0:
370,140,47955,6,0,P|369:93|375:53,1,85,2|0,0:0|0:0,0:0:0:0:
256,0,48286,2,0,P|261:42|260:84,1,85,0|0,1:0|0:0,0:0:0:0:
259,84,48535,1,0,1:0:0:0:
259,84,48617,1,2,0:0:0:0:
87,156,48783,1,0,0:0:0:0:
176,70,48949,2,0,L|178:175,1,85,0|0,1:0|0:0,0:0:0:0:
296,265,49280,6,0,L|294:160,1,85,2|0,0:0|0:0,0:0:0:0:
217,358,49612,1,0,1:0:0:0:
142,251,49778,1,0,0:0:0:0:
142,251,49861,2,0,P|81:250|61:249,1,42.5,0|2,1:0|0:0,0:0:0:0:
3,178,50109,1,0,0:0:0:0:
116,6,50275,2,0,P|116:87|116:115,1,85,0|0,1:0|0:0,0:0:0:0:
116,173,50524,1,0,0:0:0:0:
116,173,50606,6,0,P|165:158|238:240,1,170,4|0,0:3|1:0,0:0:0:0:
329,329,51104,1,0,0:0:0:0:
329,329,51187,1,0,1:0:0:0:
329,329,51269,1,2,0:0:0:0:
171,280,51435,2,0,P|170:218|172:86,1,170,0|0,1:0|0:0,0:0:0:0:
218,28,51850,1,0,1:0:0:0:
218,28,51932,6,0,P|267:24|301:38,1,85,2|0,0:0|0:0,0:0:0:0:
315,211,52264,2,0,P|303:138|318:109,1,85,0|0,1:0|0:0,0:0:0:0:
468,85,52513,1,0,1:0:0:0:
468,85,52595,2,0,B|419:92|419:92|369:69,1,85,2|0,0:0|1:0,0:0:0:0:
265,17,52927,1,0,0:0:0:0:
156,153,53093,1,0,0:0:0:0:
156,153,53175,1,0,1:0:0:0:
156,153,53258,6,0,P|97:162|54:158,1,85,2|0,0:0|0:0,0:0:0:0:
31,279,53590,2,0,P|90:270|133:274,1,85,0|0,1:0|0:0,0:0:0:0:
202,317,53838,1,0,1:0:0:0:
202,317,53921,2,0,P|200:231|201:219,1,85,2|0,0:0|1:0,0:0:0:0:
238,115,54253,1,2,0:0:0:0:
421,273,54419,6,0,P|337:275|272:274,1,127.5,0|0,1:0|0:0,0:0:0:0:
261,274,54750,1,2,0:0:0:0:
320,167,54916,2,0,P|386:166|437:166,1,85,0|0,1:0|1:0,0:0:0:0:
498,161,55164,1,0,0:0:0:0:
498,161,55247,2,0,P|498:94|497:70,1,85,2|0,0:0|0:0,0:0:0:0:
398,12,55579,1,0,1:0:0:0:
334,142,55745,1,0,1:0:0:0:
334,142,55827,1,0,1:0:0:0:
334,142,55910,6,0,P|269:137|237:135,1,85,2|0,0:0|0:0,0:0:0:0:
169,29,56242,2,0,P|234:24|266:22,1,85,0|0,1:0|0:0,0:0:0:0:
345,275,56573,2,0,P|287:216|214:265,1,170,2|0,0:0|1:0,0:0:0:0:
90,348,57071,1,0,1:0:0:0:
90,348,57153,1,0,1:0:0:0:
90,348,57236,6,0,P|84:279|82:248,1,85,2|0,0:0|0:0,0:0:0:0:
190,169,57568,2,0,P|186:211|182:253,1,85,0|0,1:0|0:0,0:0:0:0:
11,184,57816,1,0,1:0:0:0:
11,184,57899,2,0,P|77:145|105:153,1,85,2|0,0:0|0:0,0:0:0:0:
148,52,58231,2,0,P|188:75|247:62,1,85,0|0,1:0|0:0,0:0:0:0:
444,16,58562,6,0,L|438:136,1,85,2|0,0:0|0:0,0:0:0:0:
328,184,58894,2,0,L|327:83,1,85,0|0,1:0|0:0,0:0:0:0:
511,218,59142,1,0,1:0:0:0:
511,218,59225,2,0,P|465:188|407:204,1,85,2|0,0:0|0:0,0:0:0:0:
322,322,59557,2,0,P|385:311|407:278,1,85,0|0,1:0|0:0,0:0:0:0:
256,237,59888,5,2,0:0:0:0:
199,353,60054,1,0,1:0:0:0:
50,256,60220,2,0,P|128:259|160:259,1,85,0|0,0:0|1:0,0:0:0:0:
105,168,60468,1,0,0:0:0:0:
105,168,60551,2,0,P|107:108|108:70,1,85,2|0,0:0|0:0,0:0:0:0:
291,33,60883,1,0,1:0:0:0:
228,184,61048,1,0,0:0:0:0:
161,22,61214,6,0,P|115:2|69:12,1,85,2|0,0:0|0:0,0:0:0:0:
53,144,61546,2,0,P|99:164|145:154,1,85,0|0,1:0|0:0,0:0:0:0:
206,100,61794,1,0,1:0:0:0:
206,100,61877,2,0,P|254:98|302:98,1,85,2|0,0:0|0:0,0:0:0:0:
372,32,62209,1,0,1:0:0:0:
397,223,62374,6,0,P|393:109|390:34,1,170,0|2,1:0|0:0,0:0:0:0:
283,182,62872,2,0,P|300:240|283:328,1,127.5,0|0,1:0|1:0,0:0:0:0:
271,330,63203,2,0,B|227:320|227:320|179:333,1,85,2|0,0:0|0:0,0:0:0:0:
64,272,63535,1,0,1:0:0:0:
164,168,63700,1,0,0:0:0:0:
164,146,63782,1,0,1:0:0:0:
164,125,63866,6,0,P|168:69|145:25,1,85,2|0,0:0|0:0,0:0:0:0:
0,189,64198,2,0,L|93:188,1,85,0|0,1:0|0:0,0:0:0:0:
149,269,64446,1,0,1:0:0:0:
149,269,64529,2,0,P|188:244|244:257,1,85,2|0,0:0|0:0,0:0:0:0:
281,57,64861,1,0,1:0:0:0:
388,157,65026,6,0,B|332:189|279:191|279:191|221:165,1,170,0|0,1:0|0:0,0:0:0:0:
449,88,65524,2,0,P|476:149|471:178,1,85,0|0,1:0|0:0,0:0:0:0:
431,250,65772,1,0,1:0:0:0:
431,250,65855,2,0,P|415:294|426:347,1,85,2|0,0:0|0:0,0:0:0:0:
347,187,66187,1,0,1:0:0:0:
248,288,66352,1,0,1:0:0:0:
248,288,66435,1,0,1:0:0:0:
248,288,66518,6,0,B|206:307|206:307|154:304,1,85,2|0,0:0|0:0,0:0:0:0:
32,198,66850,2,0,L|117:196,1,85,0|0,1:0|0:0,0:0:0:0:
191,147,67098,1,0,1:0:0:0:
191,147,67181,2,0,P|196:88|178:51,1,85,2|0,0:0|0:0,0:0:0:0:
306,3,67513,2,0,P|301:62|319:99,1,85,0|0,1:0|0:0,0:0:0:0:
479,175,67844,6,0,B|375:163|375:163|300:180,1,170,2|0,0:0|1:0,0:0:0:0:
218,267,68341,1,0,0:0:0:0:
218,267,68424,1,0,1:0:0:0:
218,267,68507,2,0,P|155:260|130:257,1,85,2|0,0:0|0:0,0:0:0:0:
343,283,68838,1,0,1:0:0:0:
265,372,69004,1,0,0:0:0:0:
191,175,69170,6,0,P|195:98|199:61,1,85,2|0,0:0|0:0,0:0:0:0:
329,0,69501,2,0,P|332:42|333:84,1,85,0|0,1:0|0:0,0:0:0:0:
269,163,69750,1,0,1:0:0:0:
269,163,69833,1,2,0:0:0:0:
108,27,69999,1,0,0:0:0:0:
33,185,70164,2,0,P|54:145|148:140,1,127.5,0|0,1:0|1:0,0:0:0:0:
160,174,70496,6,0,P|121:212|127:265,1,85,2|0,0:0|0:0,0:0:0:0:
165,362,70827,1,0,1:0:0:0:
257,274,70993,1,0,0:0:0:0:
257,274,71076,1,0,1:0:0:0:
257,274,71159,2,0,L|186:256,1,42.5,2|0,0:0|0:0,0:0:0:0:
398,170,71325,2,0,L|327:188,1,42.5,2|0,0:0|0:0,0:0:0:0:
505,285,71490,1,4,0:0:0:0:
505,285,71822,6,0,P|444:278|376:276,2,127.500004863739,2|0|2,0:0|0:0|0:0,0:0:0:0:
377,275,73148,2,0,P|344:205|312:162,2,127.500004863739,2|0|2,0:0|0:0|0:0,0:0:0:0:
225,139,74308,1,0,0:0:0:0:
314,164,74474,6,0,P|380:164|455:127,1,127.500004863739,2|0,0:0|0:0,0:0:0:0:
309,37,75137,2,0,P|310:146|322:191,1,127.500004863739,2|0,0:0|0:0,0:0:0:0:
254,257,75634,1,0,0:0:0:0:
512,232,75800,2,0,P|482:179|422:178,1,127.500004863739,2|0,0:0|0:0,0:0:0:0:
398,322,76297,1,0,0:0:0:0:
398,322,76463,2,0,P|310:335|267:377,1,127.500004863739,2|0,0:0|0:0,0:0:0:0:
220,131,77126,6,0,P|214:203|221:273,1,127.500004863739,4|0,0:3|0:0,0:0:0:0:
119,376,77789,2,0,P|125:304|118:234,1,127.500004863739,2|0,0:0|0:0,0:0:0:0:
65,112,78452,2,0,P|120:157|239:133,1,191.250007295609,2|0,0:0|0:0,0:0:0:0:
300,78,79115,2,0,P|357:62|418:96,1,127.500004863739,2|0,0:0|0:0,0:0:0:0:
343,281,79778,6,0,P|327:202|364:160,2,127.500004863739,2|0|2,0:0|0:0|0:0,0:0:0:0:
435,230,80772,1,0,0:0:0:0:
236,279,81104,2,0,P|146:285|106:282,1,127.500004863739,2|0,0:0|0:0,0:0:0:0:
108,101,81767,2,0,P|172:98|236:105,1,127.500004863739,2|0,0:0|0:0,0:0:0:0:
314,180,82264,1,0,0:0:0:0:
314,180,82430,6,0,P|328:229|325:258,1,63.7500024318696,4|0,0:3|0:0,0:0:0:0:
411,72,82761,2,0,P|397:121|400:150,1,63.7500024318696,2|0,0:0|0:0,0:0:0:0:
487,247,83093,1,2,0:0:0:0:
487,247,83258,1,0,0:0:0:0:
375,339,83424,1,2,0:0:0:0:
375,339,83590,1,0,0:0:0:0:
254,231,83756,6,0,P|205:226|186:223,1,63.7500024318696,2|0,0:0|0:0,0:0:0:0:
71,143,84087,2,0,P|120:138|139:135,1,63.7500024318696,2|0,0:0|0:0,0:0:0:0:
180,29,84419,1,2,0:0:0:0:
180,29,84584,1,0,0:0:0:0:
265,118,84750,1,2,0:0:0:0:
343,52,84916,1,0,0:0:0:0:
343,52,84999,1,0,1:0:0:0:
343,52,85082,6,0,B|376:47|411:45,1,63.7500024318696,2|0,0:0|0:0,0:0:0:0:
484,162,85413,2,0,B|451:157|416:155,1,63.7500024318696,2|0,0:0|0:0,0:0:0:0:
347,241,85745,1,2,0:0:0:0:
347,241,85910,1,0,0:0:0:0:
277,143,86076,1,2,0:0:0:0:
277,143,86242,1,0,0:0:0:0:
203,230,86408,2,0,P|197:284|195:306,1,63.7500024318696,2|0,0:0|0:0,0:0:0:0:
76,381,86739,5,8,0:3:0:0:
38,218,86905,1,8,0:3:0:0:
196,293,87071,1,8,0:3:0:0:
3,321,87236,1,8,0:3:0:0:
148,154,87402,1,8,0:3:0:0:
200,381,87568,1,8,0:3:0:0:
200,381,87651,1,0,1:0:0:0:
200,381,87734,6,0,P|255:375|274:374,1,63.7500024318696,4|0,0:3|0:0,0:0:0:0:
403,271,88065,2,0,P|348:265|329:264,1,63.7500024318696,2|0,0:0|0:0,0:0:0:0:
187,150,88396,1,2,0:0:0:0:
220,277,88562,1,0,0:0:0:0:
362,110,88728,1,2,0:0:0:0:
329,237,88894,1,0,0:0:0:0:
233,72,89059,6,0,P|160:64|141:63,1,63.7500024318696,2|0,0:0|0:0,0:0:0:0:
0,222,89391,2,0,P|73:214|92:213,1,63.7500024318696,2|0,0:0|0:0,0:0:0:0:
192,376,89722,2,0,P|188:261|189:220,1,127.500004863739,2|2,0:0|0:0,0:0:0:0:
246,150,90220,1,0,0:0:0:0:
408,293,90385,5,4,0:3:0:0:
408,293,90551,1,0,0:0:0:0:
321,16,90717,5,4,0:3:0:0:
321,16,90883,1,0,0:0:0:0:
145,263,91048,5,4,0:3:0:0:
145,263,91214,1,0,0:0:0:0:
454,144,91380,5,4,0:3:0:0:
454,144,91546,1,0,0:0:0:0:
127,57,91711,5,4,0:3:0:0:
127,57,92374,1,2,0:0:0:0:
17,232,92540,1,2,0:0:0:0:
184,335,92706,1,2,0:0:0:0:
292,132,92872,1,2,0:0:0:0:
68,145,93037,6,0,P|151:144|231:142,1,140.25000428009,4|0,0:3|0:0,0:0:0:0:
284,181,93369,2,0,P|305:235|293:296,1,93.5000028533936,0|0,1:0|0:0,0:0:0:0:
389,369,93700,1,2,0:0:0:0:
467,276,93866,1,0,0:0:0:0:
348,127,94032,1,2,1:2:0:0:
469,176,94198,1,0,0:0:0:0:
267,229,94363,6,0,P|211:232|158:235,1,93.5000028533936,2|0,0:0|0:0,0:0:0:0:
49,96,94695,2,0,P|105:99|158:102,1,93.5000028533936,0|0,1:0|0:0,0:0:0:0:
227,304,95026,1,2,0:0:0:0:
259,122,95192,1,0,0:0:0:0:
113,184,95358,2,0,P|99:247|114:292,1,93.5000028533936,0|0,1:0|0:0,0:0:0:0:
154,356,95606,1,0,1:0:0:0:
154,356,95689,6,0,B|195:342|195:342|246:348,1,93.5000028533936,2|0,0:2|0:0,0:0:0:0:
389,229,96021,2,0,B|348:243|348:243|297:237,1,93.5000028533936,0|0,1:0|0:0,0:0:0:0:
200,103,96352,2,0,P|209:234|212:278,1,140.25000428009,2|0,0:0|0:0,0:0:0:0:
290,159,96684,2,0,B|331:145|331:145|382:151,1,93.5000028533936,2|0,1:2|0:0,0:0:0:0:
492,260,97015,5,2,0:0:0:0:
377,241,97181,1,0,0:0:0:0:
465,84,97347,2,0,P|406:78|362:72,1,93.5000028533936,2|0,1:2|0:0,0:0:0:0:
279,251,97678,1,8,1:3:0:0:
377,241,97844,1,8,0:3:0:0:
217,150,98010,1,8,0:3:0:0:
236,347,98175,1,8,0:3:0:0:
341,173,98341,6,0,P|358:125|306:36,1,140.25000428009,4|0,0:3|0:0,0:0:0:0:
250,94,98673,2,0,B|210:112|210:112|150:98,1,93.5000028533936,0|0,1:0|0:0,0:0:0:0:
36,23,99004,2,0,P|39:84|42:126,1,93.5000028533936,2|0,0:0|0:0,0:0:0:0:
110,292,99336,1,0,1:0:0:0:
179,137,99501,1,0,0:0:0:0:
179,137,99584,1,0,1:0:0:0:
179,137,99667,5,2,0:0:0:0:
20,232,99833,1,0,0:0:0:0:
218,235,99999,2,0,P|268:239|324:240,1,93.5000028533936,0|0,1:0|0:0,0:0:0:0:
395,87,100330,1,2,0:0:0:0:
404,232,100496,1,0,0:0:0:0:
489,58,100662,2,0,L|476:174,1,93.5000028533936,0|0,1:0|0:0,0:0:0:0:
308,69,100993,6,0,P|362:67|417:122,1,93.5000028533936,2|0,0:0|0:0,0:0:0:0:
221,119,101325,2,0,P|210:63|221:25,1,93.5000028533936,0|0,1:0|0:0,0:0:0:0:
377,204,101656,2,0,L|362:301,1,93.5000028533936,2|0,0:0|0:0,0:0:0:0:
185,206,101988,1,0,1:0:0:0:
293,160,102153,1,0,0:0:0:0:
238,317,102319,6,0,L|140:312,1,93.5000028533936,2|0,0:0|0:0,0:0:0:0:
62,257,102651,1,0,1:0:0:0:
282,222,102816,1,0,0:0:0:0:
146,157,102982,1,8,1:3:0:0:
189,314,103148,1,8,1:3:0:0:
247,98,103314,1,12,0:3:0:0:
79,252,103479,1,8,0:3:0:0:
282,222,103645,6,0,P|348:227|452:233,1,140.25000428009,4|0,0:3|0:0,0:0:0:0:
487,120,103977,2,0,P|421:125|376:128,1,93.5000028533936,0|0,1:0|0:0,0:0:0:0:
276,251,104308,2,0,P|274:167|273:98,1,140.25000428009,2|0,0:0|0:0,0:0:0:0:
215,18,104640,2,0,P|178:60|194:124,1,93.5000028533936,2|8,1:2|0:3,0:0:0:0:
187,254,104971,5,2,0:0:0:0:
67,180,105137,1,0,0:0:0:0:
210,158,105303,1,0,1:0:0:0:
165,280,105468,5,0,0:0:0:0:
63,103,105634,1,2,0:0:0:0:
202,188,105800,1,0,1:0:0:0:
202,188,105883,1,0,1:0:0:0:
202,188,105966,1,2,0:0:0:0:
52,234,106131,1,0,0:0:0:0:
187,67,106297,6,0,P|192:141|196:178,1,93.5000028533936,4|0,0:2|0:0,0:0:0:0:
291,326,106629,2,0,P|295:279|297:232,1,93.5000028533936,0|0,1:0|0:0,0:0:0:0:
310,72,106960,2,0,B|363:72|363:72|411:94|411:94|492:94,1,187.000005706787,2|0,0:0|1:0,0:0:0:0:
441,7,107457,1,0,0:0:0:0:
388,174,107623,6,0,L|485:174,1,93.5000028533936,2|0,0:0|0:0,0:0:0:0:
321,249,107955,1,0,1:0:0:0:
435,299,108120,1,0,0:0:0:0:
298,148,108286,1,2,0:0:0:0:
344,349,108452,1,0,1:0:0:0:
228,242,108617,1,8,0:3:0:0:
412,202,108782,1,2,0:2:0:0:
230,356,108949,6,0,B|187:345|187:345|128:353,1,93.5000028533936,4|0,0:0|0:0,0:0:0:0:
23,237,109280,2,0,B|66:248|66:248|125:240,1,93.5000028533936,0|0,1:0|0:0,0:0:0:0:
187,90,109612,1,2,0:0:0:0:
202,247,109778,1,0,0:0:0:0:
276,70,109943,2,0,L|266:181,1,93.5000028533936,0|0,1:0|0:0,0:0:0:0:
74,95,110275,5,2,0:0:0:0:
196,30,110441,1,0,0:0:0:0:
143,183,110606,2,0,P|85:182|41:182,1,93.5000028533936,0|0,1:0|0:0,0:0:0:0:
232,318,110938,2,0,P|220:218|241:126,1,187.000005706787,2|0,0:0|1:0,0:0:0:0:
286,52,111435,1,0,0:0:0:0:
406,230,111601,6,0,P|320:219|300:217,1,93.5000028533936,2|0,0:0|0:0,0:0:0:0:
146,261,111932,1,0,1:0:0:0:
230,177,112098,1,0,0:0:0:0:
324,328,112264,2,0,P|327:272|329:233,1,93.5000028533936,2|0,0:0|0:0,0:0:0:0:
227,64,112595,2,0,P|224:120|222:159,1,93.5000028533936,0|0,1:0|0:0,0:0:0:0:
187,305,112927,6,0,P|163:258|110:243,1,93.5000028533936,2|0,0:0|0:0,0:0:0:0:
25,145,113258,2,0,P|76:155|138:129,1,93.5000028533936,0|0,1:0|0:0,0:0:0:0:
227,64,113590,1,0,1:0:0:0:
253,45,113672,1,0,1:0:0:0:
285,36,113755,1,0,1:0:0:0:
317,39,113838,1,0,1:0:0:0:
347,52,113921,2,0,B|393:71|393:71|497:52,1,140.25000428009,4|0,0:3|0:0,0:0:0:0:
457,44,114253,6,0,P|437:99|457:172,1,93.5000028533936,4|0,0:3|0:0,0:0:0:0:
400,288,114584,2,0,P|396:208|370:169,1,93.5000028533936,0|0,1:0|1:0,0:0:0:0:
324,129,114833,1,0,1:0:0:0:
324,129,114916,1,2,0:0:0:0:
220,186,115082,1,0,0:0:0:0:
409,111,115247,1,0,1:0:0:0:
291,27,115413,1,0,0:0:0:0:
319,208,115579,6,0,L|218:206,1,93.5000028533936,2|0,0:0|1:0,0:0:0:0:
121,105,115827,1,0,1:0:0:0:
121,105,115910,2,0,P|143:190|136:211,1,93.5000028533936,0|0,1:0|0:0,0:0:0:0:
105,295,116159,1,0,1:0:0:0:
105,295,116242,1,2,0:0:0:0:
69,164,116408,1,0,0:0:0:0:
201,258,116573,1,0,1:0:0:0:
0,241,116739,2,0,L|55:239,1,46.7500014266968,0|0,0:0|1:0,0:0:0:0:
250,196,116905,6,0,P|278:249|266:310,1,93.5000028533936,2|0,0:0|0:0,0:0:0:0:
365,384,117236,2,0,P|372:278|408:243,1,140.25000428009,0|0,1:0|1:0,0:0:0:0:
451,171,117568,1,2,0:0:0:0:
449,334,117734,1,0,1:0:0:0:
346,66,117899,2,0,L|345:188,1,93.5000028533936,2|0,0:0|0:0,0:0:0:0:
208,212,118231,5,4,1:3:0:0:
169,67,118396,1,2,0:0:0:0:
281,103,118562,5,4,1:3:0:0:
93,192,118728,1,2,0:0:0:0:
188,14,118894,5,4,1:3:0:0:
248,252,119059,1,2,0:0:0:0:
283,95,119225,5,4,1:3:0:0:
79,192,119391,1,2,0:0:0:0:
253,265,119557,6,0,P|317:266|378:268,1,93.5000028533936,4|0,0:3|0:0,0:0:0:0:
477,156,119888,2,0,P|457:234|464:271,1,93.5000028533936,0|0,1:0|0:0,0:0:0:0:
355,56,120220,2,0,P|375:134|368:171,1,93.5000028533936,2|0,0:0|1:0,0:0:0:0:
284,124,120468,1,0,1:0:0:0:
284,124,120551,2,0,B|232:137|232:137|166:120,1,93.5000028533936,0|0,1:0|0:0,0:0:0:0:
112,91,120800,1,0,1:0:0:0:
112,91,120883,5,2,0:0:0:0:
140,242,121048,1,0,0:0:0:0:
29,140,121214,1,0,1:0:0:0:
228,218,121380,1,0,1:0:0:0:
228,218,121463,1,0,1:0:0:0:
228,218,121546,1,2,0:0:0:0:
57,242,121711,1,0,0:0:0:0:
234,134,121877,2,0,P|236:231|237:246,1,93.5000028533936,0|0,1:0|0:0,0:0:0:0:
362,362,122209,6,0,P|373:302|354:254,1,93.5000028533936,2|0,0:0|0:0,0:0:0:0:
203,316,122540,2,0,L|303:317,1,93.5000028533936,0|0,1:0|0:0,0:0:0:0:
394,146,122872,1,2,0:0:0:0:
364,271,123037,1,0,0:0:0:0:
284,102,123203,2,0,P|285:192|287:224,1,93.5000028533936,0|0,1:0|1:0,0:0:0:0:
426,214,123452,1,0,1:0:0:0:
426,214,123535,6,0,P|444:248|443:305,1,93.5000028533936,2|0,0:0|0:0,0:0:0:0:
362,137,123866,1,0,1:0:0:0:
309,335,124032,1,0,1:0:0:0:
309,335,124115,1,0,1:0:0:0:
309,335,124198,2,0,L|202:338,1,93.5000028533936,2|0,0:0|0:0,0:0:0:0:
58,237,124529,2,0,P|130:239|227:242,1,140.25000428009,4|0,1:3|0:0,0:0:0:0:
259,171,124861,6,0,P|290:241|284:273,1,93.5000028533936,4|0,0:3|0:0,0:0:0:0:
220,98,125192,2,0,P|278:93|332:127,1,93.5000028533936,0|0,1:0|0:0,0:0:0:0:
136,120,125524,2,0,P|141:61|170:24,1,93.5000028533936,2|0,0:0|1:0,0:0:0:0:
204,181,125772,1,0,1:0:0:0:
204,181,125855,2,0,L|207:278,1,93.5000028533936,0|0,1:0|0:0,0:0:0:0:
41,232,126187,6,0,P|98:243|139:228,1,93.5000028533936,2|0,0:0|0:0,0:0:0:0:
248,111,126518,1,0,1:0:0:0:
301,307,126684,1,0,1:0:0:0:
301,307,126767,1,0,1:0:0:0:
301,307,126850,1,2,0:0:0:0:
350,172,127015,1,0,0:0:0:0:
206,233,127181,2,0,P|216:302|221:333,1,93.5000028533936,0|0,1:0|0:0,0:0:0:0:
382,384,127513,6,0,P|454:344|486:350,1,93.5000028533936,4|0,0:3|0:0,0:0:0:0:
495,230,127844,2,0,P|434:259|393:256,1,93.5000028533936,0|0,1:0|1:0,0:0:0:0:
329,305,128093,1,0,1:0:0:0:
329,305,128175,2,0,P|320:227|315:187,1,93.5000028533936,2|0,0:0|0:0,0:0:0:0:
246,111,128507,1,0,1:0:0:0:
430,184,128673,1,0,1:0:0:0:
430,184,128756,1,0,1:0:0:0:
430,184,128838,6,0,P|344:184|318:184,1,93.5000028533936,2|0,0:0|0:0,0:0:0:0:
275,69,129170,1,0,1:0:0:0:
139,116,129336,1,0,1:0:0:0:
139,116,129419,1,0,1:0:0:0:
139,116,129501,2,0,P|155:47|189:15,1,93.5000028533936,2|0,0:0|0:0,0:0:0:0:
254,181,129833,2,0,P|267:240|265:285,1,93.5000028533936,0|0,1:0|0:0,0:0:0:0:
72,204,130164,6,0,L|176:201,1,93.5000028533936,4|0,0:3|0:0,0:0:0:0:
301,79,130496,1,0,1:0:0:0:
256,243,130662,1,0,1:0:0:0:
256,243,130745,1,0,1:0:0:0:
256,243,130827,2,0,L|248:140,1,93.5000028533936,2|0,0:0|0:0,0:0:0:0:
452,186,131159,2,0,L|347:178,1,93.5000028533936,0|0,1:0|0:0,0:0:0:0:
253,342,131490,6,0,L|358:350,1,93.5000028533936,2|0,0:0|0:0,0:0:0:0:
379,180,131822,2,0,P|371:257|369:285,1,93.5000028533936,0|0,1:0|1:0,0:0:0:0:
292,218,132071,1,0,1:0:0:0:
292,218,132153,1,2,0:0:0:0:
465,165,132319,1,0,0:0:0:0:
319,54,132485,2,0,P|267:23|217:35,1,93.5000028533936,0|0,1:0|0:0,0:0:0:0:
187,193,132816,6,0,B|197:146|197:146|175:85,1,93.5000028533936,4|0,0:3|0:0,0:0:0:0:
75,183,133148,2,0,L|78:284,1,93.5000028533936,0|0,1:0|1:0,0:0:0:0:
144,365,133396,1,0,1:0:0:0:
144,365,133479,1,2,0:0:0:0:
247,229,133645,1,0,0:0:0:0:
80,276,133811,1,0,1:0:0:0:
328,260,133977,1,0,0:0:0:0:
202,128,134142,6,0,P|207:203|209:233,1,93.5000028533936,2|0,0:0|1:0,0:0:0:0:
208,221,134391,1,0,1:0:0:0:
208,221,134474,1,0,1:0:0:0:
280,355,134640,1,0,0:0:0:0:
408,211,134805,1,2,0:0:0:0:
294,237,134971,1,0,0:0:0:0:
488,330,135137,1,0,1:0:0:0:
427,106,135303,1,0,0:0:0:0:
362,313,135468,6,0,P|294:316|261:320,1,85,4|0,0:3|0:0,0:0:0:0:
128,229,135800,2,0,P|196:232|229:236,1,85,0|0,1:0|0:0,0:0:0:0:
323,138,136131,1,2,0:0:0:0:
303,244,136297,1,0,0:0:0:0:
221,55,136463,1,0,1:0:0:0:
241,161,136629,1,2,0:0:0:0:
319,41,136794,6,0,P|377:38|429:39,1,85,2|0,0:0|0:0,0:0:0:0:
380,214,137126,2,0,P|374:157|370:104,1,85,0|0,1:0|0:0,0:0:0:0:
478,275,137457,1,2,0:0:0:0:
466,160,137623,1,0,0:0:0:0:
340,354,137789,1,0,1:0:0:0:
478,275,137955,1,0,1:0:0:0:
309,245,138120,6,0,P|266:247|224:249,1,85,4|0,0:3|0:0,0:0:0:0:
129,142,138452,2,0,P|171:144|213:146,1,85,0|0,1:0|0:0,0:0:0:0:
319,74,138783,1,2,0:0:0:0:
203,48,138949,1,0,0:0:0:0:
166,219,139115,2,0,P|161:275|167:314,1,85,0|2,1:0|0:0,0:0:0:0:
30,157,139446,6,0,P|35:101|29:62,1,85,2|0,0:0|0:0,0:0:0:0:
157,6,139778,2,0,P|152:62|158:101,1,85,0|0,1:0|0:0,0:0:0:0:
233,212,140109,1,2,0:0:0:0:
256,105,140275,1,0,0:0:0:0:
61,174,140441,1,0,1:0:0:0:
167,167,140606,1,2,0:0:0:0:
18,14,140772,6,0,P|30:74|35:102,1,72.2500013780594,4|0,0:3|0:0,0:0:0:0:
102,37,141104,1,2,0:3:0:0:
102,37,141269,1,0,0:0:0:0:
215,127,141435,6,0,P|203:187|198:215,1,72.2500013780594,2|0,0:0|0:0,0:0:0:0:
133,150,141767,1,2,0:3:0:0:
133,150,141932,1,0,0:0:0:0:
214,8,142098,6,0,P|235:111|250:182,1,144.500002756119,2|2,0:0|0:3,0:0:0:0:
332,8,142595,1,0,0:0:0:0:
332,8,142761,2,0,P|327:56|322:99,1,72.2500013780594,2|0,0:0|0:0,0:0:0:0:
422,187,143093,2,0,P|412:128|424:89,1,72.2500013780594,2|0,0:3|0:0,0:0:0:0:
482,265,143424,5,4,0:0:0:0:
487,141,143590,1,0,0:0:0:0:
395,292,143756,2,0,P|341:290|295:288,1,72.2500013780594,2|0,0:3|0:0,0:0:0:0:
167,195,144087,2,0,P|220:193|266:191,1,72.2500013780594,2|0,0:0|0:0,0:0:0:0:
363,108,144419,2,0,P|354:187|355:212,1,72.2500013780594,2|0,0:3|0:0,0:0:0:0:
491,365,144750,6,0,P|499:289|449:208,1,144.500002756119,2|2,0:0|0:3,0:0:0:0:
390,363,145247,1,0,0:0:0:0:
390,363,145330,1,0,0:0:0:0:
390,363,145413,2,0,P|425:323|419:282,1,72.2500013780594,2|0,0:0|0:0,0:0:0:0:
325,172,145745,2,0,L|334:265,1,72.2500013780594,2|0,0:3|0:0,0:0:0:0:
263,343,146076,5,4,0:3:0:0:
246,343,146242,1,0,0:0:0:0:
176,266,146408,1,2,0:0:0:0:
192,265,146573,1,0,0:0:0:0:
130,365,146739,2,0,P|74:369|36:370,1,72.2500013780594,2|0,0:0|0:0,0:0:0:0:
0,260,147071,2,0,P|56:264|94:265,1,72.2500013780594,2|0,0:0|0:0,0:0:0:0:
180,174,147402,5,2,0:0:0:0:
179,186,147568,1,0,0:0:0:0:
48,111,147734,1,2,0:0:0:0:
49,123,147900,1,0,0:0:0:0:
180,9,148065,2,0,P|176:71|175:104,1,72.2500013780594,2|0,0:0|0:0,0:0:0:0:
42,226,148396,2,0,P|38:164|37:131,1,72.2500013780594,2|0,0:0|0:0,0:0:0:0:
1,32,148728,6,0,P|43:29|95:29,1,72.2500013780594,2|0,0:0|0:0,0:0:0:0:
125,127,149059,2,0,P|83:124|31:124,1,72.2500013780594,2|0,0:0|0:0,0:0:0:0:
214,198,149391,2,0,P|207:138|222:103,1,72.2500013780594,2|0,0:0|0:0,0:0:0:0:
321,218,149722,2,0,P|328:278|313:313,1,72.2500013780594,2|0,0:0|0:0,0:0:0:0:
210,362,150054,5,2,0:0:0:0:
206,352,150220,1,0,0:0:0:0:
247,257,150385,1,2,0:0:0:0:
252,265,150551,1,0,0:0:0:0:
330,354,150717,2,0,P|370:357|411:359,1,72.2500013780594,2|0,0:0|0:0,0:0:0:0:
490,258,151048,2,0,P|450:261|409:263,1,72.2500013780594,2|0,0:0|0:0,0:0:0:0:
333,162,151380,5,2,0:0:0:0:
318,255,151546,1,0,0:0:0:0:
223,113,151711,2,0,L|234:190,1,72.2500013780594,2|0,0:0|0:0,0:0:0:0:
308,75,152043,2,0,P|285:42|188:26,1,144.500002756119,2|2,0:0|0:0,0:0:0:0:
134,141,152540,1,0,0:0:0:0:
19,60,152706,6,0,P|67:25|95:29,1,72.2500013780594,2|0,0:0|0:0,0:0:0:0:
134,141,153037,2,0,P|86:176|58:172,1,72.2500013780594,2|0,0:0|0:0,0:0:0:0:
214,83,153369,2,0,L|219:159,1,72.2500013780594,2|0,0:0|0:0,0:0:0:0:
312,269,153700,2,0,L|316:196,1,72.2500013780594,2|0,0:0|0:0,0:0:0:0:
391,104,154032,6,0,P|416:130|418:184,1,72.2500013780594,2|0,0:0|0:0,0:0:0:0:
341,40,154363,2,0,P|412:28|433:40,1,72.2500013780594,2|0,0:0|0:0,0:0:0:0:
299,132,154695,1,2,0:0:0:0:
299,132,154861,1,0,0:0:0:0:
181,64,155026,1,2,0:0:0:0:
160,212,155192,1,2,0:0:0:0:
88,37,155358,5,2,0:0:0:0:
238,179,155524,1,2,0:0:0:0:
238,179,155606,1,2,0:0:0:0:
238,179,155689,2,0,L|135:184,1,85,0|0,1:0|0:0,0:0:0:0:
29,133,156021,1,2,0:0:0:0:
172,52,156187,1,2,0:0:0:0:
120,252,156352,1,0,1:0:0:0:
113,112,156518,1,2,0:0:0:0:
220,229,156684,6,0,B|233:274|233:274|226:317,1,85,4|0,0:3|0:0,0:0:0:0:
327,205,157015,2,0,B|314:160|314:160|321:117,1,85,0|0,1:0|0:0,0:0:0:0:
370,41,157264,1,0,1:0:0:0:
370,41,157347,2,0,P|428:47|447:80,1,85,2|0,0:0|0:0,0:0:0:0:
450,193,157678,2,0,P|418:193|310:194,1,127.5,0|0,1:0|1:0,0:0:0:0:
248,149,158010,6,0,P|239:193|247:239,1,85,2|0,0:0|0:0,0:0:0:0:
166,368,158341,2,0,P|168:323|152:278,1,85,0|0,1:0|0:0,0:0:0:0:
66,206,158590,1,0,1:0:0:0:
66,206,158673,2,0,P|110:208|155:192,1,85,2|0,0:0|0:0,0:0:0:0:
109,29,159004,1,0,1:0:0:0:
99,136,159170,1,2,0:0:0:0:
328,81,159336,6,0,B|234:92|234:92|188:78,1,127.5,2|0,0:0|1:0,0:0:0:0:
171,75,159667,2,0,P|191:108|181:163,1,85,0|0,1:0|0:0,0:0:0:0:
152,230,159916,1,0,1:0:0:0:
152,230,159999,2,0,P|153:310|154:340,1,85,2|0,0:0|0:0,0:0:0:0:
76,183,160330,2,0,P|169:145|204:166,1,127.5,0|0,1:0|1:0,0:0:0:0:
252,221,160662,6,0,B|292:244|292:244|358:240,1,85,2|0,0:0|0:0,0:0:0:0:
422,167,160993,2,0,P|426:262|427:290,1,85,0|0,1:0|0:0,0:0:0:0:
432,348,161242,1,0,1:0:0:0:
432,348,161325,1,2,0:0:0:0:
503,243,161490,1,0,0:0:0:0:
331,319,161656,1,0,1:0:0:0:
446,364,161822,1,0,0:0:0:0:
314,240,161988,6,0,P|261:282|282:384,1,170,2|0,0:0|1:0,0:0:0:0:
162,271,162485,1,0,0:0:0:0:
162,271,162568,1,0,1:0:0:0:
162,271,162651,2,0,P|86:268|54:265,1,85,2|0,0:0|0:0,0:0:0:0:
258,197,162982,1,0,1:0:0:0:
142,118,163148,1,0,0:0:0:0:
268,296,163314,6,0,B|275:253|275:253|260:197,1,85,2|0,0:0|0:0,0:0:0:0:
170,39,163645,1,0,1:0:0:0:
99,156,163811,1,0,0:0:0:0:
99,156,163894,2,0,L|163:153,1,42.5,0|2,1:0|0:0,0:0:0:0:
259,37,164142,1,0,0:0:0:0:
350,195,164308,1,0,1:0:0:0:
411,70,164474,1,2,0:0:0:0:
258,132,164640,6,0,P|255:194|260:237,1,85,2|0,0:0|0:0,0:0:0:0:
184,364,164971,2,0,P|186:321|182:279,1,85,0|0,1:0|0:0,0:0:0:0:
136,217,165220,1,0,1:0:0:0:
136,217,165303,2,0,B|85:228|85:228|36:218,1,85,2|0,0:0|0:0,0:0:0:0:
89,41,165634,2,0,L|90:149,1,85,0|0,1:0|0:0,0:0:0:0:
204,159,165883,1,0,1:0:0:0:
204,159,165966,6,0,P|265:165|288:166,1,85,2|0,0:0|0:0,0:0:0:0:
241,42,166297,1,0,1:0:0:0:
141,228,166463,1,0,0:0:0:0:
141,228,166546,1,0,1:0:0:0:
141,228,166629,2,0,P|142:306|143:328,1,85,2|0,0:0|0:0,0:0:0:0:
204,159,166960,1,0,1:0:0:0:
246,154,167042,1,0,1:0:0:0:
287,163,167125,1,0,1:0:0:0:
329,169,167208,1,0,1:0:0:0:
364,165,167292,6,0,P|348:203|352:240,1,68,4|0,0:3|0:0,0:0:0:0:
470,361,167623,2,0,P|484:321|480:284,1,68,0|0,1:0|0:0,0:0:0:0:
299,306,167955,2,0,P|323:306|388:306,1,68,2|0,0:0|0:0,0:0:0:0:
495,208,168286,2,0,P|456:205|409:203,1,68,0|0,1:0|0:0,0:0:0:0:
315,194,168617,6,0,P|326:144|347:125,1,68,2|0,0:0|0:0,0:0:0:0:
286,66,168949,2,0,P|332:46|371:55,1,68,0|0,1:0|0:0,0:0:0:0:
222,149,169280,1,2,0:0:0:0:
218,160,169446,1,0,0:0:0:0:
141,53,169612,1,0,1:0:0:0:
137,41,169778,1,0,0:0:0:0:
60,157,169943,6,0,P|48:220|52:237,1,68,2|0,0:0|0:0,0:0:0:0:
179,256,170275,2,0,P|162:221|131:200,1,68,0|0,1:0|0:0,0:0:0:0:
245,309,170606,2,0,P|259:262|250:217,1,68,2|0,0:0|0:0,0:0:0:0:
231,68,170938,1,0,1:0:0:0:
201,165,171104,1,2,0:0:0:0:
319,109,171269,6,0,B|366:119|366:119|471:103,1,136,2|0,0:0|1:0,0:0:0:0:
482,204,171767,1,0,0:0:0:0:
482,204,171932,2,0,B|446:197|446:197|387:205,1,68,2|0,0:0|0:0,0:0:0:0:
308,288,172264,2,0,B|348:279|348:279|403:289,1,68,0|8,1:0|0:0,0:0:0:0:
467,365,172595,6,0,L|468:287,1,68,2|0,0:0|0:0,0:0:0:0:
412,127,172927,2,0,P|400:173|409:208,1,68,0|0,1:0|0:0,0:0:0:0:
341,338,173258,2,0,P|346:300|334:264,1,68,2|0,0:0|0:0,0:0:0:0:
200,190,173590,2,0,B|262:210|262:210|318:201,1,102,0|0,1:0|1:0,0:0:0:0:
332,123,173921,6,0,L|331:47,1,68,2|0,0:0|0:0,0:0:0:0:
168,123,174253,2,0,P|136:145|126:202,1,68,0|0,1:0|0:0,0:0:0:0:
227,319,174584,2,0,P|208:270|170:249,1,68,10|0,0:0|0:0,0:0:0:0:
55,318,174916,1,0,1:0:0:0:
150,318,175082,1,0,0:0:0:0:
102,140,175247,6,0,L|102:242,1,102,2|0,0:0|0:0,0:0:0:0:
66,73,175579,2,0,P|113:63|144:77,1,68,0|0,1:0|0:0,0:0:0:0:
188,174,175910,2,0,B|223:184|223:184|281:171,1,68,2|0,0:0|0:0,0:0:0:0:
405,105,176242,2,0,P|382:130|380:220,1,102,0|0,1:0|1:0,0:0:0:0:
419,274,176573,5,2,0:0:0:0:
460,174,176739,2,0,L|307:172,1,136,0|0,1:0|0:0,0:0:0:0:
198,155,177236,1,0,1:0:0:0:
258,67,177402,1,0,1:0:0:0:
250,262,177568,1,8,0:3:0:0:
198,155,177734,1,8,1:3:0:0:
334,264,177899,6,0,P|315:305|320:350,1,63.7500024318696,4|0,0:3|0:0,0:0:0:0:
410,228,178231,2,0,P|382:195|343:181,1,63.7500024318696,2|0,0:0|0:0,0:0:0:0:
483,295,178562,2,0,P|497:223|461:151,1,127.500004863739,0|2,1:0|0:0,0:0:0:0:
408,104,179059,1,0,0:0:0:0:
269,207,179225,6,0,B|233:215|233:215|180:201,1,63.7500024318696,2|0,0:0|1:0,0:0:0:0:
82,122,179557,2,0,B|121:130|121:130|161:121,1,63.7500024318696,2|0,0:0|0:0,0:0:0:0:
220,9,179888,2,0,P|290:28|314:102,1,127.500004863739,0|2,1:0|0:0,0:0:0:0:
150,109,180385,1,2,0:0:0:0:
150,109,180468,1,2,0:0:0:0:
150,109,180551,6,0,L|225:104,1,63.7500024318696,2|0,0:0|0:0,0:0:0:0:
296,220,180883,2,0,L|224:216,1,63.7500024318696,2|0,0:0|0:0,0:0:0:0:
413,174,181214,2,0,P|417:275|419:298,1,95.6250036478044,0|0,1:0|0:0,0:0:0:0:
512,337,181546,2,0,P|510:274|509:248,1,63.7500024318696,2|0,0:0|0:0,0:0:0:0:
417,100,181877,5,0,1:0:0:0:
328,213,182043,1,0,1:0:0:0:
488,136,182209,2,0,P|492:79|479:54,1,63.7500024318696,2|0,0:0|0:0,0:0:0:0:
325,57,182540,2,0,L|327:206,1,127.500004863739,0|2,1:0|0:0,0:0:0:0:
290,302,183037,1,0,0:0:0:0:
173,173,183203,6,0,P|231:154|262:163,1,76.4999976654053,2|0,0:0|0:0,0:0:0:0:
244,68,183535,2,0,P|292:82|321:109,1,76.4999976654053,2|0,0:0|0:0,0:0:0:0:
362,221,183866,1,2,0:0:0:0:
273,217,184032,1,0,0:0:0:0:
410,152,184198,1,2,0:0:0:0:
399,311,184363,1,0,0:0:0:0:
271,234,184529,6,0,P|201:240|184:243,1,76.4999976654053,2|0,0:0|0:0,0:0:0:0:
46,109,184861,2,0,P|116:115|134:116,1,76.4999976654053,2|0,0:0|0:0,0:0:0:0:
245,324,185192,2,0,P|241:209|237:138,1,152.999995330811,2|2,0:0|0:0,0:0:0:0:
297,46,185689,1,0,0:0:0:0:
361,203,185855,5,4,0:3:0:0:
159,157,186021,1,0,0:0:0:0:
317,324,186187,5,4,0:3:0:0:
254,62,186353,1,0,0:0:0:0:
226,364,186518,5,4,0:3:0:0:
404,148,186684,1,0,0:0:0:0:
137,74,186850,5,4,0:3:0:0:
448,248,187015,1,0,0:0:0:0:
78,228,187181,5,4,0:3:0:0:
86,236,187678,1,0,0:0:0:0:
86,236,187761,1,0,0:0:0:0:
86,236,187844,1,2,0:0:0:0:
120,56,188010,1,2,0:0:0:0:
397,218,188175,1,2,0:0:0:0:
310,40,188341,1,2,0:0:0:0:
221,182,188507,6,0,P|221:293|221:327,1,140.25000428009,4|0,0:3|0:0,0:0:0:0:
290,384,188839,2,0,P|368:366|403:385,1,93.5000028533936,0|0,1:0|0:0,0:0:0:0:
501,233,189170,2,0,B|406:253|406:253|348:234,1,140.25000428009,2|0,0:0|0:0,0:0:0:0:
293,171,189501,2,0,P|291:96|292:55,1,93.5000028533936,0|0,1:0|0:0,0:0:0:0:
468,130,189833,6,0,P|407:126|368:123,1,93.5000028533936,2|0,0:0|0:0,0:0:0:0:
198,59,190164,2,0,P|259:55|298:52,1,93.5000028533936,0|0,1:0|0:0,0:0:0:0:
291,52,190413,1,0,1:0:0:0:
291,52,190496,1,2,0:0:0:0:
244,181,190662,1,2,0:0:0:0:
119,12,190827,2,0,P|118:64|125:115,1,93.5000028533936,0|2,1:0|0:0,0:0:0:0:
170,242,191159,6,0,P|121:186|28:211,1,140.25000428009,2|0,0:0|0:0,0:0:0:0:
92,262,191490,1,0,1:0:0:0:
204,127,191656,1,0,0:0:0:0:
272,259,191822,2,0,B|246:303|246:303|259:352,1,93.5000028533936,2|0,0:0|0:0,0:0:0:0:
385,273,192153,2,0,B|411:229|411:229|398:180,1,93.5000028533936,0|0,1:0|0:0,0:0:0:0:
277,43,192485,6,0,P|284:118|291:159,1,93.5000028533936,2|0,0:0|0:0,0:0:0:0:
407,195,192816,2,0,P|413:148|416:102,1,93.5000028533936,0|0,1:0|0:0,0:0:0:0:
385,16,193065,1,2,0:0:0:0:
385,16,193148,1,8,0:3:0:0:
317,156,193314,1,8,0:3:0:0:
512,83,193479,1,8,0:3:0:0:
297,54,193645,1,8,0:3:0:0:
263,235,193811,6,0,P|184:236|145:235,1,93.5000028533936,4|0,0:3|0:0,0:0:0:0:
217,154,194059,1,0,0:0:0:0:
217,154,194142,1,0,1:0:0:0:
206,326,194308,1,0,0:0:0:0:
76,232,194474,2,0,B|62:155|62:155|96:95,1,140.25000428009,2|0,0:0|0:0,0:0:0:0:
155,49,194805,2,0,B|198:63|198:63|251:56,1,93.5000028533936,0|0,1:0|0:0,0:0:0:0:
334,76,195054,1,0,1:0:0:0:
334,76,195137,6,0,P|309:122|316:171,1,93.5000028533936,2|0,0:0|0:0,0:0:0:0:
444,210,195468,2,0,P|417:156|361:134,1,93.5000028533936,0|0,1:0|0:0,0:0:0:0:
298,320,195800,2,0,L|410:301,1,93.5000028533936,2|0,0:0|0:0,0:0:0:0:
226,115,196131,2,0,P|236:251|237:265,1,140.25000428009,0|0,1:0|0:0,0:0:0:0:
195,363,196463,5,2,0:0:0:0:
307,202,196629,1,0,0:0:0:0:
135,222,196794,2,0,P|80:229|41:234,1,93.5000028533936,0|0,1:0|0:0,0:0:0:0:
67,58,197126,2,0,P|78:127|82:164,1,93.5000028533936,2|0,0:0|0:0,0:0:0:0:
307,202,197457,1,0,1:0:0:0:
193,109,197623,1,0,0:0:0:0:
125,304,197789,6,0,P|194:295|227:293,1,93.5000028533936,2|0,0:0|0:0,0:0:0:0:
381,168,198120,1,0,1:0:0:0:
269,99,198286,1,0,0:0:0:0:
321,248,198452,1,8,0:3:0:0:
391,66,198617,1,8,0:3:0:0:
326,272,198783,1,4,0:3:0:0:
252,23,198949,1,0,0:0:0:0:
424,183,199115,6,0,P|338:180|311:179,1,93.5000028533936,4|0,0:3|0:0,0:0:0:0:
179,282,199446,2,0,P|265:279|292:278,1,93.5000028533936,0|0,1:0|0:0,0:0:0:0:
376,111,199778,2,0,P|378:196|382:280,1,140.25000428009,2|0,0:0|0:0,0:0:0:0:
381,374,200109,2,0,P|314:350|275:362,1,93.5000028533936,0|8,1:0|0:3,0:0:0:0:
185,254,200441,5,2,0:0:0:0:
346,178,200606,1,0,0:0:0:0:
178,135,200772,1,0,1:0:0:0:
194,290,200938,5,0,0:0:0:0:
309,107,201103,1,2,0:0:0:0:
185,164,201269,1,0,1:0:0:0:
185,164,201352,1,0,1:0:0:0:
185,164,201435,1,0,1:0:0:0:
348,202,201601,1,2,0:0:0:0:
237,81,201767,6,0,P|169:76|125:75,1,93.5000028533936,4|0,0:0|0:0,0:0:0:0:
39,242,202098,1,0,1:0:0:0:
144,159,202264,1,0,0:0:0:0:
17,79,202430,2,0,P|24:165|31:236,1,140.25000428009,2|0,0:0|0:0,0:0:0:0:
90,311,202761,2,0,B|137:293|137:293|199:301,1,93.5000028533936,0|8,1:0|0:3,0:0:0:0:
344,384,203093,5,2,0:0:0:0:
286,222,203258,1,0,0:0:0:0:
201,374,203424,1,0,1:0:0:0:
378,319,203590,1,0,0:0:0:0:
191,217,203756,2,0,P|196:165|209:100,1,93.5000028533936,2|0,0:0|1:0,0:0:0:0:
327,20,204087,1,8,0:3:0:0:
372,214,204253,1,2,0:0:0:0:
476,38,204419,6,0,P|470:125|469:144,1,93.5000028533936,4|0,0:0|0:0,0:0:0:0:
279,194,204750,2,0,P|325:191|372:187,1,93.5000028533936,0|0,1:0|0:0,0:0:0:0:
446,293,205082,1,2,0:0:0:0:
381,109,205247,1,0,0:0:0:0:
214,240,205413,2,0,P|205:181|224:132,1,93.5000028533936,0|0,1:0|0:0,0:0:0:0:
122,15,205745,5,2,0:0:0:0:
114,159,205910,1,0,0:0:0:0:
18,51,206076,1,0,1:0:0:0:
164,88,206242,1,0,0:0:0:0:
13,192,206408,2,0,P|26:236|39:281,1,93.5000028533936,2|0,0:0|0:0,0:0:0:0:
194,228,206739,1,0,1:0:0:0:
126,384,206905,1,0,0:0:0:0:
123,159,207071,6,0,P|169:152|215:146,1,93.5000028533936,2|0,0:0|0:0,0:0:0:0:
374,90,207402,1,0,1:0:0:0:
325,287,207568,1,0,0:0:0:0:
177,66,207734,2,0,B|129:81|129:81|29:67,1,140.25000428009,2|0,0:0|0:0,0:0:0:0:
28,186,208065,2,0,B|94:172|94:172|147:179,1,93.5000028533936,0|0,1:0|0:0,0:0:0:0:
232,330,208396,5,2,0:0:0:0:
269,138,208562,1,0,0:0:0:0:
101,249,208728,2,0,P|162:246|206:245,1,93.5000028533936,0|0,1:0|0:0,0:0:0:0:
393,88,209059,5,8,0:3:0:0:
323,289,209225,1,8,0:3:0:0:
218,111,209391,1,4,0:3:0:0:
455,173,209557,1,0,0:0:0:0:
216,241,209722,6,0,P|210:142|208:79,1,140.25000428009,4|0,0:3|0:0,0:0:0:0:
105,13,210054,2,0,P|129:59|115:113,1,93.5000028533936,0|0,1:0|1:0,0:0:0:0:
54,166,210303,1,0,1:0:0:0:
54,166,210385,2,0,P|31:214|42:269,1,93.5000028533936,2|0,0:0|1:0,0:0:0:0:
162,338,210717,1,2,0:0:0:0:
154,212,210883,1,0,1:0:0:0:
154,212,210966,1,0,1:0:0:0:
154,212,211048,5,2,0:0:0:0:
76,318,211213,1,0,0:0:0:0:
246,277,211379,1,0,1:0:0:0:
139,141,211546,1,0,1:0:0:0:
139,141,211629,1,0,1:0:0:0:
139,141,211711,2,0,P|143:218|146:271,1,93.5000028533936,2|0,0:0|0:0,0:0:0:0:
268,60,212043,1,0,1:0:0:0:
119,62,212209,2,0,L|172:60,1,46.7500014266968,0|0,0:0|1:0,0:0:0:0:
244,174,212374,6,0,B|285:190|285:190|351:177,1,93.5000028533936,2|0,0:0|0:0,0:0:0:0:
471,84,212706,1,0,1:0:0:0:
381,25,212872,1,0,1:0:0:0:
381,25,212955,1,0,1:0:0:0:
381,25,213037,2,0,P|343:81|354:133,1,93.5000028533936,2|0,0:0|1:0,0:0:0:0:
481,259,213369,2,0,L|376:251,1,93.5000028533936,0|0,1:0|0:0,0:0:0:0:
315,342,213617,1,0,0:0:0:0:
315,342,213700,5,4,0:3:0:0:
226,226,213866,1,2,0:0:0:0:
152,339,214032,1,4,1:3:0:0:
305,260,214198,1,2,0:0:0:0:
152,97,214363,5,4,1:3:0:0:
155,355,214529,1,2,0:0:0:0:
323,190,214695,5,4,1:3:0:0:
70,194,214861,1,2,0:0:0:0:
285,353,215026,6,0,B|348:342|348:342|415:358,1,93.5000028533936,4|0,0:3|0:0,0:0:0:0:
507,248,215275,1,0,0:0:0:0:
507,248,215358,2,0,B|444:259|444:259|377:243,1,93.5000028533936,0|0,1:0|0:0,0:0:0:0:
279,114,215689,2,0,P|193:116|167:152,1,93.5000028533936,2|0,0:0|1:0,0:0:0:0:
168,241,215938,1,0,1:0:0:0:
168,241,216021,2,0,L|243:172,1,93.5000028533936,0|0,1:0|0:0,0:0:0:0:
120,47,216352,5,2,0:0:0:0:
117,161,216518,1,0,1:0:0:0:
117,161,216601,1,0,1:0:0:0:
117,161,216684,1,0,1:0:0:0:
276,68,216850,2,0,L|228:67,1,46.7500014266968,0|0,0:0|1:0,0:0:0:0:
38,162,217015,2,0,P|91:162|146:162,1,93.5000028533936,2|0,0:0|0:0,0:0:0:0:
298,165,217347,2,0,P|321:214|313:259,1,93.5000028533936,0|0,1:0|0:0,0:0:0:0:
181,366,217678,6,0,B|171:323|171:323|195:261,1,93.5000028533936,2|0,0:0|0:0,0:0:0:0:
298,165,218010,2,0,B|255:175|255:175|193:151,1,93.5000028533936,0|0,1:0|1:0,0:0:0:0:
115,107,218258,1,0,1:0:0:0:
115,107,218341,2,0,P|91:158|100:203,1,93.5000028533936,2|0,0:0|0:0,0:0:0:0:
166,273,218673,1,0,1:0:0:0:
229,64,218838,1,0,0:0:0:0:
307,221,219004,5,2,0:0:0:0:
181,133,219170,1,0,0:0:0:0:
347,128,219336,1,0,1:0:0:0:
180,239,219501,1,0,1:0:0:0:
180,239,219584,1,0,1:0:0:0:
180,239,219667,2,0,P|165:313|176:346,1,93.5000028533936,2|0,0:0|0:0,0:0:0:0:
398,237,219999,2,0,B|309:248|309:248|259:227,1,140.25000428009,4|0,0:3|0:0,0:0:0:0:
232,138,220330,6,0,P|283:94|316:97,1,93.5000028533936,4|0,0:3|0:0,0:0:0:0:
367,8,220662,2,0,P|406:57|406:111,1,93.5000028533936,0|0,1:0|0:0,0:0:0:0:
370,171,220910,1,0,1:0:0:0:
370,171,220993,2,0,L|377:289,1,93.5000028533936,2|0,0:0|0:0,0:0:0:0:
512,324,221325,1,0,1:0:0:0:
457,233,221490,1,0,0:0:0:0:
328,342,221656,6,0,B|286:331|286:331|208:348,1,93.5000028533936,2|0,0:0|0:0,0:0:0:0:
87,222,221988,1,0,1:0:0:0:
226,208,222153,1,0,0:0:0:0:
226,208,222236,1,0,1:0:0:0:
226,208,222319,1,2,0:0:0:0:
114,310,222485,1,0,0:0:0:0:
160,136,222651,2,0,P|226:118|293:116,1,93.5000028533936,0|0,1:0|0:0,0:0:0:0:
404,210,222982,6,0,P|367:176|338:136,1,93.5000028533936,4|0,0:3|0:0,0:0:0:0:
431,21,223314,2,0,P|431:94|430:127,1,93.5000028533936,0|0,1:0|0:0,0:0:0:0:
430,114,223562,1,0,1:0:0:0:
430,114,223645,1,2,0:0:0:0:
326,27,223811,1,0,0:0:0:0:
270,216,223977,2,0,P|193:218|160:216,1,93.5000028533936,0|0,1:0|0:0,0:0:0:0:
40,98,224308,5,2,0:0:0:0:
212,137,224474,1,0,0:0:0:0:
49,191,224640,1,0,1:0:0:0:
191,41,224805,1,0,1:0:0:0:
191,41,224888,1,0,1:0:0:0:
191,41,224971,2,0,P|189:115|191:149,1,93.5000028533936,2|0,0:0|0:0,0:0:0:0:
255,308,225303,2,0,P|268:223|298:199,1,93.5000028533936,0|0,1:0|0:0,0:0:0:0:
423,285,225634,6,0,P|376:280|330:277,1,93.5000028533936,4|0,0:3|0:0,0:0:0:0:
247,110,225966,2,0,L|341:110,1,93.5000028533936,0|0,1:0|0:0,0:0:0:0:
439,175,226214,1,0,1:0:0:0:
439,175,226297,2,0,P|449:101|446:62,1,93.5000028533936,2|0,0:0|0:0,0:0:0:0:
369,266,226629,1,0,1:0:0:0:
272,145,226794,2,0,L|326:145,1,46.7500014266968,0|0,1:0|1:0,1:0:0:0:
241,271,226960,5,2,0:0:0:0:
193,118,227126,1,0,0:0:0:0:
318,145,227292,1,0,1:0:0:0:
114,235,227457,2,0,L|114:180,1,46.7500014266968,0|0,1:0|1:0,0:0:0:0:
180,30,227623,2,0,P|198:67|178:138,1,93.5000028533936,2|0,0:0|0:0,0:0:0:0:
114,235,227955,1,0,1:0:0:0:
44,96,228120,1,0,0:0:0:0:
280,34,228286,6,0,B|331:50|331:50|398:42,1,93.5000028533936,4|0,0:3|0:0,0:0:0:0:
502,149,228617,2,0,B|451:133|451:133|384:141,1,93.5000028533936,0|0,1:0|1:0,0:0:0:0:
335,176,228866,1,0,1:0:0:0:
335,176,228949,2,0,P|316:239|326:276,1,93.5000028533936,2|0,0:0|0:0,0:0:0:0:
232,382,229280,2,0,P|236:335|218:293,1,93.5000028533936,0|0,1:0|1:0,0:0:0:0:
146,208,229529,1,0,1:0:0:0:
146,208,229612,5,2,0:0:0:0:
295,150,229778,1,0,0:0:0:0:
134,8,229943,2,0,P|141:79|147:115,1,93.5000028533936,0|0,1:0|0:0,0:0:0:0:
306,384,230275,5,2,0:0:0:0:
149,202,230442,1,0,0:0:0:0:
378,274,230606,1,0,1:0:0:0:
144,332,230772,1,0,0:0:0:0:
295,150,230938,5,4,0:3:0:0:
92,151,232927,6,0,P|97:85|100:53,1,85
196,17,233590,1,4,0:3:0:0:
196,17,235579,5,0,0:0:0:0:
247,208,235910,1,0,0:0:0:0:
388,64,236242,1,4,0:3:0:0:
277,91,237568,5,4,0:3:0:0:
332,297,238231,5,0,0:0:0:0:
239,174,238562,1,0,0:0:0:0:
91,217,238894,1,4,0:3:0:0:
91,217,240220,6,0,P|69:172|80:140,1,63.7500024318696
182,59,240551,1,0,0:0:0:0:
171,166,240717,1,0,0:0:0:0:
171,166,240800,1,0,0:0:0:0:
171,166,240883,1,0,0:0:0:0:
100,80,241048,1,0,0:0:0:0:
247,132,241214,1,4,0:3:0:0:
182,59,241380,1,0,0:0:0:0:
247,233,241546,5,4,0:3:0:0:
310,237,251656,5,0,0:0:0:0:
310,237,251739,1,0,0:0:0:0:
310,237,251822,2,0,P|313:185|316:142,1,72.2500013780594,2|0,0:3|0:0,0:0:0:0:
234,29,252153,6,0,L|239:114,1,72.2500013780594,4|0,0:3|0:0,0:0:0:0:
140,222,252485,2,0,L|144:149,1,72.2500013780594,2|0,0:0|0:0,0:0:0:0:
21,28,252816,1,2,0:0:0:0:
61,130,252982,1,0,0:0:0:0:
163,36,253148,2,0,P|231:28|251:33,1,72.2500013780594,2|0,0:0|0:0,0:0:0:0:
328,145,253479,6,0,P|268:136|237:133,1,72.2500013780594,2|0,0:0|0:0,0:0:0:0:
193,250,253811,2,0,P|253:241|284:238,1,72.2500013780594,2|0,0:0|0:0,0:0:0:0:
354,377,254142,2,0,P|362:280|371:203,1,144.500002756119,2|2,0:0|0:0,0:0:0:0:
448,138,254640,1,8,0:0:0:0:
491,271,254805,6,0,P|487:337|480:363,1,72.2500013780594,2|0,0:0|0:0,0:0:0:0:
309,186,255137,2,0,P|347:162|390:159,1,72.2500013780594,2|0,0:0|0:0,0:0:0:0:
355,318,255468,2,0,P|306:319|275:320,1,72.2500013780594,2|0,0:0|0:0,0:0:0:0:
130,222,255800,2,0,P|179:223|210:224,1,72.2500013780594,2|0,0:0|0:0,0:0:0:0:
315,176,256131,6,0,P|309:81|305:22,2,144.500002756119,2|2|2,0:0|0:0|0:0,0:0:0:0:
269,333,256960,1,8,0:0:0:0:
193,203,257126,1,2,0:0:0:0:
270,351,257292,1,8,0:0:0:0:
341,246,257457,6,0,P|377:246|413:246,1,72.2500013780594,2|0,0:0|0:0,0:0:0:0:
512,100,257789,2,0,P|475:99|439:100,1,72.2500013780594,2|0,0:0|0:0,0:0:0:0:
286,184,258120,2,0,P|328:264|301:325,1,144.500002756119,2|2,0:0|0:0,0:0:0:0:
214,130,258783,6,0,P|278:99|350:122,1,144.500002756119,2|2,0:0|0:0,0:0:0:0:
440,184,259280,1,0,0:0:0:0:
440,184,259446,2,0,P|436:107|440:87,1,72.2500013780594,2|0,0:0|0:0,0:0:0:0:
367,20,259778,1,2,0:0:0:0:
307,162,259943,1,8,0:0:0:0:
202,99,260109,6,0,B|129:115|129:115|60:99,2,144.500002756119,2|2|2,0:0|0:0|0:0,0:0:0:0:
293,46,260938,1,0,0:0:0:0:
293,46,261104,2,0,P|303:80|303:116,1,72.2500013780594,2|0,0:0|0:0,0:0:0:0:
268,253,261435,6,0,P|183:248|90:243,1,144.500002756119,2|2,0:0|0:0,0:0:0:0:
0,244,261932,1,0,1:0:0:0:
198,164,262098,1,0,1:0:0:0:
95,364,262264,1,2,0:0:0:0:
45,122,262430,1,4,1:0:0:0:
45,122,262761,6,0,P|67:49|142:20,1,144.500002756119,4|0,0:3|0:0,0:0:0:0:
218,112,263424,1,4,1:3:0:0:
224,126,264087,1,2,0:0:0:0:
314,53,264419,1,0,0:0:0:0:
208,6,264750,1,4,1:3:0:0:
123,85,265082,1,0,0:0:0:0:
182,230,265413,6,0,B|246:244|246:244|327:223,1,144.500002756119,2|2,0:0|0:0,0:0:0:0:
235,144,265910,1,0,0:0:0:0:
446,181,266076,2,0,P|420:116|351:108,1,144.500002756119,4|0,1:3|0:0,0:0:0:0:
422,304,266739,6,0,P|404:235|464:174,1,144.500002756119,2|0,0:0|0:0,0:0:0:0:
249,48,267402,2,0,P|300:111|287:194,1,144.500002756119,4|0,1:3|0:0,0:0:0:0:
226,326,268065,1,2,0:0:0:0:
185,182,268396,1,2,0:0:0:0:
63,251,268728,1,4,1:3:0:0:
73,267,269391,5,2,0:0:0:0:
150,180,269722,1,2,0:0:0:0:
62,105,270054,1,4,1:3:0:0:
139,19,270385,1,0,0:0:0:0:
228,95,270717,6,0,B|288:108|288:108|376:96,1,144.500002756119,2|2,0:0|0:0,0:0:0:0:
481,17,271214,1,0,0:0:0:0:
481,17,271380,2,0,P|454:80|476:152,1,144.500002756119,4|0,1:3|0:0,0:0:0:0:
387,321,272043,6,0,P|398:228|364:172,2,144.500002756119,2|2|4,0:0|0:0|1:3,0:0:0:0:
295,260,273037,1,2,0:0:0:0:
295,260,273369,6,0,P|232:265|211:267,1,72.2500013780594,4|0,0:3|0:0,0:0:0:0:
127,172,273700,2,0,P|190:177|211:179,1,72.2500013780594,2|0,0:0|0:0,0:0:0:0:
40,274,274032,2,0,P|36:158|34:101,1,144.500002756119,2|2,0:0|0:0,0:0:0:0:
118,38,274529,1,0,0:0:0:0:
118,38,274695,6,0,P|151:77|154:123,1,72.2500013780594,2|0,0:0|0:0,0:0:0:0:
209,222,275026,2,0,P|228:161|251:142,1,72.2500013780594,2|0,0:0|0:0,0:0:0:0:
369,46,275358,2,0,P|261:71|231:53,1,144.500002756119,2|8,0:0|0:3,0:0:0:0:
333,158,275855,1,2,0:0:0:0:
333,158,276021,6,0,L|334:242,1,72.2500013780594,2|0,0:0|0:0,0:0:0:0:
412,99,276352,1,2,0:0:0:0:
414,192,276518,1,0,0:0:0:0:
189,230,276684,2,0,L|348:230,1,144.500002756119,2|2,0:0|0:0,0:0:0:0:
441,194,277181,1,0,0:0:0:0:
441,194,277347,6,0,P|434:253|441:279,1,72.2500013780594,2|0,0:0|0:0,0:0:0:0:
340,384,277678,2,0,P|343:348|335:313,1,72.2500013780594,2|0,0:0|0:0,0:0:0:0:
244,187,278010,1,8,0:3:0:0:
169,266,278175,1,0,1:0:0:0:
348,221,278341,1,8,3:0:0:0:
234,102,278507,1,2,0:0:0:0:
169,281,278673,6,0,B|127:273|127:273|81:280,1,72.2500013780594,6|0,0:0|0:0,0:0:0:0:
15,152,279004,2,0,B|57:160|57:160|103:153,1,72.2500013780594,2|0,0:0|0:0,0:0:0:0:
175,49,279336,2,0,P|243:25|313:80,1,144.500002756119,2|2,0:0|0:0,0:0:0:0:
238,152,279833,1,0,0:0:0:0:
238,152,279999,6,0,L|239:230,1,72.2500013780594,2|0,0:0|0:0,0:0:0:0:
297,384,280330,2,0,P|277:336|240:318,1,72.2500013780594,2|0,0:0|0:0,0:0:0:0:
103,268,280662,2,0,P|154:286|200:273,1,72.2500013780594,2|0,0:0|0:0,0:0:0:0:
327,149,280993,1,2,0:0:0:0:
322,265,281159,1,0,0:0:0:0:
176,161,281325,6,0,P|168:123|190:74,1,72.2500013780594,2|0,0:0|0:0,0:0:0:0:
369,25,281656,1,2,0:0:0:0:
327,149,281822,1,0,0:0:0:0:
150,8,281988,2,0,L|226:8,1,72.2500013780594,2|0,0:0|0:0,0:0:0:0:
327,149,282319,2,0,L|251:149,1,72.2500013780594,0|2,0:0|0:0,0:0:0:0:
70,275,282651,5,2,0:0:0:0:
180,93,282816,1,0,0:0:0:0:
171,310,282982,1,0,1:0:0:0:
84,144,283148,1,0,0:0:0:0:
260,239,283314,1,0,1:0:0:0:
260,239,283479,1,2,0:0:0:0:
276,29,283645,1,8,0:3:0:0:
276,29,283811,1,2,0:0:0:0:
177,97,283977,5,4,0:3:0:0:
404,162,284142,1,0,0:0:0:0:
179,306,284308,2,0,P|171:243|176:221,1,72.2500013780594,2|0,0:0|0:0,0:0:0:0:
334,84,284640,1,4,0:0:0:0:
423,263,284805,1,2,0:0:0:0:
332,60,284971,1,4,0:3:0:0:
272,276,285137,1,2,0:0:0:0:
410,149,285303,6,0,L|488:147,1,72.2500013780594,2|0,0:0|0:0,0:0:0:0:
236,27,285634,1,2,0:0:0:0:
236,27,285800,2,0,P|196:92|225:166,1,144.500002756119,4|0,0:3|0:0,0:0:0:0:
369,239,286297,1,2,0:0:0:0:
315,142,286463,1,0,0:0:0:0:
160,241,286629,5,4,0:3:0:0:
104,96,290606,5,4,0:3:0:0:
116,120,290938,1,4,0:3:0:0:
118,155,291269,1,4,0:3:0:0:
103,187,291601,1,4,0:3:0:0:
68,223,291932,5,2,0:0:0:0:
116,120,292098,2,0,P|180:115|234:209,1,170,2|0,0:0|1:0,0:0:0:0:
363,361,292761,1,2,0:0:0:0:
363,361,292927,2,0,P|353:291|385:242,1,127.5,0|0,1:0|0:0,0:0:0:0:
418,151,293258,6,0,P|373:171|331:161,1,85,2|0,0:0|0:0,0:0:0:0:
250,57,293590,1,0,1:0:0:0:
140,285,293921,2,0,L|133:197,1,85,0|2,0:0|0:0,0:0:0:0:
2,81,294253,2,0,P|71:65|124:97,1,127.5,0|0,1:0|0:0,0:0:0:0:
167,18,294584,6,0,P|208:33|254:25,1,85,2|0,0:0|0:0,0:0:0:0:
446,187,295082,2,0,P|390:148|285:183,1,170,0|0,1:0|0:0,0:0:0:0:
253,349,295579,2,0,L|254:253,1,85,0|0,1:0|0:0,0:0:0:0:
175,101,295910,6,0,P|139:145|151:202,1,85,2|0,0:0|0:0,0:0:0:0:
253,349,296408,1,2,0:0:0:0:
409,271,296573,2,0,L|319:272,1,85,0|0,1:0|0:0,0:0:0:0:
212,171,296905,2,0,P|289:185|337:142,1,127.5,2|0,0:0|0:0,0:0:0:0:
365,74,297236,6,0,P|414:131|417:179,1,93.5000028533936,4|0,0:3|0:0,0:0:0:0:
265,113,297568,2,0,L|263:14,1,93.5000028533936,0|0,1:0|0:0,0:0:0:0:
196,254,297899,2,0,P|203:188|141:137,1,140.25000428009,2|0,0:0|0:0,0:0:0:0:
131,213,298231,1,0,1:0:0:0:
56,89,298396,1,0,0:0:0:0:
241,92,298562,6,0,P|300:96|341:98,1,93.5000028533936,2|0,0:0|0:0,0:0:0:0:
440,199,298894,2,0,P|381:203|340:205,1,93.5000028533936,0|0,1:0|0:0,0:0:0:0:
290,17,299225,1,2,0:0:0:0:
212,195,299391,1,0,0:0:0:0:
212,195,299474,1,0,1:0:0:0:
212,195,299557,1,0,1:0:0:0:
334,97,299722,1,0,0:0:0:0:
391,255,299888,6,0,P|411:323|399:359,1,93.5000028533936,2|0,0:0|0:0,0:0:0:0:
353,176,300220,2,0,P|422:172|450:192,1,93.5000028533936,0|0,1:0|0:0,0:0:0:0:
285,254,300551,2,0,B|195:278|195:278|119:253,1,140.25000428009,2|0,0:0|0:0,0:0:0:0:
72,209,300883,2,0,P|56:283|67:312,1,93.5000028533936,0|0,1:0|0:0,0:0:0:0:
193,93,301214,6,0,L|191:199,1,93.5000028533936,2|0,0:0|0:0,0:0:0:0:
105,129,301546,1,0,1:0:0:0:
279,90,301711,1,0,0:0:0:0:
123,11,301877,1,2,0:0:0:0:
191,186,302043,1,2,0:0:0:0:
250,10,302209,1,8,1:3:0:0:
105,129,302374,1,8,0:3:0:0:
285,217,302540,6,0,P|341:219|386:221,1,93.5000028533936,4|0,0:3|0:0,0:0:0:0:
512,122,302872,2,0,P|456:124|411:126,1,93.5000028533936,0|0,1:0|0:0,0:0:0:0:
299,292,303203,2,0,L|303:120,1,140.25000428009,2|0,0:0|0:0,0:0:0:0:
307,57,303535,2,0,P|359:57|430:58,1,93.5000028533936,0|0,1:0|0:0,0:0:0:0:
210,20,303866,6,0,P|181:56|180:117,1,93.5000028533936,2|0,0:0|0:0,0:0:0:0:
140,254,304198,2,0,P|135:202|92:156,1,93.5000028533936,0|0,1:0|0:0,0:0:0:0:
55,299,304529,1,2,0:0:0:0:
230,292,304695,1,0,0:0:0:0:
111,169,304861,1,0,1:0:0:0:
150,365,305026,1,0,0:0:0:0:
243,202,305192,6,0,B|288:220|288:220|361:211,1,93.5000028533936,2|0,0:0|0:0,0:0:0:0:
419,45,305524,2,0,P|397:101|404:136,1,93.5000028533936,0|0,1:0|0:0,0:0:0:0:
504,331,305855,2,0,P|490:275|379:306,1,187.000005706787,2|0,0:0|1:0,0:0:0:0:
316,375,306352,1,0,0:0:0:0:
211,188,306518,6,0,L|222:295,1,93.5000028533936,2|0,0:0|0:0,0:0:0:0:
349,74,306850,1,0,1:0:0:0:
321,214,307015,1,0,0:0:0:0:
239,76,307181,1,2,0:0:0:0:
209,61,307263,1,0,0:0:0:0:
177,57,307346,1,0,1:0:0:0:
145,63,307429,1,0,1:0:0:0:
117,79,307513,2,0,P|61:92|46:93,1,46.7500014266968,4|0,1:3|1:0,0:0:0:0:
8,201,307678,2,0,P|64:213|79:214,1,46.7500014266968,0|0,1:0|1:0,0:0:0:0:
175,360,307844,6,0,P|174:269|202:214,1,140.25000428009,4|0,0:3|0:0,0:0:0:0:
265,151,308175,2,0,P|294:197|297:249,1,93.5000028533936,0|0,1:0|0:0,0:0:0:0:
365,335,308424,1,0,1:0:0:0:
365,335,308507,2,0,P|422:302|467:310,1,93.5000028533936,2|0,0:0|0:0,0:0:0:0:
398,175,308838,1,0,1:0:0:0:
192,243,309004,1,0,1:0:0:0:
192,243,309087,1,0,1:0:0:0:
192,243,309170,5,2,0:0:0:0:
290,120,309336,1,0,0:0:0:0:
269,332,309501,2,0,B|218:325|218:325|150:340,1,93.5000028533936,0|0,1:0|0:0,0:0:0:0:
76,275,309750,1,0,1:0:0:0:
76,275,309833,2,0,P|60:218|83:171,1,93.5000028533936,2|0,0:0|0:0,0:0:0:0:
156,18,310164,1,0,1:0:0:0:
239,185,310330,2,0,L|177:186,1,46.7500014266968,0|0,0:0|1:0,0:0:0:0:
55,96,310496,6,0,B|97:112|97:112|152:98,1,93.5000028533936,2|0,0:0|0:0,0:0:0:0:
281,36,310827,1,0,1:0:0:0:
332,241,310993,2,0,L|272:240,1,46.7500014266968,0|0,1:0|1:0,1:0:0:0:
233,107,311159,1,2,0:0:0:0:
376,171,311325,2,0,P|411:258|381:308,1,140.25000428009,0|0,1:0|0:0,0:0:0:0:
323,357,311656,1,0,0:0:0:0:
323,357,311739,1,0,0:0:0:0:
323,357,311822,6,0,P|251:351|209:348,1,93.5000028533936,4|2,0:3|0:0,0:0:0:0:
94,249,312153,2,0,P|166:243|208:240,1,93.5000028533936,4|2,1:3|0:0,0:0:0:0:
330,136,312485,1,4,0:3:0:0:
289,278,312651,1,2,0:0:0:0:
145,108,312816,1,4,1:3:0:0:
187,241,312982,1,2,0:0:0:0:
294,63,313148,6,0,B|360:97|360:97|444:92,1,140.25000428009,4|0,0:3|0:0,0:0:0:0:
483,187,313479,2,0,P|429:178|388:188,1,93.5000028533936,0|0,1:0|0:0,0:0:0:0:
330,348,313811,1,2,0:0:0:0:
205,244,313977,1,0,1:0:0:0:
205,244,314059,1,0,1:0:0:0:
205,244,314142,2,0,P|265:249|307:255,1,93.5000028533936,0|0,1:0|0:0,0:0:0:0:
120,328,314474,6,0,P|115:217|112:165,1,140.25000428009,2|0,0:0|0:0,0:0:0:0:
107,94,314805,1,0,1:0:0:0:
260,208,314971,2,0,L|260:148,1,46.7500014266968,0|0,0:0|1:0,0:0:0:0:
218,0,315137,2,0,P|187:44|189:88,1,93.5000028533936,2|0,0:0|0:0,0:0:0:0:
403,134,315468,1,0,1:0:0:0:
306,47,315634,1,0,1:0:0:0:
306,47,315717,1,0,1:0:0:0:
306,47,315800,5,2,0:0:0:0:
241,194,315966,1,0,0:0:0:0:
447,63,316131,2,0,P|487:136|478:176,1,93.5000028533936,0|0,1:0|0:0,0:0:0:0:
423,303,316463,1,2,0:0:0:0:
346,158,316629,1,0,1:0:0:0:
346,158,316711,1,0,1:0:0:0:
346,158,316794,1,0,1:0:0:0:
497,227,316960,1,0,0:0:0:0:
303,300,317126,6,0,P|228:308|198:310,1,93.5000028533936,2|0,0:0|0:0,0:0:0:0:
87,203,317457,1,0,1:0:0:0:
235,171,317623,1,0,0:0:0:0:
20,253,317789,2,0,P|8:182|31:139,1,93.5000028533936,2|0,0:0|0:0,0:0:0:0:
150,3,318120,2,0,P|153:83|154:133,1,93.5000028533936,4|0,0:3|1:0,0:0:0:0:
241,178,318369,1,0,0:0:0:0:
241,178,318452,6,0,B|285:187|285:187|352:171,1,93.5000028533936,4|0,0:3|0:0,0:0:0:0:
453,226,318783,2,0,P|462:169|443:122,1,93.5000028533936,0|0,1:0|0:0,0:0:0:0:
370,4,319032,1,0,0:0:0:0:
370,4,319115,2,0,L|372:106,1,93.5000028533936,2|0,0:0|0:0,0:0:0:0:
314,249,319446,1,0,1:0:0:0:
262,120,319612,1,0,0:0:0:0:
262,120,319695,1,0,1:0:0:0:
262,120,319778,6,0,P|211:93|166:97,1,93.5000028533936,2|0,0:0|0:0,0:0:0:0:
183,311,320109,1,0,1:0:0:0:
201,194,320275,1,0,0:0:0:0:
201,194,320358,1,0,1:0:0:0:
201,194,320441,1,2,0:0:0:0:
78,231,320606,1,0,0:0:0:0:
280,266,320772,2,0,L|275:368,1,93.5000028533936,0|0,1:0|0:0,0:0:0:0:
122,133,321104,5,4,0:3:0:0:
172,288,321269,1,0,0:0:0:0:
316,163,321435,2,0,L|221:161,1,93.5000028533936,0|0,1:0|0:0,0:0:0:0:
276,54,321684,1,0,1:0:0:0:
276,54,321767,2,0,B|322:66|322:66|379:49,1,93.5000028533936,2|0,0:0|0:0,0:0:0:0:
472,137,322098,1,0,1:0:0:0:
395,286,322264,1,0,0:0:0:0:
395,286,322347,1,0,1:0:0:0:
395,286,322430,6,0,P|403:225|375:183,1,93.5000028533936,2|0,0:0|0:0,0:0:0:0:
274,90,322761,1,0,1:0:0:0:
210,286,322927,2,0,L|141:285,1,46.7500014266968,0|0,0:0|1:0,0:0:0:0:
36,200,323093,2,0,B|76:213|76:213|134:199,1,93.5000028533936,2|0,0:0|0:0,0:0:0:0:
274,90,323424,2,0,P|213:58|149:93,1,140.25000428009,0|0,1:0|0:0,0:0:0:0:
230,188,323756,6,0,L|330:188,1,93.5000028533936,4|0,0:3|0:0,0:0:0:0:
472,92,324087,1,0,1:0:0:0:
416,242,324253,2,0,L|414:179,1,46.7500014266968,0|0,0:0|1:0,0:0:0:0:
411,0,324419,2,0,P|351:21|337:76,1,93.5000028533936,2|0,0:0|0:0,0:0:0:0:
285,258,324750,1,0,1:0:0:0:
246,119,324916,1,0,0:0:0:0:
246,119,324999,1,0,1:0:0:0:
246,119,325082,5,2,0:0:0:0:
367,202,325247,1,0,0:0:0:0:
178,188,325413,2,0,L|75:187,1,93.5000028533936,0|0,1:0|0:0,0:0:0:0:
50,323,325662,1,0,1:0:0:0:
50,323,325745,2,0,P|103:266|199:333,1,187.000005706787,2|0,0:0|1:0,0:0:0:0:
263,383,326242,1,0,0:0:0:0:
273,209,326408,6,0,P|334:217|374:222,1,93.5000028533936,4|0,0:3|0:0,0:0:0:0:
331,46,326739,2,0,P|326:121|325:150,1,93.5000028533936,0|0,1:0|0:0,0:0:0:0:
449,315,327071,1,2,0:0:0:0:
478,172,327236,1,0,0:0:0:0:
478,172,327319,1,0,1:0:0:0:
478,172,327402,1,2,0:0:0:0:
321,289,327568,2,0,L|259:289,1,46.7500014266968,0|0,0:0|1:0,0:0:0:0:
124,181,327734,6,0,P|196:215|271:170,1,140.25000428009,2|0,0:0|0:0,0:0:0:0:
299,120,328065,2,0,P|301:53|302:23,1,93.5000028533936,0|0,1:0|0:0,0:0:0:0:
206,86,328396,1,2,0:0:0:0:
384,199,328562,1,0,0:0:0:0:
204,249,328728,1,0,1:0:0:0:
384,100,328894,1,0,0:0:0:0:
299,324,329059,6,0,P|296:250|295:229,1,85,4|0,0:3|0:0,0:0:0:0:
204,97,329391,2,0,P|202:139|200:181,1,85,0|0,1:0|0:0,0:0:0:0:
140,323,329722,1,2,0:0:0:0:
140,323,329888,1,0,0:0:0:0:
8,255,330054,2,0,P|48:223|88:230,1,85,0|0,1:0|0:0,0:0:0:0:
203,134,330385,6,0,P|162:142|123:126,1,85,2|0,0:0|0:0,0:0:0:0:
16,53,330717,2,0,P|43:21|83:8,1,85,0|0,1:0|0:0,0:0:0:0:
208,33,331048,1,2,0:0:0:0:
208,33,331214,1,0,0:0:0:0:
123,126,331380,1,0,1:0:0:0:
239,237,331546,1,0,1:0:0:0:
130,141,331711,6,0,P|203:141|241:140,1,85,4|0,0:3|0:0,0:0:0:0:
327,255,332043,2,0,P|254:255|216:254,1,85,0|0,1:0|0:0,0:0:0:0:
436,217,332374,1,2,0:0:0:0:
404,324,332540,1,0,0:0:0:0:
355,145,332706,2,0,P|419:117|445:128,1,85,0|0,1:0|0:0,0:0:0:0:
304,225,333037,5,2,0:0:0:0:
219,115,333203,1,0,0:0:0:0:
186,233,333369,2,0,B|144:223|144:223|99:233,1,85,0|0,1:0|0:0,0:0:0:0:
10,111,333700,2,0,B|52:121|52:121|97:111,1,85,2|0,0:0|0:0,0:0:0:0:
259,31,334032,1,0,1:0:0:0:
233,158,334198,1,0,0:0:0:0:
162,32,334363,5,4,0:3:0:0:
162,32,334529,1,0,0:0:0:0:
337,115,334695,2,0,P|334:178|332:215,1,85,0|0,1:0|0:0,0:0:0:0:
251,71,335026,5,2,0:0:0:0:
251,71,335192,1,0,0:0:0:0:
412,167,335358,2,0,P|409:230|407:267,1,85,0|0,1:0|0:0,0:0:0:0:
317,369,335689,6,0,P|331:308|264:222,1,170,2|0,0:0|1:0,0:0:0:0:
192,269,336187,2,0,P|185:198|259:138,1,170,2|0,0:0|0:0,0:0:0:0:
318,26,336684,1,0,1:0:0:0:
395,218,336850,1,2,0:0:0:0:
472,132,337015,6,0,L|386:129,1,85,4|0,0:3|0:0,0:0:0:0:
235,48,337347,2,0,L|321:45,1,85,0|0,1:0|0:0,0:0:0:0:
430,210,337678,1,2,0:0:0:0:
430,210,337844,1,0,0:0:0:0:
424,52,338010,1,0,1:0:0:0:
296,157,338175,1,0,0:0:0:0:
173,11,338341,6,0,P|155:80|173:122,1,85,2|0,0:0|0:0,0:0:0:0:
261,256,338673,2,0,P|262:188|244:155,1,85,0|2,1:0|0:0,0:0:0:0:
119,192,339004,1,4,1:2:0:0:
119,192,339170,1,0,0:0:0:0:
251,87,339336,1,0,1:0:0:0:
190,312,339501,1,0,0:0:0:0:
89,176,339667,5,4,0:3:0:0:
157,23,339833,1,0,0:0:0:0:
0,79,339999,2,0,L|84:76,1,85,0|0,1:0|0:0,0:0:0:0:
293,270,340330,2,0,P|267:199|161:181,1,170,2|0,0:0|1:0,0:0:0:0:
191,258,340827,1,0,0:0:0:0:
160,51,340993,6,0,P|208:53|249:56,1,85,2|0,0:0|0:0,0:0:0:0:
48,153,341325,2,0,P|96:155|137:158,1,85,0|0,1:0|0:0,0:0:0:0:
293,270,341656,2,0,L|89:262,1,170,2|0,0:0|1:0,0:0:0:0:
59,348,342153,1,4,0:0:0:0:
314,182,342319,5,2,0:3:0:0:
314,182,342651,2,0,B|360:183|360:183|395:202|395:202|464:202,2,127.500004863739,2|2|2,0:0|0:0|0:0,0:0:0:0:
