osu file format v14

[General]
AudioFilename: audio.mp3
AudioLeadIn: 0
PreviewTime: 115089
Countdown: 0
SampleSet: Normal
StackLeniency: 0.7
Mode: 1
LetterboxInBreaks: 0
WidescreenStoryboard: 0

[Editor]
DistanceSpacing: 0.6
BeatDivisor: 4
GridSize: 16
TimelineZoom: 2.2

[Metadata]
Title:PERVOE SVIDANIE
TitleUnicode:ПЕРВОЕ СВИДАНИЕ
Artist:alyona shvets.
ArtistUnicode:алёна швец.
Creator:clockbite
Version:WHEN THE SPRING BLOOMS
Source:
Tags:russian русский pop поп indie-pop инди-поп
BeatmapID:3483909
BeatmapSetID:1704937

[Difficulty]
HPDrainRate:6
CircleSize:5
OverallDifficulty:5
ApproachRate:10
SliderMultiplier:1.4
SliderTickRate:1

[Events]
//Background and Video events
0,0,"2560x1440-girl-in-lavender-field-alone-clouds_1596921183.jpg",0,-100
//Break Periods
2,112570,114727
//Storyboard Layer 0 (Background)
//Storyboard Layer 1 (Fail)
//Storyboard Layer 2 (Pass)
//Storyboard Layer 3 (Foreground)
//Storyboard Layer 4 (Overlay)
//Storyboard Sound Samples

[TimingPoints]
90,350.877192982456,4,1,0,20,1,0
90,-200,4,1,0,20,0,0
11844,-125,4,1,0,20,0,0
12196,-200,4,1,0,20,0,0
13248,-125,4,1,0,20,0,0
13599,-200,4,1,0,20,0,0
14652,-125,4,1,0,20,0,0
15003,-200,4,1,0,20,0,0
16055,-125,4,1,0,20,0,0
16406,-200,4,1,0,20,0,0
17459,-125,4,1,0,20,0,0
17810,-200,4,1,0,20,0,0
18862,-125,4,1,0,20,0,0
19213,-200,4,1,0,20,0,0
20266,-125,4,1,0,20,0,0
20617,-200,4,1,0,20,0,0
21669,-125,4,1,0,20,0,0
22020,-200,4,1,0,20,0,0
22370,-90.9090909090909,4,1,0,45,0,0
22546,-90.9090909090909,4,1,0,45,0,0
22721,-100,4,1,0,45,0,0
44826,-100,4,1,0,30,0,0
45353,-117.647058823529,4,1,0,30,0,0
50440,-111.111111111111,4,1,0,35,0,0
67282,-90.9090909090909,4,1,0,45,0,0
67458,-90.9090909090909,4,1,0,45,0,0
67633,-100,4,1,0,45,0,0
89739,-100,4,1,0,30,0,0
90265,-117.647058823529,4,1,0,30,0,0
95353,-111.111111111111,4,1,0,35,0,0
112195,-111.111111111111,4,1,0,20,0,0
115002,-86.9565217391304,4,1,0,45,0,0
115177,-86.9565217391304,4,1,0,45,0,1
115353,-95.2380952380952,4,1,0,45,0,1
136932,-95.2380952380952,4,1,0,45,0,0
137282,-95.2380952380952,4,1,0,25,0,0

[HitObjects]
187,149,12019,5,8,0:0:0:0:
187,149,13423,1,8,0:0:0:0:
187,149,14826,1,8,0:0:0:0:
187,149,16230,1,8,0:0:0:0:
187,149,17633,1,8,0:0:0:0:
187,149,19037,1,8,0:0:0:0:
187,149,20440,1,8,0:0:0:0:
217,190,21844,1,8,0:0:0:0:
334,193,22546,1,12,0:0:0:0:
254,168,22897,1,0,0:0:0:0:
212,157,23072,1,0,0:0:0:0:
254,195,23247,1,8,0:0:0:0:
254,195,23423,1,8,0:0:0:0:
334,193,23511,1,8,0:0:0:0:
215,215,23598,1,8,0:0:0:0:
215,215,23774,1,0,0:0:0:0:
182,195,23949,1,8,0:0:0:0:
109,142,24300,1,8,0:0:0:0:
144,168,24475,1,8,0:0:0:0:
144,168,24651,1,0,0:0:0:0:
144,168,25002,1,0,0:0:0:0:
144,168,25353,1,8,0:0:0:0:
264,178,26054,1,8,0:0:0:0:
227,174,26230,1,0,0:0:0:0:
227,174,26405,1,8,0:0:0:0:
227,174,26581,1,8,0:0:0:0:
227,174,26756,1,0,0:0:0:0:
264,178,26844,1,0,0:0:0:0:
227,174,26932,1,0,0:0:0:0:
227,174,27107,1,8,0:0:0:0:
227,174,27282,1,8,0:0:0:0:
206,170,27370,1,8,0:0:0:0:
227,174,27458,1,8,0:0:0:0:
227,174,27633,1,0,0:0:0:0:
227,174,27809,1,8,0:0:0:0:
227,174,28160,1,8,0:0:0:0:
227,10,28861,1,8,0:0:0:0:
227,46,29037,1,0,0:0:0:0:
217,64,29125,1,0,0:0:0:0:
227,79,29212,1,0,0:0:0:0:
227,112,29388,1,0,0:0:0:0:
227,152,29563,1,8,0:0:0:0:
227,152,29914,1,8,0:0:0:0:
227,152,30002,1,8,0:0:0:0:
208,155,30089,1,8,0:0:0:0:
227,152,30265,1,0,0:0:0:0:
227,152,30616,1,8,0:0:0:0:
254,145,30791,1,0,0:0:0:0:
227,152,30967,1,0,0:0:0:0:
206,74,31318,1,0,0:0:0:0:
227,152,31668,1,8,0:0:0:0:
227,152,32370,1,8,0:0:0:0:
227,152,33072,1,0,0:0:0:0:
227,152,33774,1,8,0:0:0:0:
151,192,34475,1,0,0:0:0:0:
151,192,34651,1,8,0:0:0:0:
151,192,34826,1,0,0:0:0:0:
116,211,35002,1,0,0:0:0:0:
78,232,35177,1,8,0:0:0:0:
210,132,35528,1,0,0:0:0:0:
184,158,35704,1,8,0:0:0:0:
198,159,35791,1,8,0:0:0:0:
159,185,35879,1,8,0:0:0:0:
159,185,36054,1,0,0:0:0:0:
159,185,36230,1,8,0:0:0:0:
159,185,36581,1,0,0:0:0:0:
264,178,37282,1,0,0:0:0:0:
227,174,37458,1,8,0:0:0:0:
227,174,37633,1,8,0:0:0:0:
227,174,37809,1,0,0:0:0:0:
227,174,37984,1,8,0:0:0:0:
264,178,38072,1,8,0:0:0:0:
227,174,38160,1,8,0:0:0:0:
227,174,38335,1,0,0:0:0:0:
227,174,38511,1,8,0:0:0:0:
206,171,38598,1,8,0:0:0:0:
227,174,38686,1,8,0:0:0:0:
227,174,38861,1,0,0:0:0:0:
227,174,39037,1,8,0:0:0:0:
204,167,39388,1,0,0:0:0:0:
124,312,40089,1,8,0:0:0:0:
143,277,40265,1,8,0:0:0:0:
163,242,40440,1,0,0:0:0:0:
181,210,40616,1,0,0:0:0:0:
201,178,40791,1,8,0:0:0:0:
220,184,40879,1,8,0:0:0:0:
239,190,40967,1,8,0:0:0:0:
201,178,41142,1,8,0:0:0:0:
201,178,41318,1,0,0:0:0:0:
209,159,41405,1,0,0:0:0:0:
201,157,41493,1,0,0:0:0:0:
201,178,41668,1,0,0:0:0:0:
201,178,41844,1,8,0:0:0:0:
201,178,42195,1,0,0:0:0:0:
64,76,42897,1,0,0:0:0:0:
105,128,43598,1,8,0:0:0:0:
260,171,44300,1,0,0:0:0:0:
95,131,45002,1,0,0:0:0:0:
257,171,45704,1,8,0:0:0:0:
214,160,45879,1,8,0:0:0:0:
214,160,46054,1,0,0:0:0:0:
214,160,46230,1,0,0:0:0:0:
214,160,46405,1,8,0:0:0:0:
214,160,46756,1,8,0:0:0:0:
214,160,46932,1,0,0:0:0:0:
214,160,47107,1,8,0:0:0:0:
214,160,47458,1,8,0:0:0:0:
214,160,47809,1,0,0:0:0:0:
214,160,48511,1,0,0:0:0:0:
214,160,48686,1,0,0:0:0:0:
214,160,48861,1,8,0:0:0:0:
214,160,49037,1,8,0:0:0:0:
214,160,49212,1,0,0:0:0:0:
214,160,49563,1,0,0:0:0:0:
214,160,49739,1,0,0:0:0:0:
214,160,49914,1,8,0:0:0:0:
214,160,50265,1,8,0:0:0:0:
214,160,50616,1,0,0:0:0:0:
214,160,51318,1,0,0:0:0:0:
214,160,51493,1,8,0:0:0:0:
214,160,51668,1,0,0:0:0:0:
214,160,51844,1,0,0:0:0:0:
214,160,52019,1,8,0:0:0:0:
214,160,52370,1,8,0:0:0:0:
214,160,52546,1,8,0:0:0:0:
214,160,52721,1,0,0:0:0:0:
214,160,53072,1,8,0:0:0:0:
214,160,53423,1,0,0:0:0:0:
214,160,54125,1,8,0:0:0:0:
214,160,54475,1,0,0:0:0:0:
214,160,54651,1,8,0:0:0:0:
214,160,54826,1,0,0:0:0:0:
214,160,55002,1,0,0:0:0:0:
214,160,55177,1,8,0:0:0:0:
214,160,55353,1,8,0:0:0:0:
214,160,55528,1,0,0:0:0:0:
82,57,56230,1,0,0:0:0:0:
238,112,56932,1,0,0:0:0:0:
238,112,57107,1,8,0:0:0:0:
238,112,57282,1,0,0:0:0:0:
238,112,57458,1,0,0:0:0:0:
238,112,57633,1,8,0:0:0:0:
238,112,57809,1,0,0:0:0:0:
238,112,57984,1,8,0:0:0:0:
238,112,58160,1,8,0:0:0:0:
238,112,58335,1,0,0:0:0:0:
217,140,58511,1,0,0:0:0:0:
233,152,58686,1,8,0:0:0:0:
217,140,59037,1,0,0:0:0:0:
217,140,59739,1,0,0:0:0:0:
217,140,59914,1,0,0:0:0:0:
217,140,60089,1,8,0:0:0:0:
217,140,60265,1,0,0:0:0:0:
217,140,60440,1,8,0:0:0:0:
217,140,60616,1,8,0:0:0:0:
217,140,60791,1,0,0:0:0:0:
225,97,60967,1,0,0:0:0:0:
217,140,61142,1,8,0:0:0:0:
225,97,61318,1,0,0:0:0:0:
217,140,61493,1,8,0:0:0:0:
217,140,61844,1,0,0:0:0:0:
234,297,62546,1,8,0:0:0:0:
232,260,62721,1,8,0:0:0:0:
231,221,62897,1,0,0:0:0:0:
231,185,63072,1,0,0:0:0:0:
231,185,63247,1,8,0:0:0:0:
231,185,63423,1,0,0:0:0:0:
231,185,63598,1,8,0:0:0:0:
227,141,63774,1,8,0:0:0:0:
231,185,63949,1,0,0:0:0:0:
200,160,64125,1,0,0:0:0:0:
231,185,64300,1,8,0:0:0:0:
231,185,64651,1,0,0:0:0:0:
231,185,65353,1,8,0:0:0:0:
231,185,65704,1,8,0:0:0:0:
231,185,65879,1,0,0:0:0:0:
231,185,66054,1,8,0:0:0:0:
231,185,66405,1,0,0:0:0:0:
231,185,66756,1,8,0:0:0:0:
334,193,67458,1,12,0:0:0:0:
254,168,67809,1,0,0:0:0:0:
212,157,67984,1,0,0:0:0:0:
254,195,68160,1,8,0:0:0:0:
254,195,68335,1,8,0:0:0:0:
334,193,68423,1,8,0:0:0:0:
215,215,68511,1,8,0:0:0:0:
215,215,68686,1,0,0:0:0:0:
182,195,68861,1,8,0:0:0:0:
109,142,69212,1,8,0:0:0:0:
144,168,69388,1,8,0:0:0:0:
144,168,69563,1,0,0:0:0:0:
144,168,69914,1,0,0:0:0:0:
144,168,70265,1,8,0:0:0:0:
264,178,70967,1,8,0:0:0:0:
227,174,71142,1,0,0:0:0:0:
227,174,71318,1,8,0:0:0:0:
227,174,71493,1,8,0:0:0:0:
227,174,71668,1,0,0:0:0:0:
264,178,71756,1,0,0:0:0:0:
227,174,71844,1,0,0:0:0:0:
227,174,72019,1,8,0:0:0:0:
227,174,72195,1,8,0:0:0:0:
206,170,72282,1,8,0:0:0:0:
227,174,72370,1,8,0:0:0:0:
227,174,72546,1,0,0:0:0:0:
227,174,72721,1,8,0:0:0:0:
227,174,73072,1,8,0:0:0:0:
227,10,73774,1,8,0:0:0:0:
227,46,73949,1,0,0:0:0:0:
217,64,74037,1,0,0:0:0:0:
227,79,74125,1,0,0:0:0:0:
227,112,74300,1,0,0:0:0:0:
227,152,74475,1,8,0:0:0:0:
227,152,74826,1,8,0:0:0:0:
227,152,74914,1,8,0:0:0:0:
208,155,75002,1,8,0:0:0:0:
227,152,75177,1,0,0:0:0:0:
227,152,75528,1,8,0:0:0:0:
254,145,75704,1,0,0:0:0:0:
227,152,75879,1,0,0:0:0:0:
206,74,76230,1,0,0:0:0:0:
227,152,76581,1,8,0:0:0:0:
227,152,77282,1,8,0:0:0:0:
227,152,77984,1,0,0:0:0:0:
227,152,78686,1,8,0:0:0:0:
227,152,79037,1,0,0:0:0:0:
227,152,79212,1,0,0:0:0:0:
151,192,79388,1,8,0:0:0:0:
151,192,79563,1,0,0:0:0:0:
174,185,79651,1,0,0:0:0:0:
151,192,79739,1,0,0:0:0:0:
116,211,79914,1,0,0:0:0:0:
78,232,80089,1,8,0:0:0:0:
210,132,80440,1,0,0:0:0:0:
184,158,80616,1,8,0:0:0:0:
198,159,80704,1,8,0:0:0:0:
159,185,80791,1,8,0:0:0:0:
159,185,80967,1,0,0:0:0:0:
159,185,81142,1,8,0:0:0:0:
159,185,81493,1,0,0:0:0:0:
264,178,82195,1,0,0:0:0:0:
227,174,82370,1,8,0:0:0:0:
227,174,82546,1,8,0:0:0:0:
227,174,82721,1,0,0:0:0:0:
227,174,82897,1,8,0:0:0:0:
264,178,82984,1,8,0:0:0:0:
227,174,83072,1,8,0:0:0:0:
227,174,83247,1,0,0:0:0:0:
227,174,83423,1,8,0:0:0:0:
206,171,83511,1,8,0:0:0:0:
227,174,83598,1,8,0:0:0:0:
227,174,83774,1,0,0:0:0:0:
227,174,83949,1,8,0:0:0:0:
204,167,84300,1,0,0:0:0:0:
124,312,85002,1,8,0:0:0:0:
143,277,85177,1,8,0:0:0:0:
163,242,85353,1,0,0:0:0:0:
181,210,85528,1,0,0:0:0:0:
201,178,85704,1,8,0:0:0:0:
220,184,85791,1,8,0:0:0:0:
239,190,85879,1,8,0:0:0:0:
201,178,86054,1,8,0:0:0:0:
201,178,86230,1,0,0:0:0:0:
209,159,86318,1,0,0:0:0:0:
201,157,86405,1,0,0:0:0:0:
201,178,86581,1,0,0:0:0:0:
201,178,86756,1,8,0:0:0:0:
201,178,87107,1,0,0:0:0:0:
64,76,87809,1,0,0:0:0:0:
105,128,88511,1,8,0:0:0:0:
260,171,89212,1,0,0:0:0:0:
128,62,89914,1,0,0:0:0:0:
201,210,90616,1,0,0:0:0:0:
201,210,90791,1,8,0:0:0:0:
201,210,90967,1,0,0:0:0:0:
201,210,91142,1,0,0:0:0:0:
201,210,91318,1,8,0:0:0:0:
201,210,91668,1,8,0:0:0:0:
201,210,91844,1,0,0:0:0:0:
201,210,92019,1,8,0:0:0:0:
201,210,92370,1,8,0:0:0:0:
201,210,92721,1,0,0:0:0:0:
201,210,93423,1,0,0:0:0:0:
201,210,93598,1,0,0:0:0:0:
201,210,93774,1,8,0:0:0:0:
201,210,93949,1,0,0:0:0:0:
201,210,94125,1,8,0:0:0:0:
201,210,94300,1,8,0:0:0:0:
201,210,94475,1,0,0:0:0:0:
201,210,94651,1,0,0:0:0:0:
201,210,94826,1,8,0:0:0:0:
201,210,95002,1,0,0:0:0:0:
201,210,95177,1,8,0:0:0:0:
128,205,95528,1,0,0:0:0:0:
297,181,96230,1,8,0:0:0:0:
250,192,96405,1,8,0:0:0:0:
204,208,96581,1,0,0:0:0:0:
204,208,96756,1,0,0:0:0:0:
204,208,96932,1,8,0:0:0:0:
204,208,97282,1,0,0:0:0:0:
204,208,97458,1,0,0:0:0:0:
204,208,97633,1,8,0:0:0:0:
204,208,97984,1,8,0:0:0:0:
204,208,98335,1,0,0:0:0:0:
204,208,99037,1,8,0:0:0:0:
204,208,99388,1,8,0:0:0:0:
204,208,99563,1,0,0:0:0:0:
204,208,99739,1,8,0:0:0:0:
204,208,99914,1,8,0:0:0:0:
204,208,100089,1,0,0:0:0:0:
204,208,100265,1,0,0:0:0:0:
204,208,100440,1,8,0:0:0:0:
204,208,101142,1,0,0:0:0:0:
204,208,101844,1,8,0:0:0:0:
204,208,102019,1,0,0:0:0:0:
204,208,102195,1,8,0:0:0:0:
204,208,102370,1,0,0:0:0:0:
204,208,102546,1,8,0:0:0:0:
204,208,102721,1,8,0:0:0:0:
204,208,102897,1,0,0:0:0:0:
204,208,103072,1,0,0:0:0:0:
204,208,103247,1,8,0:0:0:0:
204,208,103598,1,8,0:0:0:0:
146,156,103949,1,0,0:0:0:0:
273,266,104651,1,0,0:0:0:0:
241,238,104826,1,0,0:0:0:0:
208,209,105002,1,8,0:0:0:0:
208,209,105177,1,8,0:0:0:0:
208,209,105353,1,0,0:0:0:0:
208,209,105704,1,0,0:0:0:0:
208,209,105879,1,0,0:0:0:0:
208,209,106054,1,8,0:0:0:0:
208,209,106405,1,8,0:0:0:0:
208,209,106756,1,0,0:0:0:0:
208,209,107458,1,0,0:0:0:0:
208,209,107633,1,8,0:0:0:0:
208,209,107809,1,0,0:0:0:0:
208,209,107984,1,0,0:0:0:0:
208,209,108160,1,8,0:0:0:0:
208,209,108335,1,8,0:0:0:0:
208,209,108511,1,0,0:0:0:0:
208,209,108686,1,0,0:0:0:0:
208,209,108861,1,8,0:0:0:0:
208,209,109037,1,8,0:0:0:0:
208,209,109212,1,0,0:0:0:0:
208,209,109563,1,8,0:0:0:0:
316,100,110265,1,8,0:0:0:0:
248,142,110616,1,0,0:0:0:0:
214,165,110791,1,8,0:0:0:0:
214,165,110967,1,8,0:0:0:0:
214,165,111142,1,0,0:0:0:0:
214,165,111318,1,8,0:0:0:0:
214,165,111493,1,0,0:0:0:0:
214,165,111668,1,8,0:0:0:0:
214,165,112370,1,0,0:0:0:0:
334,193,115177,5,12,0:0:0:0:
254,168,115528,1,0,0:0:0:0:
212,157,115704,1,0,0:0:0:0:
254,195,115879,1,8,0:0:0:0:
254,195,116054,1,8,0:0:0:0:
334,193,116142,1,8,0:0:0:0:
215,215,116230,1,8,0:0:0:0:
215,215,116405,1,0,0:0:0:0:
182,195,116581,1,8,0:0:0:0:
109,142,116932,1,0,0:0:0:0:
144,168,117107,1,0,0:0:0:0:
144,168,117282,1,8,0:0:0:0:
144,168,117633,1,0,0:0:0:0:
144,168,117984,1,8,0:0:0:0:
264,178,118686,1,8,0:0:0:0:
227,174,118861,1,0,0:0:0:0:
218,159,118949,1,0,0:0:0:0:
227,174,119037,1,0,0:0:0:0:
227,174,119212,1,0,0:0:0:0:
227,174,119388,1,8,0:0:0:0:
206,170,119475,1,8,0:0:0:0:
227,174,119563,1,8,0:0:0:0:
227,174,119739,1,8,0:0:0:0:
227,174,119914,1,0,0:0:0:0:
264,178,120002,1,0,0:0:0:0:
227,174,120089,1,0,0:0:0:0:
227,174,120265,1,0,0:0:0:0:
227,174,120440,1,8,0:0:0:0:
227,174,120791,1,8,0:0:0:0:
227,10,121493,1,8,0:0:0:0:
227,46,121668,1,0,0:0:0:0:
217,64,121756,1,0,0:0:0:0:
227,79,121844,1,0,0:0:0:0:
227,112,122019,1,0,0:0:0:0:
227,152,122195,1,8,0:0:0:0:
227,152,122546,1,8,0:0:0:0:
227,152,122633,1,8,0:0:0:0:
208,155,122721,1,8,0:0:0:0:
227,152,122897,1,0,0:0:0:0:
227,152,123247,1,8,0:0:0:0:
254,145,123423,1,0,0:0:0:0:
227,152,123598,1,0,0:0:0:0:
206,74,123949,1,0,0:0:0:0:
227,152,124300,1,8,0:0:0:0:
227,152,125002,1,8,0:0:0:0:
227,152,125704,1,0,0:0:0:0:
227,152,126405,1,8,0:0:0:0:
291,213,126756,1,0,0:0:0:0:
291,213,126932,1,0,0:0:0:0:
151,192,127107,1,8,0:0:0:0:
151,192,127282,1,8,0:0:0:0:
133,180,127370,1,8,0:0:0:0:
151,192,127458,1,8,0:0:0:0:
116,211,127633,1,0,0:0:0:0:
78,232,127809,1,8,0:0:0:0:
210,132,128160,1,8,0:0:0:0:
184,158,128335,1,0,0:0:0:0:
198,159,128423,1,0,0:0:0:0:
159,185,128511,1,0,0:0:0:0:
159,185,128686,1,0,0:0:0:0:
159,185,128861,1,8,0:0:0:0:
159,185,129212,1,0,0:0:0:0:
264,178,129914,1,8,0:0:0:0:
227,174,130089,1,0,0:0:0:0:
214,156,130177,1,0,0:0:0:0:
227,174,130265,1,0,0:0:0:0:
227,174,130440,1,0,0:0:0:0:
227,174,130616,1,8,0:0:0:0:
264,178,130704,1,8,0:0:0:0:
227,174,130791,1,8,0:0:0:0:
227,174,130967,1,0,0:0:0:0:
227,174,131142,1,8,0:0:0:0:
206,171,131230,1,8,0:0:0:0:
227,174,131318,1,8,0:0:0:0:
227,174,131493,1,0,0:0:0:0:
227,174,131668,1,8,0:0:0:0:
204,167,132019,1,0,0:0:0:0:
124,312,132721,1,0,0:0:0:0:
143,277,132897,1,8,0:0:0:0:
163,272,132984,1,8,0:0:0:0:
163,242,133072,1,8,0:0:0:0:
181,210,133247,1,0,0:0:0:0:
201,178,133423,1,0,0:0:0:0:
220,184,133511,1,0,0:0:0:0:
239,190,133598,1,0,0:0:0:0:
201,178,133774,1,8,0:0:0:0:
201,178,133949,1,8,0:0:0:0:
209,159,134037,1,8,0:0:0:0:
201,157,134125,1,8,0:0:0:0:
201,178,134300,1,0,0:0:0:0:
201,178,134475,1,8,0:0:0:0:
201,178,134826,1,0,0:0:0:0:
64,76,135528,1,0,0:0:0:0:
105,128,136230,1,8,0:0:0:0:
260,171,136932,1,0,0:0:0:0:
95,131,137633,1,0,0:0:0:0:
