osu file format v14

[General]
AudioFilename: audio.mp3
AudioLeadIn: 0
PreviewTime: 115089
Countdown: 0
SampleSet: Normal
StackLeniency: 0.7
Mode: 1
LetterboxInBreaks: 0
WidescreenStoryboard: 1

[Editor]
DistanceSpacing: 0.6
BeatDivisor: 2
GridSize: 16
TimelineZoom: 1.5

[Metadata]
Title:PERVOE SVIDANIE
TitleUnicode:ПЕРВОЕ СВИДАНИЕ
Artist:alyona shvets.
ArtistUnicode:алёна швец.
Creator:clockbite
Version:KANTAN
Source:
Tags:russian русский pop поп indie-pop инди-поп
BeatmapID:3483908
BeatmapSetID:1704937

[Difficulty]
HPDrainRate:8
CircleSize:5
OverallDifficulty:3
ApproachRate:10
SliderMultiplier:1.4
SliderTickRate:1

[Events]
//Background and Video events
0,0,"2560x1440-girl-in-lavender-field-alone-clouds_1596921183.jpg",0,-100
//Break Periods
2,112570,114727
//Storyboard Layer 0 (Background)
//Storyboard Layer 1 (Fail)
//Storyboard Layer 2 (Pass)
//Storyboard Layer 3 (Foreground)
//Storyboard Layer 4 (Overlay)
//Storyboard Sound Samples

[TimingPoints]
90,350.877192982456,4,1,0,20,1,0
90,-100,4,1,0,20,0,0
22370,-100,4,1,0,45,0,0
22546,-100,4,1,0,45,0,0
22721,-100,4,1,0,45,0,0
44826,-100,4,1,0,30,0,0
45353,-100,4,1,0,30,0,0
50440,-100,4,1,0,35,0,0
67282,-100,4,1,0,45,0,0
67458,-100,4,1,0,45,0,0
67633,-100,4,1,0,45,0,0
89739,-100,4,1,0,30,0,0
90265,-100,4,1,0,30,0,0
95353,-100,4,1,0,35,0,0
112195,-100,4,1,0,20,0,0
115002,-100,4,1,0,45,0,0
115177,-100,4,1,0,45,0,1
115353,-100,4,1,0,45,0,1
136932,-100,4,1,0,45,0,0
137282,-100,4,1,0,25,0,0

[HitObjects]
187,149,12019,5,8,0:0:0:0:
187,149,13423,1,8,0:0:0:0:
187,149,14826,1,8,0:0:0:0:
187,149,16230,1,8,0:0:0:0:
187,149,17633,1,8,0:0:0:0:
187,149,19037,1,8,0:0:0:0:
187,149,20440,1,8,0:0:0:0:
217,190,21844,1,8,0:0:0:0:
334,193,22546,1,12,0:0:0:0:
254,195,23247,1,8,0:0:0:0:
182,195,23949,1,8,0:0:0:0:
144,168,24300,1,8,0:0:0:0:
109,142,24651,1,0,0:0:0:0:
144,168,25002,1,0,0:0:0:0:
144,168,25353,1,8,0:0:0:0:
264,178,26054,1,8,0:0:0:0:
227,174,26756,1,8,0:0:0:0:
227,174,27107,1,0,0:0:0:0:
227,174,27458,1,8,0:0:0:0:
227,174,27809,1,8,0:0:0:0:
227,174,28160,1,0,0:0:0:0:
227,46,28861,1,0,0:0:0:0:
227,79,29212,1,0,0:0:0:0:
227,152,29563,1,8,0:0:0:0:
208,155,30265,1,0,0:0:0:0:
227,152,30967,1,8,0:0:0:0:
227,152,31668,1,0,0:0:0:0:
227,152,32370,1,8,0:0:0:0:
227,152,33774,1,8,0:0:0:0:
151,192,34475,1,8,0:0:0:0:
78,232,35177,1,8,0:0:0:0:
210,132,35528,1,8,0:0:0:0:
159,185,35879,1,0,0:0:0:0:
159,185,36581,1,8,0:0:0:0:
227,174,37282,1,0,0:0:0:0:
227,174,37984,1,8,0:0:0:0:
227,174,38335,1,0,0:0:0:0:
227,174,38686,1,8,0:0:0:0:
227,174,39037,1,8,0:0:0:0:
204,167,39388,1,0,0:0:0:0:
124,312,40089,1,0,0:0:0:0:
163,242,40440,1,0,0:0:0:0:
201,178,40791,1,8,0:0:0:0:
201,157,41493,1,8,0:0:0:0:
64,76,42195,1,0,0:0:0:0:
201,178,42897,1,0,0:0:0:0:
105,128,43598,1,8,0:0:0:0:
154,260,44300,1,0,0:0:0:0:
257,171,45704,1,0,0:0:0:0:
214,160,46405,1,8,0:0:0:0:
214,160,46756,1,0,0:0:0:0:
214,160,47107,1,8,0:0:0:0:
214,160,47809,1,8,0:0:0:0:
214,160,48511,1,0,0:0:0:0:
214,160,49212,1,0,0:0:0:0:
214,160,49914,1,8,0:0:0:0:
214,160,50265,1,8,0:0:0:0:
214,160,50616,1,0,0:0:0:0:
214,160,51318,1,0,0:0:0:0:
214,160,52019,1,8,0:0:0:0:
214,160,52721,1,8,0:0:0:0:
214,160,53072,1,8,0:0:0:0:
214,160,53423,1,0,0:0:0:0:
214,160,54475,1,0,0:0:0:0:
214,160,54826,1,8,0:0:0:0:
214,160,55177,1,8,0:0:0:0:
214,160,55528,1,0,0:0:0:0:
82,57,56230,1,0,0:0:0:0:
135,14,56932,1,8,0:0:0:0:
238,112,57633,1,8,0:0:0:0:
238,112,57984,1,0,0:0:0:0:
238,112,58335,1,8,0:0:0:0:
217,140,59037,1,0,0:0:0:0:
217,140,59739,1,8,0:0:0:0:
217,140,60440,1,0,0:0:0:0:
217,140,61142,1,0,0:0:0:0:
217,140,61493,1,8,0:0:0:0:
217,140,61844,1,0,0:0:0:0:
234,297,62546,1,8,0:0:0:0:
231,185,63247,1,0,0:0:0:0:
231,185,63598,1,0,0:0:0:0:
231,185,63949,1,8,0:0:0:0:
231,185,64651,1,0,0:0:0:0:
231,185,65704,1,0,0:0:0:0:
231,185,66054,1,8,0:0:0:0:
231,185,66756,1,8,0:0:0:0:
334,193,67458,1,12,0:0:0:0:
254,195,68160,1,8,0:0:0:0:
182,195,68861,1,8,0:0:0:0:
144,168,69212,1,8,0:0:0:0:
109,142,69563,1,0,0:0:0:0:
144,168,69914,1,0,0:0:0:0:
144,168,70265,1,8,0:0:0:0:
264,178,70967,1,8,0:0:0:0:
227,174,71668,1,8,0:0:0:0:
227,174,72019,1,0,0:0:0:0:
227,174,72370,1,8,0:0:0:0:
227,174,72721,1,8,0:0:0:0:
227,174,73072,1,0,0:0:0:0:
227,46,73774,1,0,0:0:0:0:
227,79,74125,1,0,0:0:0:0:
227,152,74475,1,8,0:0:0:0:
208,155,75177,1,0,0:0:0:0:
227,152,75879,1,8,0:0:0:0:
227,152,76581,1,0,0:0:0:0:
227,152,77282,1,8,0:0:0:0:
227,152,78686,1,8,0:0:0:0:
151,192,79388,1,8,0:0:0:0:
78,232,80089,1,8,0:0:0:0:
210,132,80440,1,8,0:0:0:0:
159,185,80791,1,0,0:0:0:0:
200,122,81142,1,0,0:0:0:0:
159,185,81493,1,8,0:0:0:0:
227,174,82195,1,0,0:0:0:0:
227,174,82897,1,8,0:0:0:0:
227,174,83247,1,0,0:0:0:0:
227,174,83598,1,8,0:0:0:0:
227,174,83949,1,8,0:0:0:0:
204,167,84300,1,0,0:0:0:0:
124,312,85002,1,0,0:0:0:0:
163,242,85353,1,0,0:0:0:0:
201,178,85704,1,8,0:0:0:0:
206,102,86054,1,0,0:0:0:0:
201,157,86405,1,8,0:0:0:0:
64,76,87107,1,0,0:0:0:0:
201,178,87809,1,0,0:0:0:0:
105,128,88511,1,8,0:0:0:0:
228,202,89212,1,0,0:0:0:0:
201,210,90616,1,0,0:0:0:0:
201,210,91318,1,8,0:0:0:0:
201,210,91668,1,8,0:0:0:0:
201,210,92019,1,0,0:0:0:0:
201,210,92721,1,0,0:0:0:0:
201,210,93423,1,8,0:0:0:0:
201,210,94125,1,0,0:0:0:0:
201,210,94826,1,0,0:0:0:0:
201,210,95177,1,8,0:0:0:0:
128,205,95528,1,0,0:0:0:0:
297,181,96230,1,8,0:0:0:0:
204,208,96932,1,8,0:0:0:0:
204,208,97282,1,0,0:0:0:0:
204,208,97633,1,8,0:0:0:0:
204,208,98335,1,0,0:0:0:0:
204,208,99388,1,8,0:0:0:0:
204,208,99739,1,0,0:0:0:0:
204,208,100089,1,0,0:0:0:0:
204,208,100440,1,8,0:0:0:0:
204,208,101142,1,0,0:0:0:0:
204,208,101844,1,8,0:0:0:0:
204,208,102546,1,0,0:0:0:0:
204,208,102897,1,0,0:0:0:0:
204,208,103247,1,8,0:0:0:0:
146,156,103949,1,0,0:0:0:0:
273,266,104651,1,0,0:0:0:0:
208,209,105353,1,8,0:0:0:0:
208,209,106054,1,8,0:0:0:0:
208,209,106405,1,0,0:0:0:0:
208,209,106756,1,8,0:0:0:0:
208,209,107458,1,0,0:0:0:0:
208,209,108160,1,8,0:0:0:0:
208,209,108511,1,8,0:0:0:0:
208,209,108861,1,0,0:0:0:0:
208,209,109563,1,8,0:0:0:0:
248,142,110616,1,0,0:0:0:0:
214,165,110967,1,8,0:0:0:0:
214,165,111318,1,0,0:0:0:0:
214,165,111668,1,8,0:0:0:0:
214,165,112370,1,0,0:0:0:0:
334,193,115177,5,12,0:0:0:0:
254,195,115879,1,8,0:0:0:0:
182,195,116581,1,8,0:0:0:0:
144,168,116932,1,8,0:0:0:0:
109,142,117282,1,0,0:0:0:0:
144,168,117633,1,0,0:0:0:0:
144,168,117984,1,8,0:0:0:0:
264,178,118686,1,8,0:0:0:0:
227,174,119037,1,0,0:0:0:0:
227,174,119388,1,8,0:0:0:0:
227,174,119739,1,8,0:0:0:0:
227,174,120089,1,0,0:0:0:0:
227,174,120440,1,8,0:0:0:0:
227,174,120791,1,0,0:0:0:0:
227,46,121493,1,0,0:0:0:0:
227,79,121844,1,0,0:0:0:0:
227,152,122195,1,8,0:0:0:0:
227,152,122546,1,8,0:0:0:0:
208,155,122897,1,0,0:0:0:0:
227,152,123598,1,8,0:0:0:0:
227,152,124300,1,0,0:0:0:0:
227,152,125002,1,8,0:0:0:0:
227,152,126405,1,8,0:0:0:0:
151,192,127107,1,8,0:0:0:0:
78,232,127809,1,8,0:0:0:0:
210,132,128160,1,0,0:0:0:0:
159,185,128511,1,8,0:0:0:0:
159,185,128861,1,8,0:0:0:0:
159,185,129212,1,0,0:0:0:0:
227,174,129914,1,0,0:0:0:0:
264,178,130265,1,0,0:0:0:0:
227,174,130616,1,8,0:0:0:0:
227,174,130967,1,0,0:0:0:0:
227,174,131318,1,8,0:0:0:0:
227,174,131668,1,8,0:0:0:0:
204,167,132019,1,0,0:0:0:0:
124,312,132721,1,0,0:0:0:0:
163,242,133072,1,0,0:0:0:0:
201,178,133423,1,8,0:0:0:0:
201,178,133774,1,0,0:0:0:0:
201,157,134125,1,8,0:0:0:0:
64,76,134826,1,0,0:0:0:0:
201,178,135528,1,0,0:0:0:0:
105,128,136230,1,8,0:0:0:0:
260,171,136932,1,0,0:0:0:0:
95,131,137633,1,0,0:0:0:0:
