osu file format v14

[General]
AudioFilename: audio.mp3
AudioLeadIn: 0
PreviewTime: 110518
Countdown: 0
SampleSet: Soft
StackLeniency: 0.4
Mode: 0
LetterboxInBreaks: 0
WidescreenStoryboard: 1

[Editor]
Bookmarks: 1735,40558,62140,83721,110687,137644,159218,182297,209263,225442,236228,241609,247002,268575,278622
DistanceSpacing: 0.4
BeatDivisor: 8
GridSize: 32
TimelineZoom: 3.199999

[Metadata]
Title:Michi ~ to you all
TitleUnicode:道 ~ to you all
Artist:aluto
ArtistUnicode:alüto
Creator:Heroine
Version:Insane
Source:NARUTO-ナルト-疾風伝
Tags:The Way To You All OVA Shippū! Konoha Gakuen Den! 疾風!“木ノ葉学園”伝 Highschool High School アルト Anime Japanese Pop j-pop Naruto Uzumaki うずまき ナルト Sakura Haruno 春野 サクラ Kakashi Hatake はたけ カカシ Shippuden Shippuuden Shipuuden Second Ed Ed2 Ending 2 OST Super Hits 2006-2008 Full Ver Version Male Vocalist Some_Hero Some Hero
BeatmapID:3527338
BeatmapSetID:1408227

[Difficulty]
HPDrainRate:6
CircleSize:4
OverallDifficulty:8
ApproachRate:9
SliderMultiplier:3.2
SliderTickRate:1

[Events]
//Background and Video events
0,0,"temp bg I think maybe.jpg",0,0
//Break Periods
2,31080,33040
2,38131,39293
//Storyboard Layer 0 (Background)
//Storyboard Layer 1 (Fail)
//Storyboard Layer 2 (Pass)
//Storyboard Layer 3 (Foreground)
//Storyboard Layer 4 (Overlay)
//Storyboard Sound Samples

[TimingPoints]
1735,500,4,2,1,50,1,0
2735,-400,4,2,1,50,0,0
3485,530.973451327434,4,2,1,50,1,0
3485,-400,4,2,1,50,0,0
4812,535.714285714286,4,2,1,50,1,0
6954,521.739130434783,4,2,1,50,1,0
6954,-400,4,2,1,50,0,0
11910,540.540540540541,4,2,1,50,1,0
13261,500,4,2,1,50,1,0
13761,571.428571428571,4,2,1,50,1,0
14046,530.973451327434,4,2,1,50,1,0
15373,500,4,2,1,50,1,0
15873,545.454545454546,4,2,1,50,1,0
16145,521.739130434783,4,2,1,50,1,0
17449,530.973451327434,4,2,1,50,1,0
19572,-400,4,2,1,50,0,0
21165,508.474576271186,4,2,1,50,1,0
21165,-400,4,2,1,5,0,0
21546,-400,4,2,1,30,0,0
21673,-400,4,2,1,50,0,0
22626,-400,4,2,1,5,0,0
22690,550.45871559633,4,2,1,50,1,0
22690,-400,4,2,1,50,0,0
23722,-400,4,2,1,5,0,0
23790,512.820512820513,4,2,1,50,1,0
23790,-400,4,2,1,50,0,0
25841,550.45871559633,4,2,1,50,1,0
26116,535.714285714286,4,2,1,50,1,0
27991,535.714285714286,4,2,1,50,1,0
27991,-400,4,2,1,50,0,0
29330,517.241379310345,4,2,1,50,1,0
29330,-400,4,2,1,50,0,0
30041,-400,4,2,1,30,0,0
30105,-400,4,2,1,50,0,0
30881,-400,4,2,1,5,0,0
31140,714.285714285714,4,2,1,30,1,0
33878,-399.361022364217,4,2,1,50,0,0
33997,689.655172413793,4,2,1,50,1,0
33997,-400,4,2,1,25,0,0
36669,-400,4,2,1,5,0,0
36755,588.235294117647,4,2,1,50,1,0
37931,654.307524536532,4,2,1,50,1,0
39892,666.666666666667,4,2,1,60,1,0
40058,-100,4,2,0,60,0,0
40558,674.157303370787,4,2,1,60,1,0
48984,-100,4,2,2,60,0,0
49153,-100,4,2,1,60,0,0
62140,674.915635545557,4,2,1,50,1,0
62140,-142.857142857143,4,2,0,50,0,0
72938,672.645739910314,4,2,0,50,1,0
72938,-142.857142857143,4,2,0,50,0,0
81032,671.140939597315,4,2,1,50,1,0
81032,-100,4,2,1,60,0,0
83721,674.157303370787,4,2,1,60,1,0
105284,670.391061452514,4,2,1,60,1,0
106624,-100,4,2,1,65,0,0
107986,662.983425414365,4,2,1,70,1,0
107986,-100,4,2,1,70,0,0
110687,674.157303370787,4,2,1,80,1,0
110687,-100,4,2,1,80,0,0
130953,-100,4,2,2,20,0,0
131585,-100,4,2,2,80,0,0
131628,-100,4,2,1,40,0,0
132260,-100,4,2,1,80,0,0
134619,-100,4,2,2,80,0,0
134956,666.666666666667,4,2,1,80,1,0
134956,-100,4,2,1,80,0,0
137644,674.157303370787,4,2,1,60,1,0
137644,-100,4,2,2,60,0,0
145733,-100,4,2,2,60,0,0
146408,-100,4,2,1,60,0,0
147756,-100,4,2,1,65,0,0
148093,-100,4,2,1,70,0,0
148430,-100,4,2,1,80,0,0
148767,-100,4,2,2,80,0,0
149104,-76.9230769230769,4,2,1,60,0,0
149441,-100,4,2,2,60,0,0
150874,-100,4,2,1,60,0,0
151127,-100,4,2,2,60,0,0
157194,-100,4,2,1,60,0,0
157531,-100,4,2,2,60,0,0
159218,716.417910447761,4,2,3,50,1,0
159218,-555.555555555556,4,2,3,50,0,0
161725,-555.555555555556,4,2,3,5,0,0
161994,-555.555555555556,4,2,3,20,0,0
162083,-555.555555555556,4,2,3,50,0,0
164591,-555.555555555556,4,2,3,5,0,0
164815,-555.555555555556,4,2,3,20,0,0
164899,705.882352941176,4,2,1,50,1,0
164899,-555.555555555556,4,2,3,20,0,0
167634,-555.555555555556,4,2,3,30,0,0
167722,-555.555555555556,4,2,3,50,0,0
170281,-555.555555555556,4,2,3,30,0,0
170503,710.059171597633,4,2,1,50,1,0
170503,-555.555555555556,4,2,3,50,0,0
172633,-333.333333333333,4,2,3,50,0,0
173100,857.142857142857,4,2,3,50,1,0
173314,862.068965517241,4,2,3,50,1,0
176763,705.882352941176,4,2,3,50,1,0
179586,677.966101694915,4,2,1,60,1,0
182297,672.645739910314,4,2,1,60,1,0
185828,-100,4,2,0,60,0,0
185996,-100,4,2,1,60,0,0
193059,674.915635545557,4,2,1,60,1,0
206557,-100,4,2,1,70,0,0
207907,-200,4,2,1,70,0,0
207949,-200,4,2,2,40,0,0
208919,-200,4,2,0,60,0,0
209263,671.892497200448,4,2,1,80,1,0
209263,-100,4,2,1,80,0,0
214638,676.437429537768,4,2,1,80,1,0
217343,671.892497200448,4,2,1,80,1,0
220030,674.157303370787,4,2,1,80,1,0
225442,674.157303370787,4,2,1,60,1,0
225442,-100,4,2,1,60,0,0
232857,-133.333333333333,4,2,1,60,0,0
233868,-100,4,2,1,60,0,0
235048,-100,4,2,1,65,0,0
235217,-100,4,2,1,70,0,0
235385,-100,4,2,1,75,0,0
235554,-100,4,2,1,80,0,0
236228,672.645739910314,4,2,1,50,1,0
236228,-200,4,2,1,50,0,0
236565,-200,4,2,0,50,0,0
238918,-200,4,2,1,60,0,0
239591,-200,4,2,1,65,0,0
240263,-100,4,2,1,70,0,0
241609,676.056338028169,4,2,1,75,1,0
242285,-76.9230769230769,4,2,2,75,0,0
242960,-100,4,2,2,75,0,0
244313,672.268907563026,4,2,1,75,1,0
245657,-100,4,2,1,75,0,0
245993,-100,4,2,2,75,0,0
246161,-100,4,2,1,75,0,0
246329,-100,4,2,2,75,0,0
247002,674.157303370787,4,2,1,80,1,0
247002,-86.9565217391304,4,2,1,80,0,0
247676,-86.9565217391304,4,2,1,85,0,1
248350,-86.9565217391304,4,2,2,85,0,1
248518,-86.9565217391304,4,2,1,85,0,1
248687,-86.9565217391304,4,2,2,85,0,1
248855,-86.9565217391304,4,2,1,85,0,1
251721,-86.9565217391304,4,2,2,85,0,1
253912,-86.9565217391304,4,2,1,85,0,1
254080,-86.9565217391304,4,2,2,85,0,1
256271,-86.9565217391304,4,2,1,85,0,1
256440,-86.9565217391304,4,2,2,85,0,1
259305,-86.9565217391304,4,2,1,85,0,1
260485,-86.9565217391304,4,2,2,85,0,1
262002,-86.9565217391304,4,2,1,85,0,1
262170,-86.9565217391304,4,2,2,85,0,1
265878,-80,4,2,1,85,0,1
266552,-80,4,2,2,85,0,1
266721,-80,4,2,1,85,0,1
267226,-80,4,2,2,85,0,1
267395,-80,4,2,1,85,0,1
268575,-80,4,2,0,50,0,0
273799,-80,4,2,1,5,0,0
273968,810.810810810811,4,2,1,50,1,0
273968,-200,4,2,0,50,0,0
274768,759.493670886076,4,2,0,50,1,0
274768,-200,4,2,0,50,0,0
275921,937.5,4,2,0,50,1,0
275921,-200,4,2,0,50,0,0
276389,821.917808219178,4,2,0,50,1,0
277211,722.89156626506,4,2,0,50,1,0
277211,-200,4,2,0,50,0,0
277753,-200,4,2,0,5,0,0
277900,722.89156626506,4,2,0,50,1,0
277900,-200,4,2,0,50,0,0
279707,-200,4,2,0,5,0,0

[Colours]
Combo1 : 218,216,222
Combo2 : 250,182,39
Combo3 : 240,107,100
Combo4 : 138,193,98

[HitObjects]
75,91,2735,5,2,0:2:0:0:
157,134,2985,1,2,0:2:0:0:
95,232,3235,1,2,0:2:0:0:
98,229,3485,2,0,B|219:241|180:258|304:273,1,200,2|2,0:0|0:0,0:0:0:0:
432,184,5079,1,2,0:0:0:0:
425,191,5347,1,2,0:0:0:0:
358,148,5615,1,2,0:0:0:0:
96,8,6954,5,2,0:0:0:0:
0,56,7214,1,2,0:0:0:0:
114,148,7475,1,2,0:0:0:0:
117,151,7736,2,0,B|198:164|210:177|315:199,1,200,2|2,0:0|0:0,0:0:0:0:
271,368,9562,1,2,0:0:0:0:
264,356,9823,1,2,0:0:0:0:
430,98,11127,5,2,0:0:0:0:
367,158,11388,1,2,0:0:0:0:
440,239,11649,1,2,0:0:0:0:
434,233,11910,1,2,0:0:0:0:
100,63,13261,5,2,0:0:0:0:
142,210,13761,1,2,0:0:0:0:
138,218,14046,1,2,0:0:0:0:
422,300,15373,5,2,0:0:0:0:
368,214,15623,1,2,0:0:0:0:
457,151,15873,1,2,0:0:0:0:
449,159,16145,1,2,0:0:0:0:
20,182,17449,5,2,0:0:0:0:
83,246,17714,1,2,0:0:0:0:
254,191,17979,1,2,0:0:0:0:
250,199,18245,1,2,0:0:0:0:
266,58,19572,5,2,0:0:0:0:
262,54,19639,1,2,0:0:0:0:
258,50,19705,2,0,B|355:84|340:136|437:173,1,220,2|0,0:0|0:0,0:0:0:0:
207,356,21609,1,2,0:2:0:0:
203,351,21673,2,0,P|185:279|152:212,1,150,2|0,0:0|0:0,0:0:0:0:
159,128,22690,2,0,B|226:90|234:141|293:124,1,135,2|2,0:0|0:0,0:0:0:0:
378,69,23790,5,2,0:0:0:0:
447,153,24046,1,2,0:0:0:0:
512,242,24302,1,2,0:0:0:0:
507,238,24559,2,0,P|407:256|360:344,1,200,2|2,0:0|0:0,0:0:0:0:
277,372,26116,1,2,0:0:0:0:
267,375,26383,1,2,0:0:0:0:
170,374,26651,1,2,0:0:0:0:
89,79,27991,5,2,0:0:0:0:
110,165,28258,1,2,0:0:0:0:
224,89,28526,1,2,0:0:0:0:
266,17,28794,1,2,0:0:0:0:
275,16,29330,1,2,0:0:0:0:
511,132,30041,5,2,0:0:0:0:
507,128,30105,2,0,B|447:121|438:143|388:141,1,120,2|0,0:2|0:0,0:0:0:0:
376,104,33640,5,2,0:2:0:0:
383,99,33699,1,2,0:2:0:0:
386,91,33759,1,2,0:2:0:0:
393,87,33818,1,2,0:2:0:0:
398,81,33878,2,0,B|252:122|252:209|131:238,1,312.984009704338,2|0,0:2|0:0,0:0:0:0:
131,237,36755,1,2,0:0:0:0:
0,384,37931,5,2,0:0:0:0:
338,161,39893,5,2,0:3:0:0:
252,84,40058,1,0,3:2:0:0:
252,84,40225,1,0,3:2:0:0:
252,84,40392,1,0,3:2:0:0:
46,123,40558,6,0,B|147:184|110:243|187:311,1,240,6|0,3:2|0:2,0:0:0:0:
276,304,41232,2,0,P|279:343|286:383,1,80,0|0,1:2|0:2,0:0:0:0:
411,283,41569,1,0,0:2:0:0:
480,216,41737,1,2,3:2:0:0:
480,216,41822,1,2,0:2:0:0:
480,216,41906,2,0,P|483:176|490:136,2,80,2|0|2,0:2|0:2|3:3,0:0:0:0:
142,54,42580,2,0,P|218:45|265:106,1,160,0|2,1:2|0:3,0:0:0:0:
134,354,43254,6,0,P|109:278|61:214,1,160,2|0,3:2|0:2,0:0:0:0:
149,182,43760,1,0,0:2:0:0:
260,283,43928,2,0,P|286:254|306:219,1,80,0|0,1:2|0:2,0:0:0:0:
440,54,44265,1,0,0:3:0:0:
309,44,44434,2,0,P|335:73|355:108,1,80,0|0,3:2|0:2,0:0:0:0:
194,10,44771,1,0,0:2:0:0:
148,95,44940,2,0,B|30:64|113:66|0:37,2,160,2|2|2,0:3|1:2|0:3,0:0:0:0:
336,211,45782,5,2,0:2:0:0:
336,211,45866,1,2,0:2:0:0:
336,211,45951,2,0,B|205:235|189:356|75:384,1,320,2|0,3:2|1:2,0:0:0:0:
10,302,46793,1,0,0:2:0:0:
42,220,46962,1,0,0:2:0:0:
126,221,47131,1,0,3:2:0:0:
272,384,47299,5,2,0:2:0:0:
272,384,47383,1,2,0:2:0:0:
272,384,47468,2,0,P|311:381|350:370,1,80,2|2,0:2|0:3,0:0:0:0:
512,194,47973,2,0,B|446:150|511:100|453:54,1,160,0|2,1:2|3:3,0:0:0:0:
475,276,48647,5,2,3:2:0:0:
385,284,48816,1,0,1:2:0:0:
299,171,48984,1,2,0:3:0:0:
299,171,49153,1,0,3:2:0:0:
117,113,49322,2,0,P|91:188|84:267,1,160,4|0,1:2|3:2,0:0:0:0:
0,173,49827,1,0,3:2:0:0:
45,25,49996,2,0,P|84:23|124:18,1,80,4|0,1:2|0:2,0:0:0:0:
214,143,50333,5,0,1:2:0:0:
214,143,50501,1,0,0:2:0:0:
457,73,50670,1,2,1:2:0:0:
479,0,50838,1,8,0:3:0:0:
465,205,51007,5,4,0:3:0:0:
464,214,51091,1,8,0:2:0:0:
462,223,51175,1,8,0:2:0:0:
461,232,51260,1,8,0:2:0:0:
460,241,51344,1,6,3:2:0:0:
397,375,51681,2,0,P|398:336|388:297,1,80,2|0,0:2|3:2,0:0:0:0:
281,151,52018,6,0,B|161:168|192:242|81:273,1,240,2|0,1:2|3:2,0:0:0:0:
11,213,52692,1,2,0:2:0:0:
20,71,52861,1,0,1:2:0:0:
128,30,53029,2,0,P|137:68|151:106,1,80,2|0,0:3|0:2,0:0:0:0:
267,261,53366,2,0,P|257:299|243:337,1,80,2|0,1:2|0:2,0:0:0:0:
148,370,53704,1,2,0:3:0:0:
437,323,54041,6,0,P|456:250|398:200,1,160,2|2,3:2|0:2,0:0:0:0:
337,132,54546,1,0,3:2:0:0:
219,88,54715,2,0,P|214:49|221:10,1,80,0|0,1:2|0:2,0:0:0:0:
140,153,55052,1,2,0:2:0:0:
140,153,55220,1,0,3:2:0:0:
0,209,55389,5,0,0:2:0:0:
57,334,55558,1,0,1:2:0:0:
112,261,55726,2,0,P|139:290|171:314,1,80,2|0,3:3|3:2,0:0:0:0:
412,310,56063,2,0,P|336:312|302:379,1,160,0|2,1:2|0:3,0:0:0:0:
344,208,56569,5,0,3:2:0:0:
347,198,56653,1,0,3:2:0:0:
350,188,56737,2,0,P|341:110|277:67,1,160,0|0,3:2|0:2,0:0:0:0:
49,21,57243,1,0,3:2:0:0:
30,143,57411,6,0,B|114:152|117:269|209:291,1,240,2|0,1:2|3:2,0:0:0:0:
207,154,58086,1,0,0:2:0:0:
277,67,58254,1,0,1:2:0:0:
381,64,58423,2,0,P|382:103|385:143,1,80,2|0,3:3|0:2,0:0:0:0:
510,233,58760,2,0,P|511:274|505:312,1,80,2|0,1:3|0:2,0:0:0:0:
427,250,59097,1,2,3:3:0:0:
385,143,59434,6,0,P|308:143|272:210,1,160,6|0,3:2|0:2,0:0:0:0:
223,289,59940,5,0,1:2:0:0:
45,329,60108,1,0,1:2:0:0:
7,58,60445,6,0,P|56:120|118:170,1,160,6|0,3:2|0:2,0:0:0:0:
121,262,60951,5,8,0:3:0:0:
148,340,61119,1,4,0:3:0:0:
228,372,61288,1,4,0:3:0:0:
413,286,61456,5,4,0:3:0:0:
390,212,61625,1,4,0:3:0:0:
503,191,61793,1,4,0:3:0:0:
503,191,61962,1,4,0:3:0:0:
424,36,62140,6,0,P|379:103|298:108,1,167.999994873047,2|0,0:2|3:2,0:0:0:0:
246,175,62814,2,0,B|257:237|228:229|237:285,1,111.999996582031,2|0,0:2|3:2,0:0:0:0:
123,337,63321,1,0,3:2:0:0:
50,293,63489,2,0,P|58:266|65:239,1,55.9999982910157,2|0,0:2|3:2,0:0:0:0:
115,154,63827,2,0,P|106:127|99:100,1,55.9999982910157,2|0,3:2|0:2,0:0:0:0:
0,105,64164,1,2,3:2:0:0:
235,15,64501,5,2,3:2:0:0:
235,15,64670,1,0,3:2:0:0:
328,4,64839,2,0,P|354:53|368:107,1,111.999996582031,2|0,3:2|0:2,0:0:0:0:
500,152,65345,1,2,3:2:0:0:
460,73,65514,2,0,P|466:42|476:5,1,55.9999982910157,2|0,3:2|0:2,0:0:0:0:
432,254,65852,1,0,0:2:0:0:
432,254,66020,2,0,B|455:301|441:318|459:361,1,111.999996582031,0|0,3:2|3:2,0:0:0:0:
254,253,66526,5,0,3:2:0:0:
194,198,66695,1,0,3:2:0:0:
122,231,66864,1,0,3:2:0:0:
122,231,67032,1,0,3:2:0:0:
23,156,67201,1,0,3:2:0:0:
100,154,67370,1,0,3:2:0:0:
155,96,67539,6,0,P|204:117|252:92,1,111.999996582031,2|0,3:2|3:2,0:0:0:0:
385,22,68045,1,0,3:2:0:0:
406,108,68214,2,0,P|383:158|368:212,1,111.999996582031,2|0,3:2|3:2,0:0:0:0:
296,168,68720,1,0,3:2:0:0:
279,309,68889,6,0,P|269:283|263:256,1,55.9999982910157,2|0,0:2|3:2,0:0:0:0:
140,308,69226,2,0,P|135:335|133:363,1,55.9999982910157,2|0,3:2|0:2,0:0:0:0:
37,249,69564,1,2,3:2:0:0:
13,176,69733,1,0,0:2:0:0:
73,123,69901,1,2,3:2:0:0:
73,123,70070,1,0,3:2:0:0:
239,91,70238,6,0,B|319:53|329:90|402:60,1,167.999994873047,2|2,3:2|3:2,0:0:0:0:
474,117,70913,2,0,L|454:227,1,111.999996582031,2|0,3:2|3:2,0:0:0:0:
308,291,71420,1,0,3:2:0:0:
282,223,71588,1,0,3:2:0:0:
217,340,71757,1,0,3:2:0:0:
217,340,71926,1,0,3:2:0:0:
217,340,72095,1,0,3:2:0:0:
107,292,72263,6,0,P|125:271|145:252,1,55.9999982910157,2|0,3:2|3:2,0:0:0:0:
44,171,72601,2,0,P|24:153|6:131,1,55.9999982910157,2|0,3:2|3:2,0:0:0:0:
151,31,72938,6,0,P|156:86|178:137,1,111.999996582031,2|0,3:2|3:2,0:0:0:0:
341,119,73442,1,0,3:2:0:0:
312,24,73610,2,0,P|291:42|273:64,1,55.9999982910157,0|0,3:2|0:2,0:0:0:0:
444,34,73946,1,2,3:2:0:0:
444,34,74115,1,2,3:2:0:0:
477,207,74283,5,0,0:2:0:0:
430,151,74451,1,0,3:2:0:0:
323,265,74619,2,0,P|349:258|375:247,1,55.9999982910157,0|0,3:2|3:2,0:0:0:0:
206,192,74955,2,0,L|214:254,1,55.9999982910157,2|0,3:2|0:2,0:0:0:0:
158,308,75292,1,2,3:2:0:0:
158,308,75460,1,0,0:2:0:0:
27,327,75628,6,0,P|14:274|35:223,1,111.999996582031,2|0,3:2|3:2,0:0:0:0:
132,159,76133,1,0,3:2:0:0:
43,76,76301,2,0,P|49:103|53:131,1,55.9999982910157,0|0,3:2|0:2,0:0:0:0:
239,116,76637,1,2,0:2:0:0:
239,116,76805,6,0,P|293:108|337:74,1,111.999996582031,2|0,3:2|3:2,0:0:0:0:
439,24,77310,2,0,P|429:50|424:77,1,55.9999982910157,0|0,3:2|0:2,0:0:0:0:
371,208,77646,1,0,3:2:0:0:
371,208,77813,1,0,3:2:0:0:
450,303,77982,1,2,3:2:0:0:
492,241,78151,1,0,3:2:0:0:
342,351,78319,6,0,P|328:327|316:302,1,55.9999982910157,2|0,3:2|0:2,0:0:0:0:
237,258,78655,2,0,P|222:282|210:307,1,55.9999982910157,2|0,3:2|3:2,0:0:0:0:
201,174,78991,2,0,P|226:161|250:147,1,55.9999982910157,2|0,3:2|0:2,0:0:0:0:
195,40,79328,1,2,3:2:0:0:
195,40,79496,1,0,3:2:0:0:
91,97,79664,5,0,3:2:0:0:
50,35,79832,1,0,3:2:0:0:
28,174,80000,2,0,P|53:186|77:200,1,55.9999982910157,2|0,3:2|0:2,0:0:0:0:
145,305,80337,2,0,P|122:320|97:331,1,55.9999982910157,2|0,3:2|0:2,0:0:0:0:
223,379,80673,1,2,3:2:0:0:
223,379,80841,1,0,0:2:0:0:
347,316,81032,6,0,P|363:238|388:162,1,160,6|0,3:1|0:2,0:0:0:0:
290,50,81535,1,2,3:1:0:0:
417,0,81703,2,0,P|406:38|381:68,1,80,2|0,1:2|0:2,0:0:0:0:
277,229,82038,1,2,3:1:0:0:
208,178,82206,2,0,P|196:139|181:102,1,80,2|0,3:1|0:2,0:0:0:0:
90,235,82542,5,0,1:2:0:0:
157,308,82709,2,0,P|145:346|130:383,1,80,2|0,3:3|0:2,0:0:0:0:
302,321,83045,1,0,1:2:0:0:
377,238,83213,1,0,1:2:0:0:
332,156,83380,1,8,0:3:0:0:
442,72,83548,5,8,0:2:0:0:
446,81,83632,1,8,0:2:0:0:
450,90,83721,2,0,P|462:148|465:208,1,120,6|0,3:2|0:2,0:0:0:0:
498,295,84058,1,0,0:2:0:0:
498,295,84226,1,0,3:2:0:0:
251,311,84395,6,0,B|315:322|329:365|394:378,1,160,0|2,1:2|3:2,0:0:0:0:
279,215,84900,2,0,P|252:187|217:168,1,80,2|0,3:2|0:2,0:0:0:0:
343,150,85237,1,8,0:2:0:0:
128,228,85406,2,0,P|131:268|137:307,1,80,2|0,3:3|0:2,0:0:0:0:
50,264,85743,1,8,0:2:0:0:
0,56,86080,1,2,3:2:0:0:
0,56,86249,1,0,0:2:0:0:
77,124,86417,6,0,P|143:83|219:97,1,160,2|2,3:2|0:2,0:0:0:0:
211,179,86923,1,0,3:2:0:0:
384,0,87091,2,0,P|358:29|370:101,1,106.666666666667,2|2,1:2|0:2,0:0:0:0:
457,96,87428,2,0,P|430:172|419:251,1,160,2|0,3:2|0:2,0:0:0:0:
472,318,87934,1,8,0:2:0:0:
281,362,88103,2,0,P|306:332|337:306,1,80,2|0,3:3|0:2,0:0:0:0:
194,309,88440,2,0,B|133:260|95:308|41:274,1,160,0|2,1:2|0:2,0:0:0:0:
135,41,89114,6,0,P|126:79|127:119,1,80,0|0,3:2|0:2,0:0:0:0:
47,9,89451,1,2,0:2:0:0:
47,9,89619,1,0,3:2:0:0:
268,28,89788,2,0,L|361:157,1,160,2|2,1:2|3:2,0:0:0:0:
413,64,90294,1,0,3:2:0:0:
467,216,90462,2,0,P|487:181|511:150,2,80,0|8|2,0:2|0:2|3:3,0:0:0:0:
412,276,90968,1,0,0:2:0:0:
282,247,91136,2,0,P|225:298|150:280,1,160,2|10,1:2|0:2,0:0:0:0:
185,137,91642,5,8,0:2:0:0:
191,129,91726,1,8,0:2:0:0:
197,121,91810,2,0,B|298:122|260:154|350:156,1,160,2|2,3:3|0:2,0:0:0:0:
341,50,92316,1,0,3:2:0:0:
220,13,92485,2,0,P|181:10|142:0,1,80,2|2,1:2|0:2,0:0:0:0:
17,102,92822,2,0,P|47:127|73:158,1,80,2|0,3:2|3:2,0:0:0:0:
107,77,93159,1,2,0:2:0:0:
182,247,93327,1,0,1:2:0:0:
102,263,93496,5,2,3:3:0:0:
351,103,93833,5,0,1:2:0:0:
380,228,94001,1,0,1:2:0:0:
479,151,94170,1,8,0:3:0:0:
512,273,94338,1,4,0:3:0:0:
506,280,94423,1,4,0:3:0:0:
501,288,94507,2,0,B|419:297|434:337|355:349,1,160,6|0,3:2|0:2,0:0:0:0:
275,307,95013,1,0,3:2:0:0:
127,288,95181,2,0,P|95:311|66:338,1,80,0|0,1:2|0:2,0:0:0:0:
79,208,95518,5,2,0:2:0:0:
87,96,95687,2,0,P|80:57|56:26,1,80,2|0,3:2|0:2,0:0:0:0:
301,69,96024,1,8,0:2:0:0:
334,149,96192,2,0,P|312:182|284:210,1,80,2|0,3:3|0:2,0:0:0:0:
464,113,96529,2,0,P|442:80|447:41,1,80,0|0,1:2|0:2,0:0:0:0:
429,262,96867,1,2,3:2:0:0:
480,357,97035,5,10,0:2:0:0:
487,364,97119,1,8,0:2:0:0:
492,371,97204,2,0,B|385:325|380:385|256:343,1,240,0|2,3:2|3:2,0:0:0:0:
116,202,97878,1,0,1:2:0:0:
140,298,98046,2,0,P|105:315|73:340,1,80,2|2,0:2|0:2,0:0:0:0:
17,103,98383,5,0,3:2:0:0:
0,19,98721,1,0,1:2:0:0:
78,44,98889,2,0,P|117:45|157:42,1,80,2|0,3:3|0:2,0:0:0:0:
405,120,99226,2,0,P|333:141|325:216,1,160,0|2,1:2|0:3,0:0:0:0:
65,365,99900,6,0,P|50:286|28:209,2,160,2|0|0,3:2|3:2|1:2,0:0:0:0:
299,178,100912,1,2,0:2:0:0:
224,150,101249,2,0,P|195:177|159:193,1,80,0|0,3:2|0:2,0:0:0:0:
349,286,101586,2,0,P|357:247|377:212,1,80,2|0,3:2|0:2,0:0:0:0:
436,321,101923,1,0,1:2:0:0:
311,128,102260,1,2,0:2:0:0:
311,128,102428,1,0,0:2:0:0:
179,26,102597,6,0,P|148:50|124:81,1,80,2|0,3:2|0:2,0:0:0:0:
31,190,102934,2,0,P|30:150|18:112,1,80,2|0,3:2|0:2,0:0:0:0:
203,303,103271,1,0,1:2:0:0:
140,251,103608,2,0,P|81:262|35:300,1,120,2|0,0:2|0:2,0:0:0:0:
124,382,103945,6,0,P|163:386|203:384,1,80,0|0,3:2|0:2,0:0:0:0:
311,247,104282,2,0,P|342:223|377:203,1,80,2|0,3:2|0:2,0:0:0:0:
228,128,104619,1,0,1:2:0:0:
228,128,104788,1,0,0:2:0:0:
390,28,104956,2,0,B|422:55|413:100|441:134,1,120,2|0,0:3|0:2,0:0:0:0:
479,224,105284,6,0,P|406:249|373:320,2,160,4|2|0,3:2|3:2|1:2,0:0:0:0:
173,289,106289,1,2,0:2:0:0:
154,216,106457,1,0,0:2:0:0:
54,349,106624,2,0,L|68:229,1,120,0|0,3:2|0:2,0:0:0:0:
117,128,106959,2,0,P|59:120|9:151,1,120,2|0,3:2|0:2,0:0:0:0:
19,51,107295,1,2,1:3:0:0:
307,191,107630,1,2,3:3:0:0:
251,243,107797,1,8,0:3:0:0:
445,154,107986,6,0,P|436:233|428:313,1,160,6|8,3:2|0:3,0:0:0:0:
242,33,108648,5,8,0:3:0:0:
314,69,108814,1,8,0:3:0:0:
314,69,108980,1,4,0:3:0:0:
194,151,109146,1,4,0:3:0:0:
186,249,109311,1,4,0:3:0:0:
186,249,109477,1,4,0:3:0:0:
251,296,109643,1,4,0:3:0:0:
512,0,109974,5,2,1:1:0:0:
66,167,110687,6,0,B|115:209|108:242|153:300,1,160,6|2,3:2|3:2,0:0:0:0:
295,186,111192,1,0,3:2:0:0:
412,174,111361,2,0,L|393:251,1,80,2|0,1:2|0:2,0:0:0:0:
222,116,111698,2,0,P|218:77|203:40,1,80,2|0,0:2|3:2,0:0:0:0:
511,139,112035,5,2,0:2:0:0:
478,40,112204,1,8,0:1:0:0:
376,76,112372,1,2,0:3:0:0:
326,15,112541,1,0,0:2:0:0:
216,137,112709,6,0,P|176:141|138:155,1,80,2|0,1:2|0:2,0:0:0:0:
49,152,113046,2,0,P|64:115|71:76,1,80,2|0,0:3|0:2,0:0:0:0:
116,0,113383,2,0,P|139:32|170:57,1,80,2|0,3:2|0:2,0:0:0:0:
374,214,113721,6,0,L|296:195,1,80,2|0,3:2|3:2,0:0:0:0:
456,264,114058,2,0,L|478:340,1,80,2|0,1:2|0:2,0:0:0:0:
458,168,114395,2,0,L|512:110,1,80,2|0,0:2|3:2,0:0:0:0:
229,85,114732,5,2,0:2:0:0:
219,0,114900,1,8,0:1:0:0:
365,41,115069,2,0,L|333:114,1,80,2|0,0:3|0:2,0:0:0:0:
78,110,115406,2,0,P|54:80|53:41,1,80,2|0,1:2|3:2,0:0:0:0:
2,180,115743,1,2,1:3:0:0:
84,240,115912,1,0,0:2:0:0:
273,184,116080,6,0,P|291:261|305:340,1,160,6|2,3:2|3:2,0:0:0:0:
201,238,116586,1,0,3:2:0:0:
440,163,116754,2,0,P|430:201|414:237,1,80,2|0,1:2|0:2,0:0:0:0:
373,94,117091,1,2,0:2:0:0:
373,94,117260,1,0,3:2:0:0:
205,114,117428,2,0,P|194:75|178:39,1,80,2|8,0:2|0:1,0:0:0:0:
3,64,117766,5,2,0:3:0:0:
17,150,118103,2,0,P|80:196|111:269,2,160,2|2|4,1:2|3:3|3:2,0:0:0:0:
323,165,119114,5,8,0:3:0:0:
383,244,119282,1,4,0:3:0:0:
468,198,119451,2,0,P|439:172|410:142,1,80,0|8,1:2|0:2,0:0:0:0:
227,212,119788,1,8,3:2:0:0:
227,212,119957,1,8,3:2:0:0:
244,311,120125,1,12,1:2:0:0:
244,311,120294,1,0,3:2:0:0:
135,274,120462,5,2,1:2:0:0:
124,374,120631,1,2,3:2:0:0:
133,161,120799,5,2,3:3:0:0:
1,158,120968,1,10,0:3:0:0:
169,51,121136,5,6,0:3:0:0:
100,11,121305,1,6,0:3:0:0:
373,35,121473,6,0,B|332:76|339:122|302:177,1,160,6|2,3:2|3:2,0:0:0:0:
468,53,121979,1,0,3:2:0:0:
475,250,122148,2,0,P|461:212|442:177,1,80,2|0,1:2|0:2,0:0:0:0:
309,291,122485,2,0,P|299:329|294:369,1,80,2|0,0:2|3:2,0:0:0:0:
187,183,122822,5,2,0:2:0:0:
111,135,122990,1,8,0:1:0:0:
243,15,123159,2,0,L|254:94,1,80,2|0,0:3|0:2,0:0:0:0:
19,149,123496,2,0,L|30:69,1,80,2|0,1:2|0:2,0:0:0:0:
97,351,123833,2,0,P|58:359|23:379,1,80,2|0,0:3|0:2,0:0:0:0:
76,240,124170,6,0,P|151:264|231:271,1,160,2|2,3:2|3:2,0:0:0:0:
254,94,124676,1,0,3:2:0:0:
409,226,124844,2,0,P|390:190|364:159,1,80,2|0,1:2|0:2,0:0:0:0:
511,86,125181,2,0,P|492:121|466:152,1,80,2|0,0:2|3:2,0:0:0:0:
425,357,125518,5,2,0:2:0:0:
347,384,125687,1,8,0:1:0:0:
231,271,125855,5,2,0:3:0:0:
264,193,126024,1,0,0:2:0:0:
29,98,126192,6,0,P|56:127|76:161,1,80,2|0,1:2|3:2,0:0:0:0:
163,0,126530,1,2,1:3:0:0:
241,10,126867,6,0,B|207:69|227:97|194:162,1,160,6|0,3:2|3:2,0:0:0:0:
314,264,127372,1,0,3:2:0:0:
444,199,127541,2,0,P|427:162|402:131,1,80,2|0,1:2|0:2,0:0:0:0:
512,154,127878,1,0,0:2:0:0:
395,297,128046,6,0,P|432:310|472:316,2,80,2|0|0,0:2|3:2|0:2,0:0:0:0:
264,161,128552,1,2,0:3:0:0:
206,230,128889,2,0,P|200:269|193:308,1,80,2|0,1:2|0:2,0:0:0:0:
27,177,129226,2,0,P|21:137|14:98,1,80,2|0,3:3|0:2,0:0:0:0:
78,15,129563,6,0,P|155:19|207:77,2,160,0|2|0,3:2|3:3|1:2,0:0:0:0:
358,162,130575,1,2,0:3:0:0:
322,85,130743,1,0,0:2:0:0:
512,210,130912,2,2,B|379:200|358:325|224:332,2,320,2|2|6,3:2|1:2|3:2,0:1:0:0:
257,16,132934,6,0,P|226:42|199:71,1,80,2|0,1:2|0:2,0:0:0:0:
32,89,133271,2,0,P|44:168|60:246,1,160,2|0,0:2|3:2,0:0:0:0:
170,202,133777,1,0,0:2:0:0:
262,368,133945,2,0,P|234:341|208:310,1,80,2|0,3:2|0:2,0:0:0:0:
341,275,134282,1,2,1:2:0:0:
432,307,134619,2,0,P|403:334|377:365,1,80,2|0,3:3|0:2,0:0:0:0:
430,45,134956,6,0,B|462:109|448:142|474:198,1,160,4|0,3:2|0:2,0:0:0:0:
348,24,135456,1,8,0:1:0:0:
283,80,135622,1,0,1:2:0:0:
278,160,135789,1,0,0:2:0:0:
101,30,135956,5,4,1:3:0:0:
117,134,136122,1,8,0:3:0:0:
188,101,136289,1,0,0:2:0:0:
37,296,136456,5,0,1:2:0:0:
138,280,136622,1,8,0:3:0:0:
237,264,136789,1,4,0:3:0:0:
430,273,136956,5,8,1:3:0:0:
383,338,137122,1,4,0:3:0:0:
330,245,137289,1,8,0:3:0:0:
409,194,137456,1,4,3:3:0:0:
199,335,137644,6,0,P|228:362|261:384,1,80,4|0,3:2|0:2,0:0:0:0:
138,280,137981,2,0,P|144:240|156:202,1,80,2|0,3:3|0:2,0:0:0:0:
101,0,138318,5,2,1:3:0:0:
132,82,138655,2,2,B|245:53|246:140|364:110,2,240,2|0|2,3:3|1:2|1:3,0:1:0:0:
442,1,140003,2,0,P|452:39|468:76,1,80,2|0,0:3|0:2,0:0:0:0:
442,178,140340,2,0,P|431:216|415:253,1,80,2|0,3:3|0:2,0:0:0:0:
298,304,140677,1,2,3:3:0:0:
226,252,141014,2,0,P|255:227|262:189,1,80,2|0,1:3|0:2,0:0:0:0:
7,145,141351,6,2,B|108:192|68:280|147:330,2,240,2|0|2,0:3|1:2|1:3,0:1:0:0:
103,8,142531,1,0,0:2:0:0:
158,101,142700,1,2,0:3:0:0:
230,64,142868,1,0,0:2:0:0:
376,46,143037,6,2,P|394:123|415:201,2,160,2|2|2,3:3|3:3|1:3,0:1:0:0:
257,288,144049,1,2,0:3:0:0:
257,288,144217,1,0,3:2:0:0:
337,262,144385,2,2,P|373:278|407:298,1,80,2|0,0:3|1:2,0:1:0:0:
238,152,144722,2,0,P|193:217|129:265,1,160,2|2,3:3|1:3,0:0:0:0:
67,207,145228,1,0,0:2:0:0:
73,357,145396,1,2,0:3:0:0:
0,343,145565,1,0,0:2:0:0:
20,136,145733,6,2,P|39:102|75:89,1,80,2|0,3:3|0:2,0:1:0:0:
238,152,146070,1,2,0:3:0:0:
231,77,146239,1,0,3:2:0:0:
482,204,146408,6,0,P|480:284|477:364,1,160,4|4,1:2|1:2,0:0:0:0:
217,251,146913,1,0,0:2:0:0:
364,301,147082,1,4,0:2:0:0:
277,334,147250,1,8,0:3:0:0:
277,334,147419,1,8,0:3:0:0:
310,227,147587,1,4,0:3:0:0:
90,246,147756,5,2,3:1:0:0:
163,186,147924,5,2,1:1:0:0:
121,122,148093,5,2,1:1:0:0:
180,44,148261,5,2,0:1:0:0:
0,0,148430,6,0,B|37:71|2:85|33:154,1,160,4|2,3:2|3:3,0:1:0:0:
33,154,148936,1,0,3:2:0:0:
221,267,149104,6,0,P|123:283|86:375,1,207.999990478516,4|0,1:1|3:2,0:1:0:0:
290,206,149610,1,0,3:2:0:0:
163,186,149778,5,2,0:3:0:0:
294,121,149947,2,0,P|313:86|327:49,1,80,0|2,1:2|3:3,0:0:0:0:
409,68,150284,1,0,0:2:0:0:
221,267,150452,2,0,P|240:302|254:339,1,80,2|0,1:3|0:2,0:1:0:0:
129,253,150790,1,2,0:3:0:0:
82,90,150958,1,8,0:2:0:0:
88,83,151042,1,8,0:2:0:0:
94,76,151127,2,2,B|153:46|175:65|247:34,1,160,2|2,3:3|0:3,0:1:0:0:
104,181,151632,1,0,3:2:0:0:
15,32,151801,2,0,P|8:71|3:111,1,80,2|0,1:3|0:2,0:0:0:0:
256,152,152138,5,2,3:3:0:0:
226,220,152307,1,0,3:2:0:0:
139,321,152475,1,2,0:3:0:0:
299,374,152644,1,0,1:2:0:0:
385,348,152812,2,0,P|381:269|409:195,2,160,2|2|10,3:3|1:3|0:3,0:0:0:0:
344,100,153655,5,4,0:3:0:0:
335,95,153739,1,4,0:3:0:0:
327,90,153823,2,0,B|262:78|241:131|172:115,1,160,2|2,3:3|0:3,0:0:0:0:
130,186,154329,1,0,3:2:0:0:
67,354,154497,6,2,P|47:236|0:127,1,240,2|0,1:3|1:2,0:1:0:0:
126,28,155171,1,2,0:3:0:0:
198,8,155340,1,0,0:2:0:0:
304,182,155509,2,0,P|295:220|281:258,1,80,2|0,3:3|3:2,0:0:0:0:
420,62,155846,1,2,1:3:0:0:
510,76,156183,2,0,P|500:37|486:0,1,80,2|0,3:3|3:2,0:0:0:0:
489,182,156520,6,0,P|434:240|402:312,1,160,2|0,3:3|0:2,0:0:0:0:
312,353,157026,1,0,1:2:0:0:
165,327,157193,1,0,1:2:0:0:
160,319,157278,1,8,0:2:0:0:
155,310,157363,1,8,0:2:0:0:
91,255,157531,6,0,B|87:165|117:183|113:97,1,160,4|0,3:2|1:2,0:0:0:0:
350,25,158037,1,0,0:2:0:0:
395,102,158205,1,8,0:3:0:0:
303,191,158374,1,8,0:3:0:0:
172,52,158542,1,4,0:3:0:0:
113,97,158711,1,4,0:3:0:0:
182,218,158879,1,4,0:3:0:0:
242,271,159048,1,4,0:3:0:0:
15,365,159218,6,0,B|87:326|130:390|212:359,1,201.600004921875,2|0,0:2|0:2,0:0:0:0:
499,368,161994,1,2,0:3:0:0:
496,365,162083,2,0,B|425:326|382:390|299:359,1,201.600004921875,2|0,0:2|0:2,0:0:0:0:
227,88,164815,1,2,0:3:0:0:
224,85,164899,2,0,P|236:184|247:285,1,201.600004921875,2|2,0:2|0:2,0:0:0:0:
41,203,167634,1,2,0:3:0:0:
38,200,167722,2,0,P|50:100|61:0,1,201.600004921875,2|2,0:2|0:2,0:0:0:0:
229,80,170428,5,2,0:2:0:0:
224,85,170503,1,2,0:2:0:0:
258,171,170858,1,2,0:2:0:0:
342,142,171213,1,2,3:2:0:0:
422,116,171568,1,2,0:2:0:0:
271,268,171923,5,2,0:2:0:0:
335,331,172278,1,2,0:2:0:0:
227,365,172633,2,0,P|209:350|193:332,1,47.9999985351563,2|0,3:3|0:2,0:0:0:0:
38,273,173100,1,2,0:2:0:0:
46,282,173171,1,2,0:2:0:0:
41,292,173242,1,2,0:2:0:0:
47,303,173314,1,2,0:3:0:0:
56,356,176762,5,2,0:2:0:0:
101,287,177115,1,2,0:2:0:0:
212,221,177468,1,2,3:2:0:0:
231,120,177821,1,2,0:2:0:0:
359,39,178174,5,2,0:2:0:0:
483,91,178527,1,2,0:2:0:0:
496,213,178880,1,2,3:2:0:0:
440,269,179233,1,2,0:3:0:0:
190,362,179586,6,0,P|173:283|149:207,1,160,6|0,3:1|0:2,0:0:0:0:
218,132,180094,1,2,3:1:0:0:
106,16,180263,2,0,P|74:38|46:67,1,80,0|0,1:2|0:2,0:0:0:0:
294,247,180602,1,2,3:1:0:0:
371,215,180772,2,0,P|371:175|363:135,1,80,0|2,3:2|0:3,0:0:0:0:
40,178,181280,5,0,1:2:0:0:
65,253,181450,1,8,0:2:0:0:
69,262,181535,1,8,0:2:0:0:
73,272,181619,1,8,3:2:0:0:
9,364,181789,1,8,3:2:0:0:
241,341,181958,5,4,0:3:0:0:
235,329,182043,1,4,0:3:0:0:
228,318,182128,1,4,0:3:0:0:
222,306,182213,1,4,0:3:0:0:
216,295,182297,1,6,3:2:0:0:
261,227,182633,6,0,P|265:188|272:148,1,80,0|0,0:2|3:2,0:0:0:0:
111,26,182969,2,0,P|115:65|122:105,1,80,0|0,1:2|0:2,0:0:0:0:
374,59,183305,5,2,0:2:0:0:
303,0,183474,2,0,P|264:5|224:2,1,80,2|0,3:2|0:2,0:0:0:0:
512,28,183810,1,8,0:2:0:0:
501,125,183978,1,2,3:3:0:0:
442,184,184314,6,0,P|427:221|410:257,1,80,0|0,1:2|0:2,0:0:0:0:
300,331,184651,1,2,0:2:0:0:
231,305,184819,1,0,0:2:0:0:
117,275,184987,2,0,P|128:313|138:352,1,80,2|0,3:2|0:2,0:0:0:0:
223,176,185323,1,0,0:2:0:0:
75,170,185492,2,0,P|86:132|101:95,1,80,0|0,3:2|1:2,0:0:0:0:
68,6,185828,1,0,3:2:0:0:
333,0,185996,6,0,B|268:18|270:77|214:102,1,160,2|0,0:2|0:2,0:0:0:0:
159,20,186501,1,8,0:2:0:0:
0,224,186669,2,0,P|11:262|15:301,1,80,2|0,3:3|0:2,0:0:0:0:
207,253,187005,2,0,P|218:214|222:175,1,80,0|0,1:2|0:2,0:0:0:0:
279,323,187341,1,2,0:2:0:0:
477,204,187678,6,0,P|424:262|381:330,1,160,0|2,3:2|0:2,0:0:0:0:
393,165,188182,1,0,3:2:0:0:
279,97,188350,2,0,P|269:59|265:19,1,80,2|0,1:2|0:2,0:0:0:0:
185,68,188687,2,0,P|178:107|165:145,1,80,2|0,0:2|3:2,0:0:0:0:
11,58,189023,1,0,0:2:0:0:
80,13,189191,1,8,0:2:0:0:
81,252,189359,2,0,B|136:269|154:319|210:344,2,160,2|2|10,3:3|1:2|0:2,0:0:0:0:
234,188,190199,5,8,0:2:0:0:
236,179,190284,1,8,0:2:0:0:
238,170,190368,2,0,P|316:168|382:212,1,160,0|2,3:2|0:2,0:0:0:0:
459,174,190873,1,0,3:2:0:0:
427,0,191041,2,0,P|394:22|367:51,1,80,2|0,1:2|0:2,0:0:0:0:
359,54,191293,1,8,0:2:0:0:
351,58,191377,1,2,0:2:0:0:
232,0,191545,1,8,0:1:0:0:
57,192,191714,6,0,P|87:123|36:68,1,160,6|8,3:2|0:1,0:0:0:0:
213,100,192217,1,0,0:2:0:0:
276,61,192385,1,0,1:2:0:0:
310,290,192554,1,8,0:1:0:0:
273,215,192723,1,8,0:3:0:0:
329,157,192891,1,4,0:3:0:0:
368,232,193059,6,0,B|332:309|357:322|327:384,1,160,6|0,3:2|0:2,0:0:0:0:
147,243,193565,1,0,3:2:0:0:
11,258,193733,2,0,P|40:285|74:305,1,80,0|0,1:2|0:2,0:0:0:0:
273,215,194071,1,2,0:2:0:0:
348,149,194240,2,0,P|352:110|362:71,1,80,2|0,3:2|0:2,0:0:0:0:
486,298,194577,1,8,0:2:0:0:
416,350,194746,2,0,P|340:371|261:360,2,160,2|0|2,3:3|1:2|0:3,0:0:0:0:
478,137,195589,1,0,0:2:0:0:
381,177,195758,6,0,P|390:215|408:251,1,80,2|0,3:2|0:2,0:0:0:0:
284,93,196096,2,0,L|303:15,1,80,2|2,0:2|3:2,0:0:0:0:
124,27,196433,1,0,1:2:0:0:
124,27,196602,1,2,0:2:0:0:
49,103,196771,6,0,B|111:118|110:176|167:205,1,160,2|0,0:2|0:2,0:0:0:0:
184,102,197277,1,8,0:2:0:0:
270,349,197445,2,0,P|235:331|198:317,1,80,2|0,3:3|0:2,0:0:0:0:
353,198,197783,2,0,L|282:236,1,80,0|0,1:2|0:2,0:0:0:0:
218,15,198120,1,2,0:3:0:0:
308,39,198458,6,0,B|390:73|353:111|422:146,1,160,2|0,3:2|3:2,0:0:0:0:
512,279,198964,1,2,0:2:0:0:
425,284,199133,2,0,P|352:314|274:332,1,160,0|2,1:2|0:2,0:0:0:0:
304,146,199639,1,8,0:2:0:0:
217,172,199808,2,0,P|204:210|203:249,1,80,0|0,3:2|0:2,0:0:0:0:
110,290,200145,6,0,P|66:224|6:171,1,160,2|0,3:2|1:2,0:0:0:0:
115,154,200651,1,0,0:2:0:0:
174,16,200820,2,0,P|185:54|189:94,1,80,2|0,0:2|0:2,0:0:0:0:
269,329,201157,6,0,P|286:274|313:242,1,80,2|0,3:2|0:2,0:0:0:0:
304,146,201495,2,0,P|340:76|342:-2,1,160,2|0,3:2|1:2,0:0:0:0:
255,0,202001,1,0,0:2:0:0:
423,156,202170,1,2,0:2:0:0:
492,102,202339,1,0,3:2:0:0:
475,326,202507,6,0,P|484:287|490:248,1,80,0|8,0:2|0:2,0:0:0:0:
353,333,202845,2,0,P|382:359|413:384,1,80,2|0,3:2|0:2,0:0:0:0:
304,147,203182,2,0,P|265:159|228:173,1,80,0|0,1:2|0:2,0:0:0:0:
67,78,203520,1,2,0:3:0:0:
67,78,203688,1,0,0:2:0:0:
58,269,203857,6,0,P|89:218|111:162,1,120,4|0,3:2|0:2,0:0:0:0:
173,239,204195,2,0,P|202:313|248:378,1,160,2|0,3:2|1:2,0:0:0:0:
390,99,204870,1,2,0:2:0:0:
216,38,205039,1,8,0:2:0:0:
219,45,205123,1,8,0:2:0:0:
222,52,205207,2,0,P|257:34|290:7,1,80,0|0,3:2|0:2,0:0:0:0:
27,199,205544,6,0,P|19:258|19:288,1,80,2|0,3:2|0:2,0:0:0:0:
148,168,205882,2,0,P|102:131|70:113,1,80,2|0,1:2|0:2,0:0:0:0:
133,296,206220,1,2,3:3:0:0:
182,362,206388,1,0,0:2:0:0:
357,374,206557,5,4,1:2:0:0:
409,189,206894,1,8,0:3:0:0:
357,374,207232,1,0,1:3:0:0:
409,189,207400,1,8,0:3:0:0:
477,291,207569,1,4,0:3:0:0:
482,369,207738,1,4,0:3:0:0:
259,237,207907,6,2,B|321:190|344:225|409:189,1,160,2|0,1:1|0:2,0:1:0:0:
0,44,208919,5,0,3:2:0:0:
53,105,209263,6,0,P|22:178|9:257,1,160,6|2,3:2|3:2,0:0:0:0:
248,343,209766,1,0,3:2:0:0:
216,254,209934,2,0,P|177:249|138:242,1,80,2|0,1:2|0:2,0:0:0:0:
428,167,210270,2,0,P|421:206|417:246,1,80,2|0,0:2|3:2,0:0:0:0:
260,135,210606,5,2,0:2:0:0:
456,81,210774,1,8,0:1:0:0:
328,85,210942,2,0,P|355:56|382:26,1,80,2|0,3:3|0:2,0:0:0:0:
126,94,211278,2,0,P|147:127|166:162,1,80,2|0,1:2|0:2,0:0:0:0:
0,94,211614,1,2,0:3:0:0:
51,39,211782,1,0,0:2:0:0:
49,314,211950,6,0,P|70:280|89:245,1,80,2|0,3:2|0:2,0:0:0:0:
291,357,212286,1,2,3:2:0:0:
126,381,212454,1,0,3:2:0:0:
284,176,212622,2,0,P|268:212|262:251,1,80,2|0,1:2|0:2,0:0:0:0:
218,81,212958,1,2,0:2:0:0:
218,81,213126,1,0,3:2:0:0:
409,21,213294,5,2,0:2:0:0:
472,85,213462,1,8,0:1:0:0:
360,266,213630,2,0,P|359:183|365:107,2,160,2|2|2,3:3|1:2|0:3,0:0:0:0:
301,322,214470,1,0,0:2:0:0:
57,279,214638,6,0,B|131:295|132:330|197:354,1,160,6|2,3:2|3:2,0:0:0:0:
8,200,215145,1,0,3:2:0:0:
257,153,215314,2,0,P|278:119|294:82,1,80,2|0,1:2|0:2,0:0:0:0:
171,100,215652,2,0,P|162:60|148:23,1,80,2|0,0:2|3:2,0:0:0:0:
70,107,215990,2,0,P|36:85|0:69,1,80,2|8,0:2|0:1,0:0:0:0:
277,247,216329,2,0,P|237:255|200:269,1,80,2|0,3:3|0:2,0:0:0:0:
389,243,216667,2,0,P|367:276|351:313,1,80,2|0,1:3|0:2,0:0:0:0:
480,204,217005,2,0,P|488:243|502:280,1,80,2|0,0:3|0:2,0:0:0:0:
261,11,217343,6,0,B|290:55|271:103|300:164,1,160,6|0,3:2|0:2,0:0:0:0:
387,77,217846,1,0,3:2:0:0:
131,34,218014,2,0,P|111:68|85:98,1,80,0|0,1:2|0:2,0:0:0:0:
0,133,218350,1,8,0:1:0:0:
29,307,218518,6,0,P|36:248|54:191,1,120,6|0,3:2|0:2,0:0:0:0:
134,204,218854,1,0,1:2:0:0:
255,286,219022,5,8,0:3:0:0:
275,367,219190,1,4,0:3:0:0:
422,218,219358,5,0,1:2:0:0:
388,336,219526,1,0,3:2:0:0:
492,117,219694,5,8,0:3:0:0:
512,195,219862,1,0,1:2:0:0:
226,73,220030,6,0,B|272:116|255:170|294:215,1,160,6|2,3:2|3:2,0:0:0:0:
294,27,220535,1,0,3:2:0:0:
55,143,220704,2,0,P|34:110|22:72,1,80,2|0,1:2|0:2,0:0:0:0:
121,239,221041,2,0,P|129:200|147:164,1,80,2|0,0:2|3:2,0:0:0:0:
334,239,221378,5,2,0:2:0:0:
300,117,221546,1,8,0:1:0:0:
167,323,221715,2,0,P|200:301|238:289,1,80,2|0,3:3|0:2,0:0:0:0:
372,151,222052,6,0,P|338:129|300:117,1,80,2|0,1:2|0:2,0:0:0:0:
477,124,222389,2,0,P|475:163|483:203,1,80,2|0,0:3|0:2,0:0:0:0:
401,45,222726,2,0,P|436:26|466:0,1,80,2|0,3:2|0:2,0:0:0:0:
63,61,223063,6,0,P|60:100|48:138,1,80,2|0,3:2|3:2,0:0:0:0:
219,192,223400,2,0,P|185:169|158:140,1,80,2|0,1:2|0:2,0:0:0:0:
29,261,223737,2,0,P|64:243|103:234,1,80,2|0,0:2|3:2,0:0:0:0:
22,349,224074,5,2,0:2:0:0:
160,378,224243,1,8,0:1:0:0:
242,346,224412,2,0,P|259:310|281:276,1,80,2|0,3:3|0:2,0:0:0:0:
479,115,224749,1,2,1:2:0:0:
359,30,224917,1,0,1:2:0:0:
465,254,225086,5,8,0:3:0:0:
402,299,225254,1,4,0:3:0:0:
397,303,225338,1,4,0:3:0:0:
392,307,225423,1,6,3:2:0:0:
66,38,225779,5,2,0:2:0:0:
66,38,225947,1,2,0:2:0:0:
170,128,226116,5,2,1:2:0:0:
215,188,226284,1,2,0:2:0:0:
306,94,226453,1,2,0:2:0:0:
306,94,226621,1,2,0:2:0:0:
343,222,226790,5,2,3:2:0:0:
289,272,226958,1,2,0:2:0:0:
329,343,227127,1,2,3:2:0:0:
329,343,227295,1,2,0:2:0:0:
173,295,227465,5,2,1:2:0:0:
119,240,227633,1,2,0:2:0:0:
93,170,227802,1,2,0:2:0:0:
99,94,227970,1,2,0:2:0:0:
226,82,228139,5,2,3:2:0:0:
276,135,228307,1,2,0:2:0:0:
347,23,228476,1,2,3:2:0:0:
360,97,228644,1,2,0:2:0:0:
473,169,228813,5,2,1:2:0:0:
473,169,228982,1,2,0:2:0:0:
433,238,229150,1,2,3:2:0:0:
327,272,229319,1,2,0:2:0:0:
197,307,229487,5,2,3:2:0:0:
138,249,229656,1,2,0:2:0:0:
178,178,229824,1,2,3:2:0:0:
178,178,229993,1,2,0:2:0:0:
129,367,230161,5,2,1:2:0:0:
57,324,230330,1,2,0:2:0:0:
32,251,230498,1,2,0:2:0:0:
32,251,230667,1,2,0:2:0:0:
93,175,230835,5,2,3:2:0:0:
239,124,231004,1,2,0:2:0:0:
165,90,231173,1,2,3:2:0:0:
165,90,231341,1,2,0:2:0:0:
0,102,231510,5,2,1:2:0:0:
61,62,231678,1,2,0:2:0:0:
99,172,231847,1,2,0:2:0:0:
174,168,232015,1,2,0:2:0:0:
45,282,232184,5,2,3:2:0:0:
45,282,232352,1,2,0:2:0:0:
100,338,232521,1,2,3:2:0:0:
125,262,232689,1,2,0:2:0:0:
314,275,232857,6,0,P|300:233|290:189,1,90.0000034332277,2|0,1:3|0:2,0:0:0:0:
347,132,233194,2,0,P|356:88|371:45,1,90.0000034332277,2|0,3:3|0:2,0:0:0:0:
301,2,233531,5,2,0:3:0:0:
371,46,233700,1,2,0:2:0:0:
54,156,233868,6,0,P|14:90|35:16,1,160,4|0,1:2|0:2,0:0:0:0:
136,233,234374,2,0,P|161:203|175:166,1,80,8|8,0:1|0:3,0:0:0:0:
301,2,234711,5,2,3:2:0:0:
294,9,234795,1,2,0:2:0:0:
289,18,234880,1,2,1:2:0:0:
262,97,235048,5,8,0:3:0:0:
282,181,235216,1,8,0:3:0:0:
359,232,235385,1,4,0:3:0:0:
54,156,235554,5,2,1:2:0:0:
130,219,235722,1,8,0:3:0:0:
207,280,235891,1,4,0:3:0:0:
207,280,236059,1,4,0:3:0:0:
10,382,236228,6,0,P|13:342|20:303,3,80,6|2|2|2,3:2|0:2|3:2|0:2,0:0:0:0:
10,382,237573,2,0,P|13:342|20:303,3,80,2|2|2|2,3:2|0:2|3:2|0:2,0:0:0:0:
106,300,238918,5,8,0:1:0:0:
225,202,239254,1,8,0:1:0:0:
334,101,239591,1,8,0:1:0:0:
445,3,239927,1,8,0:1:0:0:
101,28,240263,6,0,P|57:67|35:123,1,120,12|0,3:1|0:2,0:0:0:0:
103,182,240600,1,8,0:3:0:0:
178,148,240768,1,8,0:3:0:0:
277,352,240936,1,0,1:2:0:0:
299,271,241104,1,8,0:3:0:0:
383,353,241272,1,4,0:3:0:0:
383,353,241441,1,4,0:3:0:0:
158,368,241609,6,0,P|106:339|51:317,1,120,6|0,3:2|0:2,0:0:0:0:
25,240,241947,5,0,3:2:0:0:
50,317,242116,1,0,3:2:0:0:
258,131,242285,6,0,P|259:54|207:-1,1,155.999992858887,2|0,1:3|0:2,0:0:0:0:
126,0,242623,5,0,3:2:0:0:
74,120,242792,1,0,1:2:0:0:
142,204,242961,2,0,P|181:209|220:217,1,80,2|0,3:3|0:2,0:0:0:0:
392,105,243299,5,0,3:2:0:0:
356,36,243468,1,0,3:2:0:0:
316,260,243637,2,0,P|350:241|388:230,1,80,2|0,1:3|0:2,0:0:0:0:
160,93,243975,2,0,P|157:53|164:13,1,80,2|0,0:3|0:2,0:0:0:0:
443,37,244313,5,2,0:3:0:0:
497,103,244481,1,0,1:2:0:0:
480,188,244649,1,2,3:3:0:0:
480,188,244817,1,0,3:2:0:0:
330,347,244985,6,0,P|280:285|221:232,1,160,2|2,1:3|3:3,0:0:0:0:
359,261,245488,1,0,1:2:0:0:
310,178,245656,1,4,3:2:0:0:
142,221,245825,5,8,0:3:0:0:
82,112,245993,1,2,1:3:0:0:
191,38,246161,1,8,0:2:0:0:
200,32,246245,1,8,0:2:0:0:
209,26,246329,1,2,1:3:0:0:
418,38,246497,5,8,0:3:0:0:
427,34,246581,1,8,0:3:0:0:
436,31,246665,1,4,0:3:0:0:
445,27,246749,1,4,0:3:0:0:
454,24,246834,1,4,0:3:0:0:
225,196,247002,6,0,B|293:224|293:224|310:250|310:250|382:283,1,184.000003509522,6|2,3:2|3:2,0:0:0:0:
367,181,247507,1,0,3:2:0:0:
158,384,247676,6,0,B|116:369|116:369|68:187|68:187|29:167,1,276.000005264282,6|0,1:2|3:2,0:1:0:0:
10,282,248350,1,2,0:3:0:0:
43,68,248518,1,8,0:1:0:0:
162,143,248687,2,0,L|136:54,1,92.0000017547608,2|0,3:3|0:2,0:0:0:0:
357,0,249024,2,0,P|358:45|334:84,1,92.0000017547608,6|0,1:2|0:2,0:0:0:0:
269,0,249361,1,2,0:2:0:0:
375,263,249530,5,8,0:2:0:0:
365,259,249614,1,8,0:2:0:0:
355,256,249698,2,0,P|375:193|439:176,1,138.000002632141,2|0,3:2|0:2,0:0:0:0:
512,136,250035,1,2,3:2:0:0:
445,29,250204,1,0,3:2:0:0:
206,136,250372,5,6,1:2:0:0:
209,140,250709,2,0,B|271:112|295:37|295:37|269:0,1,184.000003509522,6|0,1:2|0:2,0:0:0:0:
139,75,251215,1,8,0:1:0:0:
39,219,251384,1,2,3:2:0:0:
113,271,251552,1,0,3:2:0:0:
308,123,251721,5,2,1:3:0:0:
243,182,251889,1,0,0:2:0:0:
238,274,252057,1,2,3:3:0:0:
238,274,252226,1,0,3:2:0:0:
479,231,252395,6,0,P|449:144|429:54,1,184.000003509522,4|0,3:2|3:2,0:0:0:0:
351,46,252900,1,0,3:2:0:0:
368,188,253069,6,2,B|336:257|336:257|346:290|346:290|319:358,1,184.000003509522,6|2,1:2|0:3,0:1:0:0:
157,295,253575,2,0,P|144:250|121:211,1,92.0000017547608,0|2,3:2|0:3,0:0:0:0:
217,39,253912,1,8,0:1:0:0:
85,3,254080,2,0,L|102:93,1,92.0000017547608,2|0,3:3|0:2,0:0:0:0:
261,125,254417,6,2,B|338:112|338:112|359:85|359:85|429:76,1,184.000003509522,2|2,1:3|0:3,0:1:0:0:
512,154,254923,1,0,0:2:0:0:
272,340,255091,6,0,P|197:292|108:307,1,184.000003509522,4|0,3:2|0:2,0:0:0:0:
138,110,255597,1,0,3:2:0:0:
214,49,255766,2,0,P|253:71|282:107,1,92.0000017547608,4|0,1:2|0:2,0:0:0:0:
466,175,256103,1,0,0:2:0:0:
454,63,256271,1,8,0:1:0:0:
476,284,256440,6,0,P|451:322|433:364,1,92.0000017547608,2|0,0:3|0:2,0:0:0:0:
344,261,256777,2,0,P|313:229|292:188,1,92.0000017547608,2|0,3:3|0:2,0:0:0:0:
124,371,257114,5,10,1:3:0:0:
76,372,257226,1,12,0:3:0:0:
45,339,257339,1,8,0:3:0:0:
50,330,257451,2,0,L|31:271,2,61.3333345031739,4|4|4,0:3|0:3|0:3,0:0:0:0:
56,126,257788,6,0,B|124:103|124:103|143:69|143:69|214:47,1,184.000003509522,4|0,3:2|3:2,0:0:0:0:
512,122,258294,1,0,0:2:0:0:
448,60,258462,6,0,B|403:65|403:65|319:233|319:233|276:245,1,276.000005264282,4|0,1:2|3:2,0:0:0:0:
220,137,259136,1,0,0:2:0:0:
248,61,259305,1,8,0:1:0:0:
133,254,259473,2,0,P|166:285|193:322,1,92.0000017547608,0|0,3:2|0:2,0:0:0:0:
170,71,259810,6,0,B|98:79|98:79|73:108|73:108|-1:114,2,184.000003509522,4|2|2,1:1|0:2|3:3,0:0:0:0:
434,200,260822,5,2,3:3:0:0:
434,200,260990,1,0,3:2:0:0:
321,277,261159,5,4,1:2:0:0:
324,281,261496,2,2,P|280:150|207:33,1,276.000005264282,0|8,3:2|0:1,0:1:0:0:
56,54,262170,1,2,3:3:0:0:
0,123,262339,1,0,3:2:0:0:
176,253,262507,2,0,P|172:208|157:164,1,92.0000017547608,2|0,1:3|0:2,0:0:0:0:
24,295,262844,2,0,P|27:340|42:384,1,92.0000017547608,4|0,1:2|0:2,0:0:0:0:
201,377,263181,6,0,B|272:354|272:354|303:371|303:371|374:352,1,184.000003509522,4|2,3:2|3:1,0:0:0:0:
394,129,263687,1,0,3:2:0:0:
510,240,263855,2,0,B|439:217|439:217|408:234|408:234|336:215,1,184.000003509522,4|2,1:1|0:2,0:0:0:0:
335,54,264361,1,0,1:2:0:0:
210,13,264530,2,0,P|173:42|133:63,2,92.0000017547608,2|0|2,3:3|0:2|3:3,0:0:0:0:
300,345,265204,6,0,P|239:276|162:225,1,184.000003509522,6|2,1:2|3:2,0:1:0:0:
242,135,265709,1,0,0:2:0:0:
450,10,265878,6,0,P|473:82|503:150,1,150,4|0,1:2|0:2,0:0:0:0:
385,75,266215,1,8,0:3:0:0:
304,46,266384,1,4,0:3:0:0:
180,91,266552,2,0,P|149:160|133:233,1,150,2|0,1:3|0:2,0:0:0:0:
187,309,266889,1,8,0:3:0:0:
187,309,267058,1,8,0:3:0:0:
0,208,267226,5,2,1:3:0:0:
51,137,267395,1,4,0:3:0:0:
24,316,267563,1,8,0:3:0:0:
97,314,267732,1,4,0:3:0:0:
275,376,267900,5,2,3:1:0:0:
372,314,268069,5,2,3:1:0:0:
313,215,268237,5,2,3:1:0:0:
415,108,268406,5,2,3:1:0:0:
381,37,268575,5,2,3:2:0:0:
256,192,269249,12,0,273800,0:2:0:0:
80,325,273968,5,2,3:2:0:0:
85,337,274373,1,0,0:2:0:0:
212,219,274768,6,0,B|287:188|298:232|368:215,1,160,2|2,3:2|0:2,0:0:0:0:
381,129,275717,1,0,3:2:0:0:
294,9,275921,6,0,P|279:45|270:84,1,80,2|2,3:2|3:2,0:0:0:0:
177,126,276594,1,2,0:2:0:0:
167,133,276799,1,2,3:2:0:0:
158,139,277005,1,2,3:2:0:0:
35,217,277211,6,0,P|58:272|77:329,1,120,2|0,3:2|0:2,0:0:0:0:
165,373,277900,2,0,P|214:355|263:305,1,120,2|0,3:2|0:2,0:0:0:0:
317,195,278502,5,2,0:2:0:0:
313,187,278562,1,2,0:2:0:0:
310,179,278622,2,0,B|416:197|416:273|516:292,1,240,2|0,3:2|0:2,0:0:0:0:
