osu file format v14

[General]
AudioFilename: audio.mp3
AudioLeadIn: 0
PreviewTime: 174311
Countdown: 0
SampleSet: Soft
StackLeniency: 0.2
Mode: 0
LetterboxInBreaks: 0
WidescreenStoryboard: 0

[Editor]
Bookmarks: 12760,26704,80788,87549,114591,168675,175436,202478,229520,256563,283605,310647,337689
DistanceSpacing: 2.3
BeatDivisor: 8
GridSize: 4
TimelineZoom: 3.100005

[Metadata]
Title:Adeline
TitleUnicode:Adeline
Artist:alt-J
ArtistUnicode:alt-J
Creator:Mismagius
Version:i wish you well
Source:
Tags:relaxer alternative indie instrumental english Blue Dragon LSD: Dream Emulator
BeatmapID:1915148
BeatmapSetID:917012

[Difficulty]
HPDrainRate:5
CircleSize:5.5
OverallDifficulty:7.8
ApproachRate:7.8
SliderMultiplier:1.2
SliderTickRate:1

[Events]
//Background and Video events
0,0,"wallhaven-104279.png",0,0
//Break Periods
//Storyboard Layer 0 (Background)
//Storyboard Layer 1 (Fail)
//Storyboard Layer 2 (Pass)
//Storyboard Layer 3 (Foreground)
//Storyboard Layer 4 (Overlay)
//Storyboard Sound Samples

[TimingPoints]
12691,422.535211267606,4,2,0,20,1,0
12691,-166.666666666667,4,2,0,20,0,0
26635,422.535211267606,4,2,0,20,1,0
26846,-243.90243902439,4,2,0,20,0,0
87480,-133.333333333333,4,2,0,20,0,0
114099,-66.6666666666667,4,2,0,20,0,0
114522,-100,4,3,0,20,0,0
168606,-250,4,2,0,20,0,0
174258,-250,4,2,0,5,0,0
174311,-250,4,2,0,20,0,0
175367,-100,4,2,0,20,0,0
202409,-76.9230769230769,4,2,0,20,0,0
229451,-1000,4,2,0,15,0,0
231564,-1000,4,2,0,5,0,0
231987,-1000,4,2,0,15,0,0
235156,-1000,4,2,0,5,0,0
236001,-1000,4,2,0,15,0,0
238536,-1000,4,2,0,5,0,0
238747,-1000,4,2,0,15,0,0
241705,-1000,4,2,0,5,0,0
242973,-1000,4,2,0,15,0,0
245508,-1000,4,2,0,5,0,0
245930,-1000,4,2,0,15,0,0
248888,-1000,4,2,0,5,0,0
249522,-1000,4,2,0,15,0,0
251212,-1000,4,2,0,5,0,0
251423,-1000,4,2,0,15,0,0
255965,-1000,4,2,0,5,0,0
256071,-1000,4,2,0,20,0,0
256494,-200,4,2,0,20,0,1
283536,-66.6666666666667,4,2,0,20,0,0
310578,-66.6666666666667,4,2,0,25,0,1
337620,-1000,4,2,0,20,0,0
344381,-1000,4,2,0,5,0,0

[Colours]
Combo1 : 174,174,189
Combo2 : 200,221,223

[HitObjects]
123,58,12691,6,0,L|116:105,1,35.9999989013672,2|0,0:0|0:0,0:0:0:0:
150,144,13113,1,0,0:0:0:0:
90,156,13324,1,0,0:0:0:0:
133,57,13536,6,0,L|126:104,1,35.9999989013672,2|0,0:0|0:0,0:0:0:0:
160,143,13958,1,0,0:0:0:0:
100,155,14169,1,0,0:0:0:0:
143,56,14381,6,0,L|136:103,1,35.9999989013672,2|0,0:0|0:0,0:0:0:0:
170,142,14803,1,0,0:0:0:0:
110,154,15014,1,0,0:0:0:0:
153,55,15226,6,0,L|146:102,1,35.9999989013672,2|0,0:0|0:0,0:0:0:0:
180,141,15648,1,0,0:0:0:0:
120,153,15859,1,0,0:0:0:0:
163,54,16071,6,0,L|156:101,1,35.9999989013672,2|0,0:0|0:0,0:0:0:0:
190,140,16493,1,0,0:0:0:0:
130,152,16704,1,0,0:0:0:0:
173,53,16916,6,0,L|166:100,1,35.9999989013672,2|0,0:0|0:0,0:0:0:0:
200,139,17338,1,0,0:0:0:0:
140,151,17549,1,0,0:0:0:0:
183,52,17761,6,0,L|176:99,1,35.9999989013672,2|0,0:0|0:0,0:0:0:0:
210,138,18183,1,0,0:0:0:0:
150,150,18394,1,0,0:0:0:0:
193,51,18606,6,0,L|186:98,1,35.9999989013672,2|0,0:0|0:0,0:0:0:0:
220,137,19028,1,0,0:0:0:0:
160,149,19239,1,0,0:0:0:0:
203,50,19451,6,0,L|196:97,1,35.9999989013672,2|0,0:0|0:0,0:0:0:0:
230,136,19873,1,0,0:0:0:0:
170,148,20084,1,0,0:0:0:0:
213,49,20296,6,0,L|206:96,1,35.9999989013672,2|0,0:0|0:0,0:0:0:0:
240,135,20718,1,0,0:0:0:0:
180,147,20929,1,0,0:0:0:0:
223,48,21142,6,0,L|216:95,1,35.9999989013672,2|0,0:0|0:0,0:0:0:0:
250,134,21563,1,0,0:0:0:0:
190,146,21774,1,0,0:0:0:0:
233,47,21987,6,0,L|226:94,1,35.9999989013672,2|0,0:0|0:0,0:0:0:0:
260,133,22408,1,0,0:0:0:0:
200,145,22619,1,0,0:0:0:0:
243,46,22832,6,0,L|236:93,1,35.9999989013672,2|0,0:0|0:0,0:0:0:0:
270,132,23253,1,0,0:0:0:0:
210,144,23464,1,0,0:0:0:0:
253,45,23677,6,0,L|246:92,1,35.9999989013672,2|0,0:0|0:0,0:0:0:0:
280,131,24098,1,0,0:0:0:0:
220,143,24309,1,0,0:0:0:0:
263,44,24522,6,0,L|256:91,1,35.9999989013672,2|0,0:0|0:0,0:0:0:0:
290,130,24943,1,0,0:0:0:0:
230,142,25154,1,0,0:0:0:0:
273,43,25367,6,0,L|266:90,1,35.9999989013672,2|0,0:0|0:0,0:0:0:0:
300,129,25788,1,0,0:0:0:0:
240,141,25999,1,0,0:0:0:0:
283,42,26212,6,0,L|276:89,1,35.9999989013672,2|0,0:0|0:0,0:0:0:0:
310,128,26634,1,0,0:0:0:0:
355,16,26846,6,0,B|400:-10|460:-2|498:47|496:112|459:174|395:192|325:162|281:105|222:78|157:87|157:87|227:54|288:73|329:133|374:113,1,738.000011260987,2|0,0:0|0:0,0:0:0:0:
312,200,33395,2,0,P|309:227|313:249,1,49.2000007507324,0|2,0:0|0:0,0:0:0:0:
356,298,34029,1,0,0:0:0:0:
349,326,34240,1,0,0:0:0:0:
342,354,34451,1,0,0:0:0:0:
413,252,34663,5,2,0:0:0:0:
431,273,34874,1,0,0:0:0:0:
450,295,35085,1,0,0:0:0:0:
469,317,35296,1,0,0:0:0:0:
408,178,35508,5,2,0:0:0:0:
435,176,35719,1,0,0:0:0:0:
464,173,35930,1,0,0:0:0:0:
493,170,36141,1,0,0:0:0:0:
344,145,36353,5,2,0:0:0:0:
358,122,36564,1,0,0:0:0:0:
373,96,36775,1,0,0:0:0:0:
387,72,36986,1,0,0:0:0:0:
268,204,37198,5,2,0:0:0:0:
257,179,37409,1,0,0:0:0:0:
244,152,37620,1,0,0:0:0:0:
233,127,37831,1,0,0:0:0:0:
258,301,38043,5,2,0:0:0:0:
231,296,38254,1,0,0:0:0:0:
202,291,38465,1,0,0:0:0:0:
175,286,38676,1,0,0:0:0:0:
356,301,38888,5,2,0:0:0:0:
336,321,39099,1,0,0:0:0:0:
316,341,39310,1,0,0:0:0:0:
296,361,39521,1,0,0:0:0:0:
335,182,39733,5,2,0:0:0:0:
451,144,39944,1,0,0:0:0:0:
351,40,40156,6,0,B|265:2|167:11|179:136|52:164|-4:82|-4:82|63:115|139:110|160:47|160:47|124:92|19:83|-5:8,1,787.200012011719,2|0,0:0|0:0,0:0:0:0:
0,41,47127,1,0,0:0:0:0:
25,204,47339,5,2,0:0:0:0:
19,175,47550,1,0,0:0:0:0:
25,204,47761,1,0,0:0:0:0:
31,233,47973,1,0,0:0:0:0:
140,261,48184,5,2,0:0:0:0:
146,232,48395,1,0,0:0:0:0:
140,261,48606,1,0,0:0:0:0:
134,290,48818,1,0,0:0:0:0:
242,322,49029,5,2,0:0:0:0:
236,293,49240,1,0,0:0:0:0:
242,322,49451,1,0,0:0:0:0:
248,351,49663,1,0,0:0:0:0:
335,279,49874,5,2,0:0:0:0:
341,250,50085,1,0,0:0:0:0:
335,279,50296,1,0,0:0:0:0:
329,308,50508,1,0,0:0:0:0:
233,216,50719,5,2,0:0:0:0:
227,187,50930,1,0,0:0:0:0:
233,216,51141,1,0,0:0:0:0:
239,245,51353,1,0,0:0:0:0:
369,169,51564,5,2,0:0:0:0:
375,140,51775,1,0,0:0:0:0:
369,169,51986,1,0,0:0:0:0:
363,198,52198,1,0,0:0:0:0:
224,96,52409,5,2,0:0:0:0:
218,67,52620,1,0,0:0:0:0:
224,96,52831,1,0,0:0:0:0:
230,125,53043,1,0,0:0:0:0:
395,4,53254,5,2,0:0:0:0:
389,33,53465,1,0,0:0:0:0:
383,62,53677,6,0,B|343:178|348:255|348:255|358:246|383:226|411:225|411:225|380:251|343:327|343:327|330:247|263:195,1,541.200008258057,2|0,0:0|0:0,0:0:0:0:
163,156,58747,2,0,P|131:153|32:217,1,147.600002252197,2|0,0:0|0:0,0:0:0:0:
36,210,60437,5,0,0:0:0:0:
65,204,60649,1,0,0:0:0:0:
175,177,60860,1,2,0:0:0:0:
146,183,61072,1,0,0:0:0:0:
146,183,61282,5,0,0:0:0:0:
175,177,61494,1,0,0:0:0:0:
285,150,61705,1,2,0:0:0:0:
256,156,61917,1,0,0:0:0:0:
256,156,62127,5,0,0:0:0:0:
285,150,62339,1,0,0:0:0:0:
395,123,62550,1,2,0:0:0:0:
366,129,62762,1,0,0:0:0:0:
366,129,62973,5,0,0:0:0:0:
395,123,63184,1,0,0:0:0:0:
414,208,63395,1,2,0:0:0:0:
385,214,63606,1,0,0:0:0:0:
385,214,63818,5,0,0:0:0:0:
414,208,64029,1,0,0:0:0:0:
304,235,64240,1,2,0:0:0:0:
275,241,64451,1,0,0:0:0:0:
275,241,64663,5,0,0:0:0:0:
304,235,64874,1,0,0:0:0:0:
194,262,65085,1,2,0:0:0:0:
165,268,65296,1,0,0:0:0:0:
165,268,65508,5,0,0:0:0:0:
194,262,65719,1,0,0:0:0:0:
84,289,65931,1,2,0:0:0:0:
55,295,66143,1,0,0:0:0:0:
55,295,66353,1,0,0:0:0:0:
194,262,66565,5,0,0:0:0:0:
78,200,66775,1,2,0:0:0:0:
108,354,66987,1,0,0:0:0:0:
100,185,67198,6,0,P|97:136|83:106,1,73.8000011260987,2|0,0:0|0:0,0:0:0:0:
75,90,68043,2,0,B|101:77|131:78|159:93|174:121|174:121|169:96|174:61,1,172.200002627564,2|0,0:0|0:0,0:0:0:0:
194,67,69733,2,0,P|192:40|193:13,1,49.2000007507324,2|0,0:0|0:0,0:0:0:0:
213,29,70367,1,0,0:0:0:0:
346,115,70578,5,0,0:0:0:0:
353,86,70789,1,0,0:0:0:0:
337,28,71001,5,2,0:0:0:0:
349,56,71212,1,0,0:0:0:0:
371,75,71423,1,0,0:0:0:0:
397,87,71635,1,0,0:0:0:0:
455,84,71846,5,2,0:0:0:0:
426,89,72057,1,0,0:0:0:0:
340,194,72268,5,2,0:0:0:0:
334,223,72480,1,0,0:0:0:0:
346,279,72691,1,0,0:0:0:0:
238,221,72902,2,0,P|239:268|251:317,1,98.4000015014649,2|0,0:0|0:0,0:0:0:0:
128,243,73958,5,2,0:0:0:0:
134,214,74170,1,0,0:0:0:0:
122,272,74381,1,2,0:0:0:0:
128,243,74592,1,0,0:0:0:0:
219,208,74804,5,0,0:0:0:0:
225,179,75015,1,0,0:0:0:0:
213,237,75226,1,2,0:0:0:0:
219,208,75437,1,0,0:0:0:0:
136,132,75649,5,0,0:0:0:0:
142,103,75860,1,0,0:0:0:0:
130,161,76071,1,2,0:0:0:0:
136,132,76282,1,0,0:0:0:0:
40,177,76494,5,0,0:0:0:0:
46,148,76706,1,0,0:0:0:0:
34,206,76916,1,2,0:0:0:0:
40,177,77127,1,0,0:0:0:0:
168,227,77339,5,0,0:0:0:0:
174,198,77551,1,0,0:0:0:0:
162,256,77762,1,2,0:0:0:0:
168,227,77974,1,0,0:0:0:0:
282,113,78184,5,0,0:0:0:0:
288,84,78396,1,0,0:0:0:0:
276,142,78607,1,2,0:0:0:0:
282,113,78819,1,0,0:0:0:0:
125,37,79029,5,0,0:0:0:0:
131,8,79241,1,0,0:0:0:0:
119,66,79452,1,2,0:0:0:0:
125,37,79664,1,0,0:0:0:0:
15,201,79874,5,0,0:0:0:0:
21,172,80086,1,0,0:0:0:0:
9,230,80297,1,2,0:0:0:0:
15,201,80509,1,0,0:0:0:0:
137,338,80719,6,0,B|170:318|208:306|265:309|305:343|331:376|374:382|425:365|425:365|465:349|495:320|507:267|488:223|442:189|383:199|347:229|341:278|341:278|325:258,1,639.600009759522,2|0,0:0|0:0,0:0:0:0:
372,114,86635,2,0,P|375:89|370:58,1,49.2000007507324,2|0,0:0|0:0,0:0:0:0:
254,17,87480,5,0,0:0:0:0:
209,10,87691,1,0,0:0:0:0:
283,92,87902,5,2,0:0:0:0:
238,85,88113,1,0,0:0:0:0:
193,78,88325,1,0,0:0:0:0:
148,71,88536,1,0,0:0:0:0:
222,153,88747,5,2,0:0:0:0:
177,146,88958,1,0,0:0:0:0:
132,139,89170,1,0,0:0:0:0:
87,132,89381,1,0,0:0:0:0:
161,214,89592,5,2,0:0:0:0:
116,207,89803,1,0,0:0:0:0:
71,200,90015,1,0,0:0:0:0:
26,193,90226,1,0,0:0:0:0:
100,275,90437,5,2,0:0:0:0:
55,268,90648,1,0,0:0:0:0:
55,268,90860,1,0,0:0:0:0:
100,275,91071,1,0,0:0:0:0:
183,201,91282,5,2,0:0:0:0:
195,157,91494,1,0,0:0:0:0:
195,112,91705,1,0,0:0:0:0:
180,69,91916,1,0,0:0:0:0:
239,169,92127,5,2,0:0:0:0:
195,157,92339,1,0,0:0:0:0:
150,157,92550,1,0,0:0:0:0:
107,172,92761,1,0,0:0:0:0:
183,246,92973,5,2,0:0:0:0:
120,272,93185,1,0,0:0:0:0:
246,220,93395,2,0,P|283:216|336:234,1,90.0000034332277,0|2,0:0|0:0,0:0:0:0:
372,284,94029,1,0,0:0:0:0:
430,167,94240,5,2,0:0:0:0:
440,123,94451,1,0,0:0:0:0:
430,79,94662,1,0,0:0:0:0:
404,44,94873,1,0,0:0:0:0:
440,123,95085,5,2,0:0:0:0:
430,79,95296,1,0,0:0:0:0:
404,44,95507,1,0,0:0:0:0:
364,22,95719,1,0,0:0:0:0:
430,79,95930,5,2,0:0:0:0:
404,44,96141,1,0,0:0:0:0:
364,22,96353,1,0,0:0:0:0:
320,20,96564,1,0,0:0:0:0:
404,44,96775,5,2,0:0:0:0:
364,22,96987,1,0,0:0:0:0:
320,20,97198,1,0,0:0:0:0:
278,36,97409,1,0,0:0:0:0:
211,131,97620,5,2,0:0:0:0:
169,147,97831,1,0,0:0:0:0:
124,144,98042,1,0,0:0:0:0:
85,123,98254,1,0,0:0:0:0:
169,147,98465,5,2,0:0:0:0:
124,144,98676,1,0,0:0:0:0:
85,123,98888,1,0,0:0:0:0:
58,88,99099,1,0,0:0:0:0:
124,144,99310,5,2,0:0:0:0:
85,123,99522,1,0,0:0:0:0:
58,88,99733,1,0,0:0:0:0:
49,44,99944,1,0,0:0:0:0:
150,199,100156,6,0,P|155:246|147:292,1,90.0000034332277,2|0,0:0|0:0,0:0:0:0:
117,321,100789,1,0,0:0:0:0:
234,220,101001,5,0,0:0:0:0:
278,223,101212,1,0,0:0:0:0:
146,214,101423,5,2,0:0:0:0:
190,217,101635,1,0,0:0:0:0:
234,220,101846,1,0,0:0:0:0:
278,223,102057,1,0,0:0:0:0:
14,205,102268,5,2,0:0:0:0:
58,208,102480,1,0,0:0:0:0:
102,211,102691,1,0,0:0:0:0:
146,214,102902,1,0,0:0:0:0:
88,96,103113,5,2,0:0:0:0:
63,132,103325,1,0,0:0:0:0:
38,169,103536,1,0,0:0:0:0:
14,205,103747,1,0,0:0:0:0:
108,135,103958,5,2,0:0:0:0:
88,96,104169,1,0,0:0:0:0:
146,214,104381,5,0,0:0:0:0:
170,178,104592,1,0,0:0:0:0:
195,141,104803,1,2,0:0:0:0:
220,105,105015,1,0,0:0:0:0:
255,288,105226,5,0,0:0:0:0:
219,264,105437,1,0,0:0:0:0:
182,239,105648,1,2,0:0:0:0:
146,214,105860,1,0,0:0:0:0:
329,179,106071,5,0,0:0:0:0:
305,215,106282,1,0,0:0:0:0:
280,252,106493,1,2,0:0:0:0:
255,288,106705,1,0,0:0:0:0:
220,105,106916,6,0,P|255:98|315:114,1,90.0000034332277,0|2,0:0|0:0,0:0:0:0:
341,138,107550,1,0,0:0:0:0:
225,29,107761,5,0,0:0:0:0:
182,44,107973,1,0,0:0:0:0:
330,47,108184,1,2,0:0:0:0:
330,47,108395,1,0,0:0:0:0:
263,105,108606,5,0,0:0:0:0:
306,120,108818,1,0,0:0:0:0:
158,123,109029,1,2,0:0:0:0:
158,123,109240,1,0,0:0:0:0:
225,181,109451,5,0,0:0:0:0:
182,196,109663,1,0,0:0:0:0:
330,199,109874,1,2,0:0:0:0:
330,199,110085,1,0,0:0:0:0:
263,257,110296,5,0,0:0:0:0:
306,272,110508,1,0,0:0:0:0:
158,275,110719,1,2,0:0:0:0:
158,275,110930,1,0,0:0:0:0:
330,199,111142,5,0,0:0:0:0:
323,154,111353,1,0,0:0:0:0:
309,64,111564,1,2,0:0:0:0:
316,109,111775,1,0,0:0:0:0:
330,199,111987,5,0,0:0:0:0:
337,244,112198,1,0,0:0:0:0:
351,334,112409,1,2,0:0:0:0:
344,289,112620,1,0,0:0:0:0:
330,199,112832,5,0,0:0:0:0:
323,154,113043,1,0,0:0:0:0:
309,64,113254,1,2,0:0:0:0:
316,109,113465,1,0,0:0:0:0:
330,199,113677,5,0,0:0:0:0:
337,244,113888,1,0,0:0:0:0:
344,324,114099,2,0,B|374:337|385:322|385:322|376:306|344:315,1,90.0000034332277,2|0,0:0|0:0,0:0:0:0:
351,329,114416,1,0,0:0:0:0:
351,329,114522,6,0,P|295:337|228:321,1,120,4|0,3:0|3:0,0:0:0:0:
195,276,115156,1,0,3:0:0:0:
181,205,115367,1,0,3:0:0:0:
188,121,115578,1,0,3:0:0:0:
252,49,115789,1,0,3:0:0:0:
357,25,116001,1,0,3:0:0:0:
474,48,116212,1,4,3:0:0:0:
357,25,116423,1,0,3:0:0:0:
252,49,116635,1,0,3:0:0:0:
188,121,116846,1,0,3:0:0:0:
181,205,117057,1,0,3:0:0:0:
195,276,117268,1,0,3:0:0:0:
233,323,117480,1,4,3:0:0:0:
233,323,117902,6,0,P|289:331|356:315,1,120,4|0,0:0|0:0,0:0:0:0:
389,270,118536,1,0,0:0:0:0:
403,199,118747,1,0,0:0:0:0:
396,115,118958,1,0,0:0:0:0:
332,43,119169,1,0,0:0:0:0:
227,19,119381,1,4,0:0:0:0:
110,42,119592,1,4,0:0:0:0:
227,19,119803,1,0,0:0:0:0:
332,43,120015,1,0,0:0:0:0:
396,115,120226,1,0,0:0:0:0:
403,199,120437,1,0,0:0:0:0:
389,270,120648,1,0,0:0:0:0:
350,317,120860,1,0,0:0:0:0:
304,331,121071,1,0,0:0:0:0:
268,325,121282,6,0,P|243:268|252:193,1,120,4|0,0:0|0:0,0:0:0:0:
285,166,121916,1,0,0:0:0:0:
353,145,122127,1,0,0:0:0:0:
436,157,122339,1,0,0:0:0:0:
484,239,122550,1,0,0:0:0:0:
470,345,122761,1,4,0:0:0:0:
355,383,122973,1,4,0:0:0:0:
470,345,123184,1,0,0:0:0:0:
484,239,123395,1,0,0:0:0:0:
436,157,123606,1,0,0:0:0:0:
353,145,123818,1,0,0:0:0:0:
285,166,124029,1,0,0:0:0:0:
245,211,124240,1,4,0:0:0:0:
245,211,124663,6,0,P|270:154|261:79,1,120,4|0,0:0|0:0,0:0:0:0:
228,52,125297,1,0,0:0:0:0:
160,31,125508,1,0,0:0:0:0:
77,43,125720,1,0,0:0:0:0:
29,125,125931,1,0,0:0:0:0:
43,231,126142,1,4,0:0:0:0:
158,269,126353,1,4,0:0:0:0:
43,231,126565,1,0,0:0:0:0:
29,125,126776,1,0,0:0:0:0:
77,43,126987,1,0,0:0:0:0:
160,31,127199,1,0,0:0:0:0:
228,52,127410,1,0,0:0:0:0:
267,97,127621,1,0,0:0:0:0:
276,144,127832,1,0,0:0:0:0:
268,180,128043,6,0,P|304:171|392:217,1,120,4|0,0:0|0:0,0:0:0:0:
407,250,128677,1,0,0:0:0:0:
447,104,128888,1,0,0:0:0:0:
461,186,129099,1,0,0:0:0:0:
407,250,129311,1,0,0:0:0:0:
421,332,129522,1,0,0:0:0:0:
461,186,129733,1,4,0:0:0:0:
407,250,129944,1,0,0:0:0:0:
324,268,130156,1,0,0:0:0:0:
244,246,130367,1,0,0:0:0:0:
184,189,130578,1,0,0:0:0:0:
159,110,130789,1,0,0:0:0:0:
178,28,131001,1,4,0:0:0:0:
178,28,131423,6,0,P|113:38|46:15,1,120,4|0,0:0|0:0,0:0:0:0:
8,0,132057,1,0,0:0:0:0:
178,28,132268,1,0,0:0:0:0:
159,110,132480,1,0,0:0:0:0:
139,191,132691,1,0,0:0:0:0:
120,272,132902,1,4,0:0:0:0:
159,110,133113,1,4,0:0:0:0:
139,191,133325,1,0,0:0:0:0:
120,272,133536,1,0,0:0:0:0:
101,354,133747,1,0,0:0:0:0:
101,354,133958,1,0,0:0:0:0:
120,272,134169,1,0,0:0:0:0:
139,191,134380,1,0,0:0:0:0:
159,110,134592,1,0,0:0:0:0:
159,110,134804,6,0,L|282:139,1,120,4|0,0:0|0:0,0:0:0:0:
335,145,135437,1,0,0:0:0:0:
390,121,135649,1,0,0:0:0:0:
398,204,135860,1,0,0:0:0:0:
406,287,136071,1,0,0:0:0:0:
398,204,136282,1,4,0:0:0:0:
390,121,136494,1,4,0:0:0:0:
335,145,136706,1,0,0:0:0:0:
275,137,136916,1,0,0:0:0:0:
196,109,137127,1,0,0:0:0:0:
111,114,137339,1,0,0:0:0:0:
46,167,137550,1,0,0:0:0:0:
20,246,137761,1,4,0:0:0:0:
143,298,138184,6,0,L|266:269,1,120,4|0,0:0|0:0,0:0:0:0:
319,263,138817,1,0,0:0:0:0:
374,287,139029,1,0,0:0:0:0:
382,204,139240,1,0,0:0:0:0:
390,121,139451,1,0,0:0:0:0:
382,204,139663,1,4,0:0:0:0:
374,287,139874,1,4,0:0:0:0:
319,263,140086,1,0,0:0:0:0:
259,270,140296,1,0,0:0:0:0:
180,299,140507,1,0,0:0:0:0:
95,294,140719,1,0,0:0:0:0:
30,241,140930,1,0,0:0:0:0:
4,162,141141,1,0,0:0:0:0:
11,78,141353,1,0,0:0:0:0:
137,178,141564,6,0,P|174:169|263:130,1,120,4|0,0:0|0:0,0:0:0:0:
279,85,142198,1,0,0:0:0:0:
336,41,142409,1,0,0:0:0:0:
419,31,142620,1,0,0:0:0:0:
501,81,142832,1,0,0:0:0:0:
509,188,143043,1,4,0:0:0:0:
435,282,143254,1,4,0:0:0:0:
509,188,143465,1,0,0:0:0:0:
501,81,143676,1,0,0:0:0:0:
419,31,143888,1,0,0:0:0:0:
336,41,144099,1,0,0:0:0:0:
279,85,144310,1,0,0:0:0:0:
223,108,144522,1,0,0:0:0:0:
163,108,144733,1,0,0:0:0:0:
112,75,144944,5,4,0:0:0:0:
112,75,145156,1,0,0:0:0:0:
54,59,145367,1,0,0:0:0:0:
8,114,145578,1,0,0:0:0:0:
6,197,145789,1,0,0:0:0:0:
56,279,146001,1,0,0:0:0:0:
153,324,146212,1,0,0:0:0:0:
272,315,146423,1,4,0:0:0:0:
272,315,146635,1,4,0:0:0:0:
153,324,146846,1,0,0:0:0:0:
56,279,147057,1,0,0:0:0:0:
6,197,147269,1,0,0:0:0:0:
8,114,147480,1,0,0:0:0:0:
54,59,147691,1,0,0:0:0:0:
112,75,147902,1,0,0:0:0:0:
112,75,148114,1,0,0:0:0:0:
112,75,148325,6,0,P|161:79|250:47,1,120,4|0,0:0|0:0,0:0:0:0:
272,19,148958,1,0,0:0:0:0:
320,72,149170,1,0,0:0:0:0:
337,154,149381,1,0,0:0:0:0:
316,247,149592,1,0,0:0:0:0:
237,321,149804,1,4,0:0:0:0:
208,204,150015,1,4,0:0:0:0:
208,204,150226,1,0,0:0:0:0:
237,321,150437,1,0,0:0:0:0:
316,247,150649,1,0,0:0:0:0:
337,154,150860,1,0,0:0:0:0:
320,72,151071,1,0,0:0:0:0:
272,19,151283,1,4,0:0:0:0:
272,19,151705,6,0,P|246:104|255:148,1,120,4|0,0:0|0:0,0:0:0:0:
272,189,152339,1,0,0:0:0:0:
250,257,152550,1,0,0:0:0:0:
168,277,152761,1,0,0:0:0:0:
75,251,152973,1,0,0:0:0:0:
34,151,153184,1,4,0:0:0:0:
62,34,153395,1,4,0:0:0:0:
62,34,153606,1,0,0:0:0:0:
177,1,153818,1,0,0:0:0:0:
279,33,154029,1,0,0:0:0:0:
329,114,154240,1,0,0:0:0:0:
334,197,154451,1,0,0:0:0:0:
309,265,154663,1,0,0:0:0:0:
259,298,154874,1,0,0:0:0:0:
259,298,155085,6,0,P|345:295|392:301,1,120,4|0,0:0|0:0,0:0:0:0:
425,336,155719,1,0,0:0:0:0:
444,254,155930,1,0,0:0:0:0:
464,172,156142,1,0,0:0:0:0:
483,90,156353,1,0,0:0:0:0:
502,8,156564,1,0,0:0:0:0:
439,31,156775,1,4,0:0:0:0:
419,113,156987,1,0,0:0:0:0:
400,195,157198,1,0,0:0:0:0:
381,277,157409,1,0,0:0:0:0:
361,359,157620,1,0,0:0:0:0:
381,277,157832,1,0,0:0:0:0:
400,195,158043,1,4,0:0:0:0:
244,271,158465,6,0,P|176:273|115:258,1,120,4|0,0:0|0:0,0:0:0:0:
58,210,159099,1,0,0:0:0:0:
140,192,159311,1,0,0:0:0:0:
222,175,159522,1,0,0:0:0:0:
304,158,159733,1,0,0:0:0:0:
222,175,159944,1,4,0:0:0:0:
344,41,160156,5,4,0:0:0:0:
262,59,160367,1,0,0:0:0:0:
180,76,160579,1,0,0:0:0:0:
98,93,160790,1,0,0:0:0:0:
180,76,161001,1,0,0:0:0:0:
262,59,161212,1,0,0:0:0:0:
344,41,161423,1,0,0:0:0:0:
426,23,161635,1,0,0:0:0:0:
334,209,161846,6,0,B|322:273|327:301|327:301|339:262,1,120,4|0,0:0|0:0,0:0:0:0:
391,255,162480,1,0,0:0:0:0:
424,191,162691,1,0,0:0:0:0:
405,109,162902,1,0,0:0:0:0:
328,51,163113,1,0,0:0:0:0:
219,43,163325,1,4,0:0:0:0:
107,88,163536,1,4,0:0:0:0:
107,88,163747,1,0,0:0:0:0:
219,43,163958,1,0,0:0:0:0:
328,51,164170,1,0,0:0:0:0:
405,109,164381,1,0,0:0:0:0:
424,191,164592,1,0,0:0:0:0:
391,255,164803,1,4,0:0:0:0:
391,255,165226,6,0,P|317:256|273:279,1,120,4|0,0:0|0:0,0:0:0:0:
226,309,165860,1,0,0:0:0:0:
154,306,166071,1,0,0:0:0:0:
89,252,166282,1,0,0:0:0:0:
71,157,166494,1,0,0:0:0:0:
71,157,166705,1,4,0:0:0:0:
126,36,166916,5,4,0:0:0:0:
179,9,167127,1,0,0:0:0:0:
251,4,167339,1,0,0:0:0:0:
329,33,167550,1,0,0:0:0:0:
419,63,167761,1,0,0:0:0:0:
509,2,167973,1,0,0:0:0:0:
496,121,168184,1,0,0:0:0:0:
496,121,168395,1,0,0:0:0:0:
241,69,168606,6,0,L|213:63,1,24,2|0,0:0|0:0,0:0:0:0:
332,94,169029,2,0,L|316:70,1,24,0|2,0:0|0:0,0:0:0:0:
133,207,169451,6,0,L|127:235,1,24,2|0,0:0|0:0,0:0:0:0:
158,115,169874,2,0,L|134:131,1,24,0|2,0:0|0:0,0:0:0:0:
271,315,170296,6,0,L|299:321,1,24,2|0,0:0|0:0,0:0:0:0:
179,289,170719,2,0,L|195:313,1,24,0|2,0:0|0:0,0:0:0:0:
379,177,171141,6,0,L|385:149,1,24,2|0,0:0|0:0,0:0:0:0:
353,268,171564,2,0,L|377:252,1,24,0|2,0:0|0:0,0:0:0:0:
180,289,171987,6,0,L|193:309,1,24,2|0,0:0|0:0,0:0:0:0:
271,315,172409,2,0,L|294:320,1,24,2|0,0:0|0:0,0:0:0:0:
159,116,172832,6,0,L|138:129,1,24,2|0,0:0|0:0,0:0:0:0:
133,207,173254,2,0,L|127:230,1,24,2|0,0:0|0:0,0:0:0:0:
332,95,173677,6,0,L|318:74,1,24,2|0,0:0|0:0,0:0:0:0:
241,69,174099,2,0,L|219:64,1,18,2|0,0:0|0:0,0:0:0:0:
205,32,174311,5,0,0:0:0:0:
306,160,174522,2,0,P|316:190|317:207,1,48,2|0,0:0|0:0,0:0:0:0:
297,262,175156,1,0,0:0:0:0:
172,51,175367,5,2,0:0:0:0:
259,11,175578,1,0,0:0:0:0:
353,25,175789,1,0,0:0:0:0:
426,87,176001,1,0,0:0:0:0:
232,178,176212,5,2,0:0:0:0:
327,165,176423,1,0,0:0:0:0:
404,222,176635,1,0,0:0:0:0:
499,209,176846,1,0,0:0:0:0:
201,240,177057,5,2,0:0:0:0:
296,227,177268,1,0,0:0:0:0:
373,284,177480,1,0,0:0:0:0:
468,271,177691,1,0,0:0:0:0:
454,80,177902,5,2,0:0:0:0:
381,142,178114,1,0,0:0:0:0:
287,156,178325,1,0,0:0:0:0:
200,116,178536,1,0,0:0:0:0:
15,0,178747,5,2,0:0:0:0:
33,94,178958,1,0,0:0:0:0:
105,156,179170,1,0,0:0:0:0:
124,249,179381,1,0,0:0:0:0:
193,64,179592,6,0,L|205:-5,2,60,2|0|0,0:0|0:0|0:0,0:0:0:0:
176,158,180226,1,0,0:0:0:0:
318,233,180437,6,0,L|330:302,2,60,2|0|0,0:0|0:0|0:0,0:0:0:0:
301,139,181071,1,0,0:0:0:0:
481,15,181282,5,2,0:0:0:0:
422,91,181494,1,0,0:0:0:0:
327,105,181705,1,0,0:0:0:0:
236,72,181916,1,0,0:0:0:0:
19,29,182127,5,2,0:0:0:0:
10,124,182339,1,0,0:0:0:0:
101,152,182550,1,0,0:0:0:0:
85,57,182761,1,0,0:0:0:0:
26,255,182973,5,2,0:0:0:0:
120,238,183184,1,0,0:0:0:0:
214,221,183395,1,0,0:0:0:0:
308,204,183606,1,0,0:0:0:0:
184,377,183818,5,2,0:0:0:0:
175,282,184030,1,0,0:0:0:0:
266,254,184241,1,0,0:0:0:0:
250,349,184452,1,0,0:0:0:0:
219,159,184663,5,2,0:0:0:0:
313,176,184874,1,0,0:0:0:0:
407,193,185085,1,0,0:0:0:0:
501,210,185296,1,0,0:0:0:0:
281,256,185508,5,2,0:0:0:0:
248,165,185719,1,0,0:0:0:0:
262,70,185930,1,0,0:0:0:0:
335,7,186142,1,0,0:0:0:0:
121,113,186353,5,2,0:0:0:0:
215,128,186564,1,0,0:0:0:0:
309,143,186775,1,0,0:0:0:0:
404,158,186987,1,0,0:0:0:0:
248,37,187198,6,0,L|173:49,1,60,2|0,0:0|0:0,0:0:0:0:
445,85,187620,2,0,L|520:73,1,60
210,14,188043,5,2,0:0:0:0:
175,103,188254,1,0,0:0:0:0:
212,191,188465,1,0,0:0:0:0:
226,286,188677,1,0,0:0:0:0:
26,98,188888,5,2,0:0:0:0:
118,121,189099,1,0,0:0:0:0:
213,107,189311,1,0,0:0:0:0:
279,38,189522,1,0,0:0:0:0:
40,168,189733,5,2,0:0:0:0:
132,191,189944,1,0,0:0:0:0:
227,177,190156,1,0,0:0:0:0:
293,108,190367,1,0,0:0:0:0:
54,238,190578,5,2,0:0:0:0:
146,261,190789,1,0,0:0:0:0:
241,247,191001,1,0,0:0:0:0:
307,178,191212,1,0,0:0:0:0:
68,308,191423,5,2,0:0:0:0:
160,331,191634,1,0,0:0:0:0:
255,317,191846,1,0,0:0:0:0:
321,248,192057,1,0,0:0:0:0:
75,178,192268,5,2,0:0:0:0:
103,85,192480,1,0,0:0:0:0:
198,73,192691,1,0,0:0:0:0:
293,61,192902,1,0,0:0:0:0:
172,242,193113,5,2,0:0:0:0:
259,200,193325,1,0,0:0:0:0:
345,159,193536,1,0,0:0:0:0:
431,118,193747,1,0,0:0:0:0:
188,61,193958,5,2,0:0:0:0:
241,140,194170,1,0,0:0:0:0:
255,234,194381,1,0,0:0:0:0:
240,328,194592,1,0,0:0:0:0:
42,118,194804,5,2,0:0:0:0:
123,67,195015,1,0,0:0:0:0:
184,140,195226,1,0,0:0:0:0:
265,89,195437,1,0,0:0:0:0:
347,302,195649,5,2,0:0:0:0:
252,288,195860,1,0,0:0:0:0:
156,275,196071,1,0,0:0:0:0:
60,262,196282,1,0,0:0:0:0:
245,88,196494,5,2,0:0:0:0:
279,177,196705,1,0,0:0:0:0:
183,189,196916,1,0,0:0:0:0:
165,94,197127,1,0,0:0:0:0:
117,310,197339,5,2,0:0:0:0:
212,296,197550,1,0,0:0:0:0:
308,283,197761,1,0,0:0:0:0:
404,270,197972,1,0,0:0:0:0:
127,346,198184,5,2,0:0:0:0:
222,332,198395,1,0,0:0:0:0:
318,319,198606,1,0,0:0:0:0:
414,306,198817,1,0,0:0:0:0:
273,200,199029,5,2,0:0:0:0:
240,109,199240,1,0,0:0:0:0:
305,38,199451,1,0,0:0:0:0:
401,41,199663,1,0,0:0:0:0:
78,77,199874,5,2,0:0:0:0:
169,44,200085,1,0,0:0:0:0:
240,109,200296,1,0,0:0:0:0:
237,205,200508,1,0,0:0:0:0:
425,124,200719,5,2,0:0:0:0:
386,211,200930,1,0,0:0:0:0:
312,272,201142,1,0,0:0:0:0:
259,351,201353,1,0,0:0:0:0:
87,124,201564,5,2,0:0:0:0:
126,211,201775,1,0,0:0:0:0:
253,351,201987,5,2,0:0:0:0:
200,272,202198,1,0,0:0:0:0:
256,47,202409,6,0,P|316:34|379:75,1,116.999994644165,2|0,0:0|0:0,0:0:0:0:
417,12,202832,5,2,0:1:0:0:
456,165,203043,5,0,0:0:0:0:
441,273,203254,2,0,P|432:315|438:349,1,77.9999964294435
456,165,203677,1,2,0:0:0:0:
348,147,203888,1,0,0:0:0:0:
132,111,204099,5,2,0:0:0:0:
240,129,204311,1,0,0:0:0:0:
94,359,204522,5,2,0:1:0:0:
303,247,204733,5,0,0:0:0:0:
203,201,204944,1,0,0:0:0:0:
94,215,205156,1,0,0:0:0:0:
311,106,205367,2,0,P|314:61|294:4,1,77.9999964294435,2|0,0:0|0:0,0:0:0:0:
94,215,205789,6,0,L|225:199,1,116.999994644165,2|0,0:0|0:0,0:0:0:0:
174,274,206212,5,2,0:1:0:0:
397,321,206423,5,0,0:0:0:0:
351,221,206635,1,0,0:0:0:0:
341,112,206846,1,0,0:0:0:0:
365,5,207057,1,0,0:0:0:0:
341,112,207268,1,0,0:0:0:0:
70,53,207480,5,2,0:0:0:0:
176,28,207691,1,0,0:0:0:0:
68,238,207902,5,2,0:1:0:0:
50,173,208113,1,0,0:0:0:0:
243,72,208325,5,2,0:1:0:0:
225,137,208536,1,0,0:0:0:0:
148,384,208747,5,2,0:1:0:0:
130,319,208958,1,0,0:0:0:0:
409,201,209170,5,2,0:1:0:0:
391,266,209381,1,0,0:0:0:0:
225,137,209592,5,2,0:1:0:0:
243,72,209803,1,0,0:0:0:0:
264,249,210015,5,2,0:1:0:0:
282,314,210226,2,0,L|270:393,1,77.9999964294435
264,249,210649,1,0,0:0:0:0:
416,135,210860,6,0,B|398:124|378:117|347:119|326:137|312:155|289:158|262:149|262:149|241:140|225:125|218:97|233:70|253:55|284:60|304:76|307:103|307:103|307:89|306:91,1,311.999985717774,2|2,0:0|0:1,0:0:0:0:
377,209,211916,1,0,0:0:0:0:
299,83,212127,2,0,P|294:41|303:-1,1,77.9999964294435,2|2,0:0|0:0,0:0:0:0:
43,48,212550,5,2,0:1:0:0:
109,27,212761,1,0,0:0:0:0:
279,132,212973,5,2,0:1:0:0:
213,111,213184,1,0,0:0:0:0:
43,216,213395,5,2,0:1:0:0:
109,195,213606,1,0,0:0:0:0:
165,288,213818,5,0,0:0:0:0:
272,307,214029,1,0,0:0:0:0:
469,193,214240,5,0,0:0:0:0:
410,101,214451,1,0,0:0:0:0:
303,73,214663,1,0,0:0:0:0:
197,102,214874,1,0,0:0:0:0:
324,277,215085,5,0,0:0:0:0:
218,306,215296,1,0,0:0:0:0:
83,251,215508,1,2,0:0:0:0:
24,105,215719,1,0,0:0:0:0:
192,21,215930,6,0,L|323:8,1,116.999994644165,2|0,0:0|0:0,0:0:0:0:
371,36,216353,5,2,0:1:0:0:
245,203,216564,2,0,B|224:149|229:91|229:91|246:108|248:133,1,155.999992858887,2|0,0:0|0:0,0:0:0:0:
75,173,217198,1,2,0:0:0:0:
41,96,217409,1,0,0:0:0:0:
181,233,217620,2,0,P|189:268|177:318,1,77.9999964294435,2|0,0:0|0:0,0:0:0:0:
353,343,218043,6,0,P|345:308|357:258,1,77.9999964294435,2|0,0:1|0:0,0:0:0:0:
429,190,218465,5,0,0:0:0:0:
460,77,218677,1,0,0:0:0:0:
340,3,218888,1,2,0:0:0:0:
207,88,219099,1,0,0:0:0:0:
460,77,219311,5,2,0:0:0:0:
476,200,219522,1,0,0:0:0:0:
493,323,219733,2,0,B|467:317|441:311|441:311|410:306|393:323|388:338|345:342|332:342|317:340|300:328|287:313|286:298|286:282,1,233.999989288331,2|0,0:0|0:0,0:0:0:0:
363,194,220578,1,2,0:0:0:0:
348,70,220789,1,0,0:0:0:0:
95,31,221001,6,0,L|258:13,1,155.999992858887,2|0,0:0|0:0,0:0:0:0:
68,191,221635,1,0,0:0:0:0:
191,206,221846,1,2,0:1:0:0:
314,221,222057,1,0,0:0:0:0:
68,191,222268,1,0,0:0:0:0:
191,206,222479,1,2,0:1:0:0:
301,147,222691,6,0,L|487:170,1,155.999992858887,2|0,0:0|0:0,0:0:0:0:
419,46,223325,1,0,0:0:0:0:
470,235,223536,5,2,0:1:0:0:
349,265,223747,1,0,0:0:0:0:
229,228,223958,1,0,0:0:0:0:
171,116,224170,1,0,0:0:0:0:
224,372,224381,5,2,0:0:0:0:
243,248,224592,1,0,0:0:0:0:
263,124,224804,1,0,0:0:0:0:
283,0,225015,1,0,0:0:0:0:
263,124,225226,1,0,0:0:0:0:
243,248,225438,1,0,0:0:0:0:
79,174,225649,1,2,0:0:0:0:
338,79,226071,6,0,P|421:76|496:122,1,155.999992858887,2|0,0:0|0:0,0:0:0:0:
498,233,226705,1,0,0:0:0:0:
441,344,226916,1,0,0:0:0:0:
318,364,227127,1,0,0:0:0:0:
192,299,227339,5,0,3:0:0:0:
140,168,227550,1,0,3:0:0:0:
195,39,227761,1,0,3:0:0:0:
332,10,227973,1,0,3:0:0:0:
459,112,228184,5,6,3:0:0:0:
412,260,228395,1,6,3:0:0:0:
269,323,228606,1,6,3:0:0:0:
127,255,228818,1,6,3:0:0:0:
65,103,229029,5,14,3:0:0:0:
319,56,229240,1,14,3:0:0:0:
127,255,229451,6,0,P|114:279|110:311,1,60,2|0,0:0|0:0,0:0:0:0:
388,226,231987,5,2,0:0:0:0:
386,238,232620,2,0,L|398:309,1,72,2|0,0:0|0:0,0:0:0:0:
432,58,236001,5,2,0:0:0:0:
426,66,236423,2,0,B|412:72|400:69|390:61|377:60|365:68,1,60,2|0,0:0|0:0,0:0:0:0:
426,66,238747,5,2,0:0:0:0:
420,74,239169,2,0,B|406:80|394:77|384:69|371:68|359:75|351:83,1,72,2|0,0:0|0:0,0:0:0:0:
82,248,242973,6,0,L|86:319,1,72,2|0,0:0|0:0,0:0:0:0:
82,248,245930,5,2,0:0:0:0:
91,256,246353,2,0,L|95:327,1,72,2|0,0:0|0:0,0:0:0:0:
91,256,249522,5,2,0:0:0:0:
100,264,249944,2,0,L|102:299,1,36,2|0,0:0|0:0,0:0:0:0:
100,264,251423,5,2,0:0:0:0:
109,272,252902,2,0,L|112:359,1,87,2|0,0:0|0:0,0:0:0:0:
170,346,256071,5,2,0:0:0:0:
0,291,256282,1,0,0:0:0:0:
263,252,256494,5,2,3:2:0:0:
388,249,256705,1,0,3:3:0:0:
482,166,256916,1,0,3:3:0:0:
502,41,257127,1,0,3:3:0:0:
150,165,257339,5,2,3:2:0:0:
269,207,257550,1,0,3:0:0:0:
388,249,257761,1,0,3:0:0:0:
507,291,257973,2,0,L|521:288,1,15
357,72,258184,5,2,3:2:0:0:
238,114,258395,1,0,3:0:0:0:
119,156,258606,1,0,3:0:0:0:
0,198,258818,1,0,3:0:0:0:
242,350,259029,5,2,3:2:0:0:
316,249,259240,1,0,3:0:0:0:
309,125,259451,1,0,3:0:0:0:
223,31,259663,2,0,L|217:46,1,15
464,149,259874,5,2,3:2:0:0:
344,110,260085,1,0,3:0:0:0:
220,132,260296,1,0,3:0:0:0:
130,221,260508,1,0,3:0:0:0:
406,288,260719,5,2,3:2:0:0:
280,287,260930,1,0,3:0:0:0:
153,287,261142,1,0,3:0:0:0:
27,287,261353,2,0,L|1:286,1,15
156,374,261564,5,2,0:0:0:0:
281,382,261775,1,0,3:0:0:0:
395,328,261987,1,4,3:0:0:0:
436,209,262198,1,4,3:0:0:0:
402,87,262409,1,12,3:0:0:0:
309,1,262620,1,12,3:0:0:0:
140,202,262832,5,2,3:2:0:0:
262,174,263043,1,4,3:3:0:0:
30,29,263254,5,2,3:2:0:0:
11,153,263465,1,0,3:0:0:0:
76,260,263677,1,0,3:0:0:0:
57,384,263888,1,0,3:0:0:0:
124,151,264099,5,2,3:2:0:0:
246,183,264311,1,0,3:0:0:0:
367,151,264522,1,0,3:0:0:0:
442,50,264733,2,0,L|439:74,1,15
216,15,264944,5,2,3:2:0:0:
334,58,265156,1,0,3:0:0:0:
354,182,265367,1,0,3:0:0:0:
268,274,265578,1,0,3:0:0:0:
23,136,265789,5,2,3:2:0:0:
148,149,266001,1,4,3:0:0:0:
23,136,266212,1,4,3:0:0:0:
23,136,266423,2,0,L|23:115,1,15
152,17,266635,5,2,3:2:0:0:
265,71,266846,1,0,3:0:0:0:
290,194,267057,1,4,3:0:0:0:
252,314,267268,1,0,3:0:0:0:
171,3,267480,5,2,3:2:0:0:
284,57,267691,1,4,3:0:0:0:
309,180,267902,1,4,3:0:0:0:
271,300,268113,1,0,3:0:0:0:
6,164,268325,5,2,3:2:0:0:
105,86,268536,1,0,3:0:0:0:
228,108,268747,1,4,3:0:0:0:
290,217,268958,1,4,3:0:0:0:
413,239,269169,1,12,3:0:0:0:
512,161,269380,1,12,3:0:0:0:
450,52,269592,1,12,3:0:0:0:
327,30,269804,2,0,L|304:33,1,15,4|0,3:0|0:0,0:0:0:0:
88,96,270015,5,2,3:2:0:0:
212,111,270226,1,0,3:0:0:0:
336,126,270437,1,0,3:0:0:0:
461,143,270649,1,0,3:0:0:0:
269,363,270860,5,2,3:2:0:0:
219,249,271071,1,0,3:0:0:0:
170,134,271282,1,0,3:0:0:0:
123,17,271494,2,0,L|114:38,1,15
41,246,271705,5,2,3:2:0:0:
157,197,271916,1,4,3:0:0:0:
281,214,272127,1,4,3:0:0:0:
368,304,272339,1,4,3:0:0:0:
483,96,272550,5,2,3:2:0:0:
367,145,272761,1,0,3:0:0:0:
243,128,272972,1,0,3:0:0:0:
156,38,273184,2,0,L|150:13,1,15
370,4,273395,5,2,3:2:0:0:
341,126,273606,1,0,3:0:0:0:
386,244,273818,1,0,3:0:0:0:
357,366,274029,1,0,3:0:0:0:
95,277,274240,5,2,3:2:0:0:
213,235,274451,1,0,3:0:0:0:
331,193,274663,1,0,3:0:0:0:
331,193,274874,2,0,L|328:218,1,15
92,164,275085,5,2,3:2:0:0:
57,42,275296,1,0,3:0:0:0:
179,7,275508,1,4,3:0:0:0:
214,129,275719,1,4,3:0:0:0:
311,208,275930,1,4,3:0:0:0:
346,330,276141,1,4,3:0:0:0:
468,295,276353,1,2,0:2:0:0:
433,173,276564,1,12,3:0:0:0:
172,339,276775,5,2,3:2:0:0:
67,267,276987,1,0,3:0:0:0:
32,146,277198,1,4,3:0:0:0:
45,20,277409,1,0,3:0:0:0:
371,17,277620,5,2,3:2:0:0:
304,124,277831,1,0,3:0:0:0:
238,231,278042,1,4,3:0:0:0:
172,339,278254,2,0,L|163:315,1,15
141,17,278465,5,2,3:2:0:0:
208,124,278676,1,0,3:0:0:0:
274,231,278887,1,4,3:0:0:0:
340,339,279099,1,0,3:0:0:0:
467,20,279311,5,2,3:2:0:0:
480,146,279522,1,4,3:0:0:0:
445,267,279733,1,4,3:0:0:0:
340,339,279944,2,0,L|317:335,1,15
217,122,280156,5,2,3:2:0:0:
91,134,280367,1,0,3:0:0:0:
22,239,280578,1,4,3:0:0:0:
148,251,280789,1,0,3:0:0:0:
243,28,281001,5,2,3:2:0:0:
278,148,281212,1,4,3:3:0:0:
312,268,281423,1,4,3:3:0:0:
312,268,281635,2,0,L|318:245,1,15
379,0,281846,5,2,3:2:0:0:
437,111,282057,1,0,3:3:0:0:
314,174,282268,1,4,3:0:0:0:
383,309,282480,1,4,3:0:0:0:
234,384,282691,1,12,3:0:0:0:
154,218,282902,1,12,3:0:0:0:
336,129,283113,1,14,3:0:0:0:
433,329,283325,1,14,3:0:0:0:
404,33,283536,6,0,P|355:18|233:77,1,180.000006866455,2|0,3:2|3:0,0:0:0:0:
209,187,284170,1,0,3:0:0:0:
53,44,284381,5,12,3:0:0:0:
177,62,284592,1,0,0:0:0:0:
426,99,284804,5,2,3:2:0:0:
270,297,285015,1,0,3:0:0:0:
177,62,285226,1,2,3:2:0:0:
243,227,285437,1,0,3:0:0:0:
426,99,285649,5,2,3:2:0:0:
300,110,285860,1,0,3:0:0:0:
187,166,286071,1,12,3:0:0:0:
61,177,286282,1,12,3:0:0:0:
246,352,286494,6,0,P|264:306|261:248,1,90.0000034332277,2|0,3:2|0:0,0:0:0:0:
51,97,286916,6,0,B|84:114|111:111|141:68|179:57|219:83,1,180.000006866455,2|2,3:2|3:2,0:0:0:0:
293,186,287550,1,0,3:3:0:0:
486,8,287761,5,4,3:0:0:0:
453,130,287973,1,4,3:0:0:0:
420,252,288184,1,4,3:0:0:0:
387,374,288395,1,4,3:0:0:0:
453,130,288606,6,0,B|412:104|374:114|344:157|317:161|284:143,1,180.000006866455,2|2,3:2|3:2,0:0:0:0:
0,117,289240,1,0,3:0:0:0:
124,136,289451,1,4,3:0:0:0:
244,97,289663,1,4,3:0:0:0:
329,4,289874,1,4,3:0:0:0:
361,173,290085,1,4,3:0:0:0:
145,51,290296,6,0,P|100:42|-2:122,1,180.000006866455,2|0,0:2|0:0,0:0:0:0:
35,238,290930,1,0,0:0:0:0:
224,48,291142,5,4,3:0:0:0:
320,128,291353,1,0,3:0:0:0:
326,253,291564,1,4,3:0:0:0:
276,368,291775,1,0,3:0:0:0:
320,128,291987,6,0,P|412:130|497:166,1,180.000006866455,2|4,3:2|3:3,0:0:0:0:
392,44,292620,1,0,0:0:0:0:
326,253,292832,2,0,P|234:251|149:215,1,180.000006866455,2|2,0:0|0:0,0:0:0:0:
254,337,293465,1,2,0:0:0:0:
370,136,293677,5,12,3:0:0:0:
249,101,293888,1,0,3:0:0:0:
123,113,294099,1,0,3:0:0:0:
22,189,294311,1,0,3:0:0:0:
123,113,294522,1,4,3:0:0:0:
249,101,294733,1,4,3:0:0:0:
370,136,294944,1,4,3:0:0:0:
444,237,295156,2,0,P|458:264|461:284,1,45.0000017166138,0|0,3:0|0:0,0:0:0:0:
192,373,295367,5,4,3:0:0:0:
129,263,295578,1,0,3:0:0:0:
136,137,295789,1,4,3:0:0:0:
197,26,296001,1,0,3:0:0:0:
379,265,296212,5,12,3:0:0:0:
255,241,296423,1,12,3:0:0:0:
130,218,296635,1,2,3:2:0:0:
6,195,296846,1,12,3:0:0:0:
262,0,297057,6,0,P|264:65|225:177,1,180.000006866455,2|0,3:2|0:0,0:0:0:0:
127,249,297691,1,2,0:0:0:0:
394,154,297902,1,6,3:0:0:0:
292,79,298113,1,0,3:0:0:0:
168,54,298325,1,2,3:2:0:0:
50,99,298536,1,0,3:0:0:0:
225,297,298747,6,0,B|265:322|303:312|333:269|360:265|393:283,1,180.000006866455,2|2,3:2|3:2,0:0:0:0:
495,359,299381,1,0,0:0:0:0:
291,214,299592,1,6,3:0:0:0:
410,173,299804,1,4,3:0:0:0:
174,72,300015,6,0,P|167:120|188:214,1,135.000005149841,2|0,3:2|0:0,0:0:0:0:
254,262,300437,5,2,3:2:0:0:
59,183,300649,1,0,0:0:0:0:
277,371,300860,5,2,3:2:0:0:
333,258,301071,1,0,3:0:0:0:
335,132,301282,1,2,3:0:0:0:
279,18,301494,1,2,3:0:0:0:
194,111,301705,1,2,3:2:0:0:
195,236,301916,1,0,3:0:0:0:
486,161,302127,5,2,3:2:0:0:
397,70,302339,1,0,3:0:0:0:
271,73,302550,1,6,3:0:0:0:
212,184,302761,1,6,3:0:0:0:
86,187,302972,1,6,3:0:0:0:
0,96,303184,1,6,3:0:0:0:
35,277,303395,1,4,3:0:0:0:
129,121,303606,1,2,0:0:0:0:
129,121,303712,1,0,0:0:0:0:
129,121,303818,6,0,L|235:106,1,90.0000034332277,2|0,3:2|0:0,0:0:0:0:
342,90,304240,5,0,3:0:0:0:
424,184,304451,1,0,3:0:0:0:
410,309,304663,1,6,3:0:0:0:
296,362,304874,1,6,3:0:0:0:
180,312,305085,1,6,3:0:0:0:
134,194,305296,1,4,3:0:0:0:
296,362,305508,5,2,3:2:0:0:
180,312,305719,1,0,0:0:0:0:
134,194,305930,1,2,3:2:0:0:
159,70,306142,1,6,3:0:0:0:
273,16,306353,1,6,3:0:0:0:
395,43,306564,1,6,3:0:0:0:
464,148,306775,2,0,P|473:205|464:251,1,90.0000034332277,2|0,3:2|0:0,0:0:0:0:
257,112,307198,6,0,P|248:182|267:292,1,180.000006866455,2|0,3:2|3:0,0:0:0:0:
357,376,307832,1,0,0:0:0:0:
64,268,308043,1,6,3:0:0:0:
187,241,308254,1,6,3:0:0:0:
310,214,308465,1,6,3:0:0:0:
433,188,308677,2,0,L|381:171,1,45.0000017166138,4|0,3:0|0:0,0:0:0:0:
165,14,308888,5,12,3:0:0:0:
192,137,309099,1,0,3:0:0:0:
219,260,309310,1,4,3:0:0:0:
245,383,309522,2,0,L|262:331,1,45.0000017166138
438,83,309733,5,2,3:2:0:0:
315,110,309944,1,4,3:0:0:0:
192,137,310155,1,2,3:2:0:0:
69,163,310367,2,0,L|121:180,1,45.0000017166138,4|0,3:0|0:0,0:0:0:0:
344,354,310578,5,2,3:2:0:0:
201,377,310789,1,0,3:0:0:0:
68,321,311001,1,4,3:0:0:0:
8,189,311212,1,0,3:0:0:0:
218,10,311423,5,2,3:2:0:0:
246,151,311635,1,4,3:0:0:0:
379,204,311846,1,4,3:0:0:0:
407,345,312057,2,0,L|361:339,1,45.0000017166138,0|0,3:0|3:0,3:0:0:0:
123,120,312268,5,2,3:2:0:0:
247,46,312480,1,4,3:0:0:0:
387,76,312691,1,4,3:0:0:0:
487,178,312902,1,4,3:0:0:0:
123,120,313113,5,2,3:2:0:0:
247,194,313325,1,4,3:0:0:0:
387,164,313536,1,4,3:0:0:0:
487,62,313747,2,0,L|478:121,1,45.0000017166138,0|0,3:0|3:0,3:0:0:0:
434,324,313958,5,2,3:2:0:0:
302,263,314170,1,0,3:0:0:0:
193,357,314381,1,4,3:0:0:0:
61,296,314593,1,0,3:0:0:0:
189,13,314804,5,2,3:2:0:0:
160,153,315015,1,4,3:0:0:0:
280,231,315226,1,4,3:0:0:0:
251,371,315437,1,0,3:0:0:0:
58,198,315649,5,2,3:2:0:0:
198,228,315860,1,4,3:0:0:0:
337,193,316071,1,4,3:0:0:0:
405,66,316282,2,0,L|401:114,1,45.0000017166138,4|0,3:0|3:0,3:0:0:0:
385,309,316494,5,2,3:2:0:0:
490,126,316705,2,0,L|442:160,1,45.0000017166138,4|0,3:0|3:0,3:0:0:0:
300,249,316916,5,14,3:0:0:0:
490,126,317127,2,0,L|481:71,1,45.0000017166138,4|0,3:0|3:0,3:0:0:0:
466,2,317339,5,2,3:2:0:0:
323,24,317550,1,0,3:0:0:0:
180,46,317761,1,4,3:0:0:0:
37,68,317973,1,0,3:0:0:0:
237,324,318184,5,2,3:2:0:0:
276,185,318395,1,4,3:0:0:0:
148,117,318606,1,4,3:0:0:0:
170,259,318818,2,0,L|224:251,1,45.0000017166138,0|0,3:0|3:0,3:0:0:0:
474,213,319029,5,2,3:2:0:0:
370,113,319240,1,0,3:0:0:0:
229,81,319451,1,4,3:0:0:0:
89,117,319663,1,0,3:0:0:0:
229,81,319874,5,2,3:2:0:0:
370,113,320085,1,4,3:0:0:0:
474,213,320296,1,4,3:0:0:0:
477,357,320508,2,0,L|421:350,1,45.0000017166138,0|0,3:0|3:0,3:0:0:0:
360,340,320719,5,2,3:2:0:0:
395,200,320930,1,4,3:0:0:0:
347,63,321142,1,4,3:0:0:0:
213,9,321353,1,4,3:0:0:0:
185,331,321564,5,2,3:2:0:0:
51,277,321775,1,4,3:0:0:0:
3,140,321987,1,4,3:0:0:0:
38,0,322198,1,4,3:0:0:0:
433,146,322409,5,2,3:2:0:0:
292,113,322620,1,4,3:0:0:0:
27,154,322832,1,12,3:0:0:0:
168,187,323043,2,0,L|226:177,1,45.0000017166138,4|0,3:0|3:0,3:0:0:0:
269,33,323254,5,6,3:0:0:0:
269,33,323465,2,0,L|327:43,1,45.0000017166138,4|0,3:0|3:0,3:0:0:0:
383,248,323676,5,12,3:0:0:0:
383,248,323888,2,0,L|441:238,1,45.0000017166138,4|12,3:0|3:0,3:0:0:0:
512,0,324099,5,2,3:2:0:0:
397,88,324311,1,0,3:0:0:0:
283,176,324522,1,4,3:0:0:0:
169,264,324733,1,0,3:0:0:0:
512,352,324944,5,2,3:2:0:0:
397,264,325156,1,4,3:0:0:0:
253,275,325367,1,4,3:0:0:0:
139,187,325578,2,0,L|96:158,1,45.0000017166138,0|0,3:0|3:0,3:0:0:0:
192,8,325789,5,2,3:2:0:0:
255,137,326001,1,4,3:0:0:0:
225,277,326212,1,4,3:0:0:0:
103,354,326423,1,4,3:0:0:0:
44,133,326635,5,2,3:2:0:0:
173,70,326847,1,0,3:0:0:0:
313,100,327058,1,4,3:0:0:0:
390,222,327268,2,0,L|408:282,1,45.0000017166138,0|0,3:0|3:0,3:0:0:0:
483,40,327480,5,2,3:2:0:0:
340,19,327691,1,0,3:0:0:0:
199,47,327902,1,4,3:0:0:0:
56,26,328113,1,0,3:0:0:0:
25,224,328325,5,2,3:2:0:0:
168,245,328536,1,4,3:0:0:0:
309,217,328747,1,12,3:0:0:0:
452,238,328958,2,0,L|506:249,1,45.0000017166138,0|0,3:0|3:0,3:0:0:0:
455,81,329170,5,2,3:2:0:0:
323,20,329382,1,0,3:0:0:0:
179,30,329593,1,4,3:0:0:0:
68,122,329804,1,12,3:0:0:0:
29,260,330015,1,14,3:0:0:0:
116,374,330226,2,0,L|168:354,1,45.0000017166138,4|0,3:0|3:0,3:0:0:0:
373,280,330437,5,2,3:2:0:0:
373,280,330649,2,0,L|321:260,1,45.0000017166138,12|0,3:0|3:0,3:0:0:0:
71,159,330860,5,2,3:2:0:0:
211,77,331071,1,4,3:0:0:0:
370,101,331282,1,12,3:0:0:0:
471,227,331494,1,12,3:0:0:0:
150,371,331705,5,2,3:2:0:0:
189,213,331916,1,12,3:0:0:0:
330,134,332127,1,12,3:0:0:0:
291,292,332339,2,0,L|232:286,1,45.0000017166138,0|0,3:0|3:0,3:0:0:0:
16,273,332550,5,2,3:2:0:0:
189,213,332761,1,0,3:0:0:0:
362,153,332973,1,12,3:0:0:0:
189,213,333184,1,12,3:0:0:0:
358,384,333395,5,2,3:2:0:0:
298,211,333606,2,0,L|313:139,1,45.0000017166138,12|0,3:0|3:0,3:0:0:0:
507,131,333818,5,14,3:0:0:0:
507,131,334029,2,0,L|492:59,1,45.0000017166138,12|2,3:0|3:0,3:0:0:0:
204,28,334241,5,2,3:2:0:0:
380,115,334451,5,0,3:0:0:0:
152,295,334663,5,14,3:0:0:0:
183,120,334874,5,14,3:0:0:0:
416,300,335085,6,0,L|359:311,1,45.0000017166138,2|0,3:2|3:0,3:0:0:0:
464,128,335296,6,0,L|521:139,1,45.0000017166138,12|12,3:0|3:0,3:0:0:0:
327,15,335508,5,14,3:0:0:0:
269,264,335719,5,12,3:0:0:0:
40,155,335930,5,2,3:2:0:0:
40,155,336142,6,0,L|86:137,1,45.0000017166138,12|12,3:0|3:0,3:0:0:0:
263,69,336353,5,14,3:0:0:0:
40,155,336564,6,0,L|86:173,1,45.0000017166138,12|12,3:0|3:0,3:0:0:0:
315,262,336775,5,14,3:0:0:0:
40,155,336987,6,0,L|86:137,1,45.0000017166138,12|12,3:0|3:0,3:0:0:0:
363,29,337198,5,14,3:0:0:0:
40,155,337409,6,0,L|86:173,1,45.0000017166138,14|14,3:0|3:0,3:0:0:0:
137,197,337620,6,0,B|137:207|137:207|137:219,1,22.5,2|0,0:0|0:0,0:0:0:0:
139,199,338465,2,0,B|139:209|139:209|139:221,1,22.5,2|0,0:0|0:0,0:0:0:0:
141,201,339311,2,0,B|141:211|141:211|141:223,1,22.5,2|0,0:0|0:0,0:0:0:0:
143,203,340156,2,0,B|143:213|143:213|143:225,1,22.5,2|0,0:0|0:0,0:0:0:0:
145,205,341001,2,0,B|145:215|145:215|145:227,1,22.5,2|0,0:0|0:0,0:0:0:0:
147,207,341846,2,0,B|147:217|147:217|147:229,1,22.5,2|0,0:0|0:0,0:0:0:0:
149,209,342691,2,0,B|149:219|149:219|149:231,1,22.5,2|0,0:0|0:0,0:0:0:0:
151,211,343536,2,0,B|151:221|151:221|151:234,1,24,2|0,0:0|0:0,0:0:0:0:
