osu file format v14

[General]
AudioFilename: audio.mp3
AudioLeadIn: 0
PreviewTime: 32307
Countdown: 0
SampleSet: Soft
StackLeniency: 0.6
Mode: 0
LetterboxInBreaks: 0
WidescreenStoryboard: 1

[Editor]
Bookmarks: 2617,22410,32307,52101
DistanceSpacing: 1.2
BeatDivisor: 4
GridSize: 32
TimelineZoom: 2.1

[Metadata]
Title:vremya gotovit' v tandyre i vershit' sud'by
TitleUnicode:время готовить в тандыре и вершить судьбы
Artist:alphatoaster
ArtistUnicode:alphatoaster
Creator:piroshki
Version:normal.
Source:
Tags:russian instrumental electronic pop mashup va11 hall-a cyberpunk bartender action ost imagine dragons thunder
BeatmapID:4336081
BeatmapSetID:2051524

[Difficulty]
HPDrainRate:2.4
CircleSize:3.1
OverallDifficulty:3.5
ApproachRate:5.2
SliderMultiplier:1.6
SliderTickRate:1

[Events]
//Background and Video events
0,0,"85947949_edit.jpg",0,0
//Break Periods
//Storyboard Layer 0 (Background)
//Storyboard Layer 1 (Fail)
//Storyboard Layer 2 (Pass)
//Storyboard Layer 3 (Foreground)
//Storyboard Layer 4 (Overlay)
//Storyboard Sound Samples

[TimingPoints]
2617,618.556701030928,4,2,1,65,1,0
2617,-100,4,2,1,65,0,1
2926,-100,4,2,1,65,0,0
22410,-100,4,2,1,72,0,1
22565,-100,4,2,1,72,0,0
32307,-100,4,2,1,80,0,1
52101,-100,4,2,1,80,0,0
52410,-100,4,2,1,5,0,0
52720,-100,4,2,1,70,0,0
54575,-100,4,2,1,70,0,0
55812,-100,4,2,1,60,0,0
57049,-100,4,2,1,50,0,0
58287,-100,4,2,1,40,0,0
59524,-100,4,2,1,30,0,0
60761,-100,4,2,1,20,0,0
60915,-100,4,2,1,15,0,0
61070,-100,4,2,1,10,0,0
61225,-100,4,2,1,5,0,0

[Colours]
Combo1 : 131,174,222
Combo2 : 153,137,180
Combo3 : 168,81,255
Combo4 : 142,130,130

[HitObjects]
495,305,142,5,8,3:2:0:0:
495,305,297,2,0,L|416:292,1,80,8|8,3:2|3:2,0:0:0:0:
377,321,761,2,0,L|298:308,1,80,8|8,3:2|3:2,0:0:0:0:
278,264,1225,2,0,L|199:251,1,80,8|8,3:2|3:2,0:0:0:0:
160,280,1689,1,8,3:2:0:0:
69,245,1998,6,0,P|13:213|5:156,1,120,8|8,3:2|3:2,0:0:0:0:
34,117,2617,2,0,P|55:85|93:74,1,80,6|2,3:2|3:2,0:0:0:0:
162,140,3235,1,8,3:2:0:0:
224,65,3544,2,0,P|262:73|302:80,1,80,2|0,3:2|3:2,0:0:0:0:
356,159,4163,1,2,3:2:0:0:
450,126,4472,2,0,P|440:207|431:284,1,160,8|2,3:2|3:2,0:0:0:0:
342,322,5400,5,2,3:2:0:0:
259,370,5709,2,0,B|231:332|231:332|140:341,2,120,8|2|2,3:2|3:2|3:2,0:0:0:0:
346,338,6946,1,8,3:2:0:0:
435,303,7256,2,0,L|446:223,1,80,2|6,3:2|3:2,0:0:0:0:
369,165,7874,5,2,3:2:0:0:
273,153,8184,1,8,3:2:0:0:
199,214,8493,2,0,B|176:226|176:226|125:207,1,80,2|0,3:2|3:2,0:0:0:0:
109,112,9111,1,2,3:2:0:0:
14,92,9421,2,0,L|0:13,2,80,8|2|2,3:2|3:2|3:2,0:0:0:0:
104,122,10348,5,2,3:2:0:0:
166,48,10658,2,0,L|246:33,1,80,8|2,3:2|3:2,0:0:0:0:
326,83,11276,2,0,L|445:63,2,120,0|2|2,3:2|0:0|3:2,0:0:0:0:
279,167,12513,5,6,3:2:0:0:
334,245,12823,2,0,B|364:272|364:272|402:263,1,80,2|8,3:2|3:2,0:0:0:0:
492,294,13441,2,0,L|506:215,1,80,2|0,3:2|3:2,0:0:0:0:
431,153,14060,1,2,3:2:0:0:
467,64,14369,2,0,B|467:41|467:41|512:6,2,80,8|2|2,3:2|3:2|3:2,0:0:0:0:
420,148,15297,5,2,3:2:0:0:
346,85,15606,2,0,L|266:98,1,80,8|2,3:2|3:2,0:0:0:0:
240,137,16070,2,0,L|160:124,1,80,2|0,3:2|0:0,0:0:0:0:
136,82,16534,1,2,3:2:0:0:
49,122,16843,2,0,L|63:201,1,80,8|2,3:2|3:2,0:0:0:0:
146,249,17462,5,6,3:2:0:0:
123,342,17771,1,2,3:2:0:0:
213,373,18080,2,0,L|292:361,1,80,8|2,3:2|3:2,0:0:0:0:
330,272,18699,2,0,B|359:259|359:259|403:276,1,80,0|2,3:2|3:2,0:0:0:0:
481,219,19318,1,8,3:2:0:0:
442,131,19627,1,2,3:2:0:0:
347,147,19936,6,0,L|269:159,1,80,2|2,3:2|3:2,0:0:0:0:
238,197,20400,2,0,L|166:159,1,80,2|0,0:0|0:0,0:0:0:0:
150,115,20864,1,2,3:2:0:0:
206,37,21173,6,0,L|285:21,1,80,0|0,3:2|3:2,0:0:0:0:
370,64,21792,2,0,L|449:48,1,80,8|10,3:2|3:2,0:0:0:0:
502,127,22410,6,0,L|475:284,1,160,6|8,3:2|3:2,0:0:0:0:
389,330,23338,1,2,3:2:0:0:
302,288,23647,2,0,L|285:209,1,80,0|2,3:2|3:2,0:0:0:0:
226,133,24266,2,0,L|148:117,1,80,8|2,3:2|3:2,0:0:0:0:
167,22,24885,6,0,L|9:4,1,160,2|8,3:2|3:2,0:0:0:0:
28,107,25812,1,2,3:2:0:0:
28,107,25967,1,2,3:2:0:0:
28,107,26122,2,0,B|-4:132|-4:132|9:190,1,80,0|2,3:2|3:2,0:0:0:0:
78,231,26740,1,8,3:2:0:0:
215,364,27359,6,0,P|295:352|375:348,1,160,6|8,3:2|3:2,0:0:0:0:
417,262,28287,1,2,3:2:0:0:
332,217,28596,2,0,B|317:240|317:240|265:244,1,80,0|2,3:2|3:2,0:0:0:0:
182,294,29214,2,0,B|155:285|155:285|134:238,1,80,8|2,3:2|3:2,0:0:0:0:
84,155,29833,6,0,L|246:145,1,160,2|8,3:2|3:2,0:0:0:0:
314,226,30761,1,2,3:2:0:0:
314,226,30915,1,2,3:2:0:0:
314,226,31070,2,0,L|393:216,1,80,0|2,3:2|3:2,0:0:0:0:
480,256,31689,1,8,3:2:0:0:
511,66,32307,6,0,P|433:53|353:36,1,160,6|8,3:2|3:2,0:0:0:0:
269,91,33235,1,2,3:2:0:0:
198,25,33544,2,0,B|164:52|164:52|184:166,1,160,0|8,3:2|3:2,0:0:0:0:
243,242,34472,2,0,L|229:320,1,80,2|2,3:2|3:2,0:0:0:0:
141,358,35091,5,2,3:2:0:0:
120,264,35400,1,8,3:2:0:0:
32,284,35709,1,2,3:2:0:0:
32,284,35864,1,2,3:2:0:0:
32,284,36019,2,0,L|14:205,1,80,0|2,3:2|3:2,0:0:0:0:
95,155,36637,1,8,3:2:0:0:
259,254,37256,6,0,P|340:267|416:282,1,160,6|8,3:2|3:2,0:0:0:0:
489,219,38184,1,2,3:2:0:0:
413,159,38493,2,0,P|332:146|255:130,1,160,0|8,3:2|3:2,0:0:0:0:
191,57,39421,2,0,P|149:61|115:83,1,80,2|2,3:2|3:2,0:0:0:0:
82,170,40039,5,2,3:2:0:0:
152,234,40348,1,8,3:2:0:0:
85,302,40658,1,2,3:2:0:0:
85,302,40812,1,2,3:2:0:0:
84,302,40967,2,0,P|74:340|67:380,1,80,0|2,3:2|3:2,0:0:0:0:
163,370,41586,2,0,P|202:360|259:349,1,80,8|2,3:2|3:2,0:0:0:0:
285,266,42204,6,0,L|444:290,1,160,6|8,3:2|3:2,0:0:0:0:
494,208,43132,1,2,3:2:0:0:
398,196,43441,2,0,L|374:37,1,160,0|8,3:2|3:2,0:0:0:0:
468,20,44369,2,0,B|505:35|505:35|512:74,1,80,2|2,3:2|3:2,0:0:0:0:
423,111,44988,1,2,3:2:0:0:
333,145,45297,1,8,3:2:0:0:
262,97,45606,5,2,3:2:0:0:
262,97,45761,1,2,3:2:0:0:
262,97,45915,2,0,L|182:85,1,80,0|2,3:2|3:2,0:0:0:0:
124,8,46534,1,8,3:2:0:0:
4,158,47153,6,0,L|26:316,1,160,6|8,3:2|3:2,0:0:0:0:
121,327,48080,1,2,3:2:0:0:
181,252,48390,2,0,L|206:94,1,160,0|8,3:2|3:2,0:0:0:0:
298,60,49318,1,2,3:2:0:0:
364,129,49627,1,2,3:2:0:0:
459,135,49936,6,0,L|438:212,1,80,2|8,3:2|3:2,0:0:0:0:
508,278,50555,1,2,3:2:0:0:
441,346,50864,6,0,L|324:374,1,120,0|0,3:2|3:2,0:0:0:0:
301,331,51482,2,0,L|184:302,1,120,8|10,3:2|3:2,0:0:0:0:
139,320,52101,1,6,3:2:0:0:
256,192,52720,12,0,61379,0:0:0:0:
