osu file format v14

[General]
AudioFilename: audio.mp3
AudioLeadIn: 0
PreviewTime: 32307
Countdown: 0
SampleSet: Soft
StackLeniency: 0.2
Mode: 0
LetterboxInBreaks: 0
WidescreenStoryboard: 1

[Editor]
Bookmarks: 2617,22410,32307,52101
DistanceSpacing: 0.8
BeatDivisor: 8
GridSize: 32
TimelineZoom: 2.1

[Metadata]
Title:vremya gotovit' v tandyre i vershit' sud'by
TitleUnicode:время готовить в тандыре и вершить судьбы
Artist:alphatoaster
ArtistUnicode:alphatoaster
Creator:piroshki
Version:just a dream.
Source:
Tags:russian instrumental electronic pop mashup va11 hall-a cyberpunk bartender action ost imagine dragons thunder
BeatmapID:4284201
BeatmapSetID:2051524

[Difficulty]
HPDrainRate:5
CircleSize:5.6
OverallDifficulty:9
ApproachRate:9
SliderMultiplier:2.6
SliderTickRate:1

[Events]
//Background and Video events
0,0,"85947949_edit.jpg",0,0
//Break Periods
//Storyboard Layer 0 (Background)
//Storyboard Layer 1 (Fail)
//Storyboard Layer 2 (Pass)
//Storyboard Layer 3 (Foreground)
//Storyboard Layer 4 (Overlay)
//Storyboard Sound Samples

[TimingPoints]
2617,618.556701030928,4,2,1,65,1,0
2617,-100,4,2,1,65,0,1
2771,-100,4,2,1,65,0,0
22410,-76.9230769230769,4,2,1,72,0,1
22565,-76.9230769230769,4,2,1,72,0,0
32307,-76.9230769230769,4,2,1,80,0,1
52101,-100,4,2,1,80,0,0
52410,-100,4,2,1,5,0,0
52720,-100,4,2,1,70,0,0
54575,-100,4,2,1,70,0,0
55812,-100,4,2,1,60,0,0
57049,-100,4,2,1,50,0,0
58287,-100,4,2,1,40,0,0
59524,-100,4,2,1,30,0,0
60761,-100,4,2,1,20,0,0
60915,-100,4,2,1,15,0,0
61070,-100,4,2,1,10,0,0
61225,-100,4,2,1,5,0,0

[Colours]
Combo1 : 131,174,222
Combo2 : 153,137,180
Combo3 : 168,81,255
Combo4 : 142,130,130

[HitObjects]
475,346,142,5,8,3:2:0:0:
472,351,297,1,8,3:2:0:0:
437,289,606,5,8,3:2:0:0:
436,296,761,1,8,3:2:0:0:
369,272,1070,5,8,3:2:0:0:
372,280,1225,1,8,3:2:0:0:
309,305,1534,5,8,3:2:0:0:
315,310,1689,1,8,3:2:0:0:
475,346,1998,5,8,3:2:0:0:
437,289,2153,1,8,3:2:0:0:
369,272,2307,1,8,3:2:0:0:
309,305,2462,1,8,3:2:0:0:
212,203,2617,6,0,L|232:74,1,130,6|2,3:2|3:2,0:0:0:0:
285,155,3080,1,0,0:0:0:0:
153,163,3235,2,0,L|97:197,1,65,8|0,3:2|0:0,0:0:0:0:
69,135,3544,2,0,L|-1:127,2,65,2|2|0,3:2|3:2|3:2,0:0:0:0:
156,233,4163,5,2,3:2:0:0:
155,240,4318,1,0,0:0:0:0:
199,289,4472,2,0,L|187:352,1,65,8|0,3:2|0:0,0:0:0:0:
9,272,4781,2,0,P|82:287|135:301,1,130,2|2,3:2|3:2,0:0:0:0:
332,371,5400,5,2,3:2:0:0:
336,366,5555,1,0,0:0:0:0:
281,336,5709,2,0,P|298:309|329:299,1,65,8|0,3:2|0:0,0:0:0:0:
299,234,6019,1,2,3:2:0:0:
388,327,6173,2,0,P|418:335|437:361,2,65,2|0|0,3:2|3:2|0:0,0:0:0:0:
336,366,6637,5,2,3:2:0:0:
332,371,6792,1,0,0:0:0:0:
232,255,6946,6,0,L|242:190,1,65,8|0,3:2|0:0,0:0:0:0:
322,143,7256,1,2,3:2:0:0:
320,149,7410,1,2,3:2:0:0:
155,232,7565,1,6,3:2:0:0:
0,105,7874,5,2,3:2:0:0:
4,109,8029,1,0,0:0:0:0:
75,57,8184,2,0,P|63:120|54:185,1,130,8|2,3:2|3:2,0:0:0:0:
122,173,8647,1,2,3:2:0:0:
28,267,8802,6,0,P|4:288|0:319,1,65,0|0,3:2|0:0,0:0:0:0:
92,239,9111,1,2,3:2:0:0:
90,246,9266,1,0,0:0:0:0:
59,341,9421,2,0,P|101:386|160:368,2,130,8|2|2,3:2|3:2|3:2,0:0:0:0:
256,212,10348,5,2,3:2:0:0:
254,220,10503,1,0,0:0:0:0:
309,269,10658,2,0,P|314:236|322:205,1,65,8|0,3:2|0:0,0:0:0:0:
218,140,10967,2,0,P|249:148|281:153,1,65,2|2,3:2|3:2,0:0:0:0:
473,281,11276,6,0,L|409:267,2,65,0|0|2,3:2|0:0|3:2,0:0:0:0:
495,229,11740,2,0,L|478:292,1,65,0|8,0:0|3:2,0:0:0:0:
336,330,12204,5,2,3:2:0:0:
333,323,12359,1,2,3:2:0:0:
512,384,12513,1,6,3:2:0:0:
345,255,12823,5,2,3:2:0:0:
344,261,12977,1,0,0:0:0:0:
283,280,13132,2,0,L|219:267,1,65,8|0,3:2|0:0,0:0:0:0:
410,255,13441,2,0,L|385:383,1,130,2|0,3:2|3:2,0:0:0:0:
179,313,14060,6,0,L|115:325,1,65,2|0,3:2|0:0,0:0:0:0:
3,255,14369,2,0,P|20:228|51:220,1,65,8|0,3:2|0:0,0:0:0:0:
68,164,14678,2,0,P|98:172|115:199,1,65,2|2,3:2|3:2,0:0:0:0:
102,258,14988,1,2,3:2:0:0:
147,68,15297,5,2,3:2:0:0:
149,62,15452,1,0,0:0:0:0:
76,31,15606,2,0,P|140:22|204:11,1,130,8|2,3:2|3:2,0:0:0:0:
240,65,16070,2,0,L|303:80,1,65,2|0,3:2|3:2,0:0:0:0:
406,12,16379,5,0,0:0:0:0:
414,9,16534,1,2,3:2:0:0:
423,15,16689,1,0,0:0:0:0:
361,115,16843,2,0,P|373:85|402:73,1,65,8|0,3:2|0:0,0:0:0:0:
450,116,17153,2,0,P|480:125|496:153,1,65,2|2,3:2|3:2,0:0:0:0:
332,232,17462,6,0,P|266:220|203:212,2,130,6|2|8,3:2|3:2|3:2,0:0:0:0:
417,174,18235,1,0,0:0:0:0:
410,172,18390,1,2,3:2:0:0:
403,168,18544,1,2,3:2:0:0:
372,298,18699,6,0,L|359:361,1,65,0|0,3:2|0:0,0:0:0:0:
484,292,19008,2,0,P|456:308|429:328,1,65,2|0,3:2|0:0,0:0:0:0:
297,379,19318,2,0,P|232:369|160:361,1,130,8|2,3:2|3:2,0:0:0:0:
136,303,19781,1,2,3:2:0:0:
142,301,19936,1,2,3:2:0:0:
275,196,20245,5,2,3:2:0:0:
271,189,20400,2,0,L|284:125,1,65,0|8,0:0|3:2,0:0:0:0:
214,110,20709,2,0,L|200:46,2,65,0|2|2,0:0|3:2|3:2,0:0:0:0:
346,182,21173,5,0,3:2:0:0:
332,245,21328,1,0,3:2:0:0:
410,195,21482,1,0,3:2:0:0:
396,258,21637,1,2,3:2:0:0:
275,196,21792,5,8,3:2:0:0:
466,237,21947,1,8,3:2:0:0:
393,124,22101,1,10,3:2:0:0:
349,315,22256,1,10,3:2:0:0:
197,215,22410,6,0,L|114:204,1,84.4999961318971,6|0,3:2|0:0,0:0:0:0:
266,206,22720,2,0,L|246:373,1,168.999992263794,2|8,3:2|3:2,0:0:0:0:
480,321,23338,5,2,3:2:0:0:
479,329,23493,1,2,3:2:0:0:
418,301,23647,2,0,P|439:265|483:259,1,84.4999961318971,0|0,3:2|0:0,0:0:0:0:
411,208,23957,6,0,P|369:197|328:190,1,84.4999961318971,2|0,3:2|0:0,0:0:0:0:
387,136,24266,2,0,P|428:146|469:153,1,84.4999961318971,8|0,3:2|0:0,0:0:0:0:
353,259,24575,1,2,3:2:0:0:
344,257,24730,1,2,3:2:0:0:
238,110,24885,6,0,L|251:26,1,84.4999961318971,2|0,3:2|0:0,0:0:0:0:
307,122,25194,2,0,P|292:160|254:178,1,84.4999961318971,2|0,3:2|0:0,0:0:0:0:
152,42,25503,1,8,3:2:0:0:
152,42,25812,5,2,3:2:0:0:
125,226,25967,1,2,3:2:0:0:
178,169,26122,2,0,P|131:164|91:158,1,84.4999961318971,0|0,3:2|0:0,0:0:0:0:
77,284,26431,2,0,P|123:288|164:295,1,84.4999961318971,2|0,3:2|0:0,0:0:0:0:
266,245,26740,6,0,L|253:328,1,84.4999961318971,8|0,3:2|0:0,0:0:0:0:
18,215,27049,2,0,L|30:131,1,84.4999961318971,2|2,3:2|3:2,0:0:0:0:
189,353,27359,6,0,P|273:361|356:373,2,168.999992263794,6|2|8,3:2|3:2|3:2,0:0:0:0:
125,226,28287,1,2,3:2:0:0:
124,218,28441,1,2,3:2:0:0:
188,241,28596,2,0,P|170:278|131:293,1,84.4999961318971,0|0,3:2|0:0,0:0:0:0:
85,338,28905,2,0,P|44:332|17:300,1,84.4999961318971,2|0,3:2|0:0,0:0:0:0:
180,171,29214,6,0,P|264:180|347:192,1,168.999992263794,8|2,3:2|3:2,0:0:0:0:
304,121,29678,1,2,3:2:0:0:
512,10,29833,6,0,P|471:13|447:46,1,84.4999961318971,2|0,3:2|0:0,0:0:0:0:
392,21,30142,2,0,P|382:60|406:93,1,84.4999961318971,2|0,3:2|0:0,0:0:0:0:
505,159,30452,1,8,3:2:0:0:
505,159,30761,5,2,3:2:0:0:
308,127,30915,1,2,3:2:0:0:
347,192,31070,6,0,P|306:202|265:214,1,84.4999961318971,0|0,3:2|0:0,0:0:0:0:
261,60,31379,2,0,P|301:49|342:37,1,84.4999961318971,2|0,3:2|0:0,0:0:0:0:
209,174,31689,2,0,L|187:255,1,84.4999961318971,8|0,3:2|0:0,0:0:0:0:
148,106,31998,1,2,3:2:0:0:
150,113,32153,1,2,3:2:0:0:
82,295,32307,6,0,P|41:286|-1:279,1,84.4999961318971,6|0,3:2|0:0,0:0:0:0:
139,197,32617,2,0,P|175:215|187:254,1,84.4999961318971,2|0,3:2|0:0,0:0:0:0:
48,359,32926,5,8,3:2:0:0:
54,355,33080,1,0,0:0:0:0:
128,256,33235,5,2,3:2:0:0:
237,290,33390,1,2,3:2:0:0:
213,365,33544,6,0,P|257:355|295:347,1,84.4999961318971,0|0,3:2|0:0,0:0:0:0:
272,209,33854,2,0,P|258:252|245:289,1,84.4999961318971,2|0,3:2|0:0,0:0:0:0:
381,273,34163,6,0,P|369:189|359:105,1,168.999992263794,8|2,3:2|3:2,0:0:0:0:
281,210,34627,1,2,3:2:0:0:
360,40,34781,2,0,P|400:46|421:82,1,84.4999961318971,2|0,3:2|0:0,0:0:0:0:
512,157,35091,2,0,P|472:150|428:143,1,84.4999961318971,2|0,3:2|0:0,0:0:0:0:
505,57,35400,5,8,3:2:0:0:
501,63,35555,1,0,0:0:0:0:
352,102,35709,5,2,3:2:0:0:
199,73,35864,1,2,3:2:0:0:
136,23,36019,6,0,P|176:12|217:0,1,84.4999961318971,0|0,3:2|0:0,0:0:0:0:
260,125,36328,2,0,P|219:135|178:148,1,84.4999961318971,2|0,3:2|0:0,0:0:0:0:
94,75,36637,5,8,3:2:0:0:
122,342,36946,1,2,3:2:0:0:
124,349,37101,1,2,3:2:0:0:
193,372,37256,6,0,P|199:329|207:288,1,84.4999961318971,6|0,3:2|0:0,0:0:0:0:
31,305,37565,2,0,P|46:344|60:384,1,84.4999961318971,2|0,3:2|0:0,0:0:0:0:
122,342,37874,5,8,3:2:0:0:
124,349,38029,1,0,0:0:0:0:
207,288,38184,5,2,3:2:0:0:
354,315,38338,1,2,3:2:0:0:
299,370,38493,6,0,L|287:286,1,84.4999961318971,0|0,3:2|0:0,0:0:0:0:
317,227,38802,2,0,L|305:143,1,84.4999961318971,2|0,3:2|0:0,0:0:0:0:
107,105,39111,6,0,P|127:26|204:0,1,168.999992263794,8|2,3:2|3:2,0:0:0:0:
236,54,39575,1,2,3:2:0:0:
367,184,39730,2,0,P|326:177|304:142,1,84.4999961318971,2|0,3:2|0:0,0:0:0:0:
440,202,40039,2,0,P|421:238|381:248,1,84.4999961318971,2|0,3:2|0:0,0:0:0:0:
411,120,40348,5,8,3:2:0:0:
419,125,40503,1,0,0:0:0:0:
310,191,40658,5,2,3:2:0:0:
176,149,40812,1,2,3:2:0:0:
225,222,40967,6,0,L|239:138,1,84.4999961318971,0|0,3:2|0:0,0:0:0:0:
125,75,41276,2,0,L|110:158,1,84.4999961318971,2|0,3:2|0:0,0:0:0:0:
310,191,41586,6,0,L|295:107,1,84.4999961318971,8|0,3:2|0:0,0:0:0:0:
39,113,41895,2,0,L|53:196,1,84.4999961318971,2|2,3:2|3:2,0:0:0:0:
290,258,42204,6,0,P|331:265|373:273,1,84.4999961318971,6|0,3:2|0:0,0:0:0:0:
425,235,42513,2,0,P|466:243|508:250,1,84.4999961318971,2|0,3:2|0:0,0:0:0:0:
415,335,42823,5,8,3:2:0:0:
406,333,42977,1,0,0:0:0:0:
286,267,43132,5,2,3:2:0:0:
177,301,43287,1,2,3:2:0:0:
217,359,43441,6,0,P|175:367|134:377,1,84.4999961318971,0|0,3:2|0:0,0:0:0:0:
155,239,43751,2,0,P|195:234|226:261,1,84.4999961318971,2|0,3:2|0:0,0:0:0:0:
31,340,44060,6,0,L|0:173,1,168.999992263794,8|2,3:2|3:2,0:0:0:0:
77,243,44524,1,2,3:2:0:0:
143,47,44678,2,0,B|161:72|161:72|144:123,1,84.4999961318971,2|0,3:2|0:0,0:0:0:0:
8,101,44988,2,0,L|91:87,1,84.4999961318971,2|0,3:2|0:0,0:0:0:0:
201,21,45297,5,8,3:2:0:0:
205,27,45452,1,0,0:0:0:0:
268,0,45606,5,2,3:2:0:0:
252,168,45761,1,2,3:2:0:0:
317,145,45916,6,0,L|304:232,1,84.4999961318971,0|0,3:2|0:0,0:0:0:0:
177,248,46225,2,0,L|190:161,1,84.4999961318971,2|0,3:2|0:0,0:0:0:0:
397,179,46534,5,8,3:2:0:0:
89,219,46843,1,2,3:2:0:0:
91,226,46998,1,2,3:2:0:0:
33,281,47153,6,0,P|77:290|115:301,1,84.4999961318971,6|0,3:2|0:0,0:0:0:0:
177,255,47462,2,0,P|211:277|220:318,1,84.4999961318971,2|0,3:2|0:0,0:0:0:0:
163,358,47771,5,8,3:2:0:0:
154,356,47926,1,0,0:0:0:0:
115,301,48080,5,2,3:2:0:0:
294,345,48235,1,2,3:2:0:0:
358,319,48390,6,0,P|363:277|370:235,1,84.4999961318971,0|0,3:2|0:0,0:0:0:0:
462,300,48699,2,0,P|456:341|450:383,1,84.4999961318971,2|0,3:2|0:0,0:0:0:0:
234,187,49008,6,0,B|316:174|316:174|319:176|319:176|400:162,1,168.999992263794,8|2,3:2|3:2,0:0:0:0:
450,209,49472,1,2,3:2:0:0:
455,215,49627,2,0,L|472:132,1,84.4999961318971,2|0,3:2|0:0,0:0:0:0:
411,67,49936,5,2,3:2:0:0:
81,106,50245,1,8,3:2:0:0:
9,30,50555,1,2,3:2:0:0:
15,24,50710,1,2,3:2:0:0:
23,24,50864,5,0,3:2:0:0:
78,63,51019,1,0,3:2:0:0:
87,129,51173,1,2,3:2:0:0:
43,181,51328,1,0,3:2:0:0:
86,230,51482,5,8,3:2:0:0:
168,201,51637,1,8,3:2:0:0:
249,240,51791,1,10,3:2:0:0:
262,321,51946,1,10,3:2:0:0:
316,360,52101,6,0,L|444:341,1,130,6|0,3:2|0:0,0:0:0:0:
256,192,52720,12,0,61379,0:0:0:0:
