osu file format v14

[General]
AudioFilename: audio.mp3
AudioLeadIn: 0
PreviewTime: 32307
Countdown: 0
SampleSet: Soft
StackLeniency: 0.4
Mode: 0
LetterboxInBreaks: 0
WidescreenStoryboard: 1

[Editor]
Bookmarks: 2617,22410,32307,52101
DistanceSpacing: 0.7
BeatDivisor: 4
GridSize: 32
TimelineZoom: 2.1

[Metadata]
Title:vremya gotovit' v tandyre i vershit' sud'by
TitleUnicode:время готовить в тандыре и вершить судьбы
Artist:alphatoaster
ArtistUnicode:alphatoaster
Creator:piroshki
Version:hard.
Source:
Tags:russian instrumental electronic pop mashup va11 hall-a cyberpunk bartender action ost imagine dragons thunder
BeatmapID:4284200
BeatmapSetID:2051524

[Difficulty]
HPDrainRate:4
CircleSize:4.3
OverallDifficulty:7
ApproachRate:7.5
SliderMultiplier:2.2
SliderTickRate:1

[Events]
//Background and Video events
0,0,"85947949_edit.jpg",0,0
//Break Periods
//Storyboard Layer 0 (Background)
//Storyboard Layer 1 (Fail)
//Storyboard Layer 2 (Pass)
//Storyboard Layer 3 (Foreground)
//Storyboard Layer 4 (Overlay)
//Storyboard Sound Samples

[TimingPoints]
2617,618.556701030928,4,2,1,65,1,0
2617,-100,4,2,1,65,0,1
2926,-100,4,2,1,65,0,0
22410,-83.3333333333333,4,2,1,72,0,1
22565,-83.3333333333333,4,2,1,72,0,0
32307,-100,4,2,1,80,0,1
52101,-100,4,2,1,80,0,0
54575,-100,4,2,1,70,0,0
55812,-100,4,2,1,60,0,0
57049,-100,4,2,1,50,0,0
58287,-100,4,2,1,40,0,0
59524,-100,4,2,1,30,0,0
60761,-100,4,2,1,20,0,0
60915,-100,4,2,1,15,0,0
61070,-100,4,2,1,10,0,0
61225,-100,4,2,1,5,0,0

[Colours]
Combo1 : 131,174,222
Combo2 : 153,137,180
Combo3 : 168,81,255
Combo4 : 142,130,130

[HitObjects]
28,362,142,6,0,L|18:307,1,55,8|8,3:2|3:2,0:0:0:0:
91,283,606,2,0,L|100:229,1,55,8|8,3:2|3:2,0:0:0:0:
177,231,1070,2,0,L|209:180,1,55,8|8,3:2|3:2,0:0:0:0:
280,205,1534,2,0,L|334:194,1,55,8|8,3:2|3:2,0:0:0:0:
512,31,1998,5,8,3:2:0:0:
445,1,2153,1,8,3:2:0:0:
387,43,2307,1,8,3:2:0:0:
398,113,2462,1,8,3:2:0:0:
343,159,2617,6,0,L|288:149,1,55,6|0,3:2|0:0,0:0:0:0:
246,86,2926,1,2,3:2:0:0:
246,86,3080,1,0,0:0:0:0:
168,107,3235,2,0,L|146:0,2,110,8|2|0,3:2|3:2|3:2,0:0:0:0:
13,91,4163,5,2,3:2:0:0:
13,91,4318,1,0,0:0:0:0:
78,43,4472,2,0,L|88:96,1,55,8|0,3:2|0:0,0:0:0:0:
46,158,4781,2,0,P|0:185|-11:237,1,110,2|2,3:2|3:2,0:0:0:0:
103,328,5400,5,2,3:2:0:0:
103,328,5555,1,0,0:0:0:0:
165,285,5709,2,0,L|273:300,1,110,8|2,3:2|3:2,0:0:0:0:
325,363,6173,2,0,P|374:341|392:291,1,110,2|0,3:2|0:0,0:0:0:0:
317,186,6637,5,2,3:2:0:0:
317,186,6792,1,0,0:0:0:0:
370,135,6946,2,0,L|381:81,1,55,8|0,3:2|0:0,0:0:0:0:
322,16,7256,2,0,L|310:69,1,55,2|2,3:2|3:2,0:0:0:0:
456,141,7565,6,0,P|442:192|395:217,1,110,6|2,3:2|3:2,0:0:0:0:
339,264,8029,1,0,0:0:0:0:
271,241,8184,2,0,P|217:248|162:257,2,110,8|2|0,3:2|3:2|3:2,0:0:0:0:
122,160,9111,5,2,3:2:0:0:
122,160,9265,1,0,0:0:0:0:
51,126,9421,2,0,L|41:71,1,55,8|0,3:2|0:0,0:0:0:0:
128,78,9730,2,0,L|236:58,1,110,2|2,3:2|3:2,0:0:0:0:
47,215,10348,5,2,3:2:0:0:
47,215,10503,1,0,0:0:0:0:
101,275,10658,2,0,P|74:280|54:299,1,55,8|0,3:2|0:0,0:0:0:0:
112,347,10967,2,0,P|166:353|219:366,1,110,2|0,3:2|3:2,0:0:0:0:
323,298,11431,5,0,0:0:0:0:
323,298,11586,1,2,3:2:0:0:
389,263,11740,2,0,L|401:209,1,55,0|8,0:0|3:2,0:0:0:0:
292,213,12049,5,0,0:0:0:0:
225,214,12204,1,2,3:2:0:0:
193,271,12359,1,2,3:2:0:0:
130,235,12513,2,0,P|76:226|22:218,1,110,6|2,3:2|3:2,0:0:0:0:
30,143,12977,1,0,0:0:0:0:
112,76,13132,6,0,L|125:22,1,55,8|0,3:2|0:0,0:0:0:0:
189,60,13441,2,0,L|242:46,2,55,2|2|0,3:2|3:2|3:2,0:0:0:0:
388,113,14060,5,2,3:2:0:0:
388,113,14214,1,0,0:0:0:0:
350,178,14369,2,0,B|313:164|313:164|301:94,1,110,8|2,3:2|3:2,0:0:0:0:
512,37,14988,6,0,L|492:145,1,110,2|2,3:2|3:2,0:0:0:0:
423,180,15452,1,0,0:0:0:0:
420,189,15606,2,0,P|432:212|455:227,1,55,8|0,3:2|0:0,0:0:0:0:
512,314,15915,1,2,3:2:0:0:
505,306,16069,2,0,P|477:305|453:317,1,55,2|0,3:2|3:2,0:0:0:0:
391,280,16379,6,0,P|363:277|336:272,2,55,0|2|0,0:0|3:2|0:0,0:0:0:0:
395,368,16843,2,0,P|340:357|286:350,1,110,8|2,3:2|3:2,0:0:0:0:
178,217,17462,6,0,P|125:228|95:276,2,110,6|2|8,3:2|3:2|3:2,0:0:0:0:
169,294,18235,2,0,P|164:320|160:348,2,55,0|2|2,0:0|3:2|3:2,0:0:0:0:
237,264,18699,1,0,3:2:0:0:
262,13,19008,1,2,3:2:0:0:
262,13,19163,1,0,0:0:0:0:
292,98,19318,6,0,P|240:81|186:68,1,110,8|2,3:2|3:2,0:0:0:0:
145,3,19781,1,2,3:2:0:0:
79,29,19936,2,0,P|33:56|24:109,1,110,2|2,3:2|3:2,0:0:0:0:
79,152,20400,1,0,0:0:0:0:
214,237,20709,5,0,0:0:0:0:
202,307,20864,1,2,3:2:0:0:
190,377,21019,1,2,3:2:0:0:
120,346,21173,6,0,L|65:356,1,55,0|0,3:2|3:2,0:0:0:0:
265,357,21482,2,0,L|319:346,1,55,2|0,3:2|3:2,0:0:0:0:
446,233,21792,5,8,3:2:0:0:
360,212,21946,1,8,3:2:0:0:
274,192,22101,1,10,3:2:0:0:
188,168,22256,1,10,3:2:0:0:
168,75,22410,6,0,L|297:49,1,131.99999597168,6|2,3:2|3:2,0:0:0:0:
349,98,22874,1,0,0:0:0:0:
475,0,23029,6,0,B|459:64|459:64|461:68|461:68|447:128,1,131.99999597168,8|2,3:2|3:2,0:0:0:0:
509,169,23493,1,2,3:2:0:0:
509,169,23647,1,0,3:2:0:0:
489,347,23957,6,0,L|425:363,1,65.9999979858399,2|0,3:2|0:0,0:0:0:0:
388,304,24266,2,0,L|324:287,1,65.9999979858399,8|0,3:2|0:0,0:0:0:0:
275,339,24575,2,0,L|211:355,1,65.9999979858399,2|2,3:2|3:2,0:0:0:0:
124,288,24885,6,0,L|152:159,1,131.99999597168,2|2,3:2|3:2,0:0:0:0:
222,132,25348,1,0,0:0:0:0:
222,132,25503,1,8,3:2:0:0:
62,0,25812,5,2,3:2:0:0:
0,38,25967,1,2,3:2:0:0:
29,102,26122,2,0,L|12:165,1,65.9999979858399,0|0,3:2|0:0,0:0:0:0:
152,159,26431,2,0,L|88:175,1,65.9999979858399,2|0,3:2|0:0,0:0:0:0:
0,307,26740,6,0,L|63:290,1,65.9999979858399,8|0,3:2|0:0,0:0:0:0:
129,321,27049,2,0,L|111:384,1,65.9999979858399,2|2,3:2|3:2,0:0:0:0:
195,221,27359,6,0,L|324:195,1,131.99999597168,6|2,3:2|3:2,0:0:0:0:
382,243,27823,1,0,0:0:0:0:
502,146,27978,6,0,B|488:206|488:206|490:210|490:210|475:275,1,131.99999597168,8|2,3:2|3:2,0:0:0:0:
455,348,28442,1,2,3:2:0:0:
455,348,28596,1,0,3:2:0:0:
322,205,28906,6,0,L|257:221,1,65.9999979858399,2|0,3:2|0:0,0:0:0:0:
267,296,29214,2,0,L|202:280,1,65.9999979858399,8|0,3:2|0:0,0:0:0:0:
183,205,29524,1,2,3:2:0:0:
183,205,29678,1,2,3:2:0:0:
57,303,29834,6,0,L|28:174,1,131.99999597168,2|2,3:2|3:2,0:0:0:0:
81,120,30297,1,0,0:0:0:0:
81,120,30452,1,8,3:2:0:0:
0,0,30761,5,2,3:2:0:0:
33,62,30916,1,2,3:2:0:0:
104,47,31071,2,0,L|167:63,1,65.9999979858399,0|0,3:2|0:0,0:0:0:0:
225,13,31379,2,0,L|258:69,1,65.9999979858399,2|0,3:2|0:0,0:0:0:0:
388,59,31689,6,0,L|371:122,1,65.9999979858399,8|0,3:2|0:0,0:0:0:0:
510,134,31998,2,0,L|446:117,1,65.9999979858399,2|2,3:2|3:2,0:0:0:0:
287,156,32307,6,0,B|276:192|276:192|205:207,1,110,6|2,3:2|3:2,0:0:0:0:
147,163,32771,1,0,0:0:0:0:
147,163,32926,1,8,3:2:0:0:
18,248,33235,6,0,L|33:300,1,55,2|2,3:2|3:2,0:0:0:0:
104,271,33544,2,0,L|212:288,1,110,0|2,3:2|3:2,0:0:0:0:
502,328,34163,5,8,3:2:0:0:
492,341,34318,1,0,0:0:0:0:
476,346,34472,1,2,3:2:0:0:
459,341,34627,1,2,3:2:0:0:
462,265,34781,2,0,P|445:243|419:233,1,55,2|0,3:2|0:0,0:0:0:0:
364,189,35091,2,0,P|338:198|321:219,1,55,2|0,3:2|0:0,0:0:0:0:
212,288,35400,6,0,L|188:181,1,110,8|2,3:2|3:2,0:0:0:0:
252,138,35864,1,2,3:2:0:0:
259,135,36019,2,0,L|270:81,1,55,0|0,3:2|0:0,0:0:0:0:
214,31,36328,2,0,L|160:42,1,55,2|0,3:2|0:0,0:0:0:0:
343,106,36637,6,0,L|396:94,1,55,8|0,3:2|0:0,0:0:0:0:
427,28,36946,1,2,3:2:0:0:
427,28,37101,1,2,3:2:0:0:
511,111,37256,6,0,B|495:219,1,110,6|2,3:2|3:2,0:0:0:0:
432,245,37720,1,0,0:0:0:0:
432,245,37875,1,8,3:2:0:0:
404,368,38184,6,0,L|351:384,1,55,2|2,3:2|3:2,0:0:0:0:
314,320,38493,2,0,L|206:295,1,110,0|2,3:2|3:2,0:0:0:0:
0,197,39112,5,8,3:2:0:0:
10,210,39267,1,0,0:0:0:0:
26,215,39421,1,2,3:2:0:0:
43,210,39576,1,2,3:2:0:0:
98,253,39730,2,0,L|85:306,1,55,2|0,3:2|0:0,0:0:0:0:
15,331,40039,2,0,L|2:384,1,55,2|0,3:2|0:0,0:0:0:0:
160,308,40349,6,0,L|268:326,1,110,8|2,3:2|3:2,0:0:0:0:
326,384,40813,1,2,3:2:0:0:
333,381,40968,2,0,L|343:327,1,55,0|0,3:2|0:0,0:0:0:0:
278,272,41276,2,0,L|268:326,1,55,2|0,3:2|0:0,0:0:0:0:
409,370,41586,6,0,L|466:355,1,55,8|0,3:2|0:0,0:0:0:0:
331,258,41895,2,0,L|277:271,1,55,2|2,3:2|3:2,0:0:0:0:
490,289,42204,6,0,B|512:181,1,110,6|2,3:2|3:2,0:0:0:0:
466,128,42668,1,0,0:0:0:0:
466,128,42823,1,8,3:2:0:0:
293,197,43132,6,0,L|238:211,1,55,2|2,3:2|3:2,0:0:0:0:
371,137,43441,2,0,L|263:112,1,110,0|2,3:2|3:2,0:0:0:0:
60,5,44060,5,8,3:2:0:0:
43,3,44215,1,0,0:0:0:0:
28,11,44369,1,2,3:2:0:0:
20,26,44524,1,2,3:2:0:0:
72,80,44678,2,0,L|60:133,1,55,2|0,3:2|0:0,0:0:0:0:
188,112,44988,2,0,L|134:123,1,55,2|0,3:2|0:0,0:0:0:0:
3,183,45297,6,0,B|10:237|10:237|12:238|12:238|19:290,1,110,8|2,3:2|3:2,0:0:0:0:
86,259,45761,1,2,3:2:0:0:
89,266,45916,2,0,L|143:277,1,55,0|0,3:2|0:0,0:0:0:0:
130,349,46225,2,0,L|76:338,1,55,2|0,3:2|0:0,0:0:0:0:
242,277,46534,6,0,L|230:330,1,55,8|0,3:2|0:0,0:0:0:0:
297,381,46843,1,2,3:2:0:0:
297,381,46998,1,2,3:2:0:0:
383,308,47153,6,0,B|404:200,1,110,6|2,3:2|3:2,0:0:0:0:
354,150,47617,1,0,0:0:0:0:
354,150,47772,1,8,3:2:0:0:
339,2,48081,6,0,L|286:18,1,55,2|2,3:2|3:2,0:0:0:0:
328,79,48390,2,0,L|303:187,1,110,0|2,3:2|3:2,0:0:0:0:
62,341,49009,5,8,3:2:0:0:
45,346,49164,1,0,0:0:0:0:
29,341,49318,1,2,3:2:0:0:
19,328,49473,1,2,3:2:0:0:
60,268,49627,2,0,L|47:215,1,55,2|0,3:2|0:0,0:0:0:0:
112,186,49936,2,0,L|125:133,1,55,2|0,3:2|0:0,0:0:0:0:
12,39,50246,6,0,L|120:21,1,110,8|2,3:2|3:2,0:0:0:0:
185,63,50709,1,2,3:2:0:0:
185,63,50864,1,0,3:2:0:0:
214,48,51019,1,0,3:2:0:0:
246,53,51173,1,2,3:2:0:0:
271,74,51328,1,0,3:2:0:0:
348,69,51482,6,0,L|330:136,1,55,8|8,3:2|3:2,0:0:0:0:
204,183,51792,2,0,L|218:129,1,55,10|10,3:2|3:2,0:0:0:0:
366,253,52101,6,0,L|257:272,1,110,6|0,3:2|0:0,0:0:0:0:
256,192,52720,12,0,61379,0:0:0:0:
