osu file format v14

[General]
AudioFilename: audio.mp3
AudioLeadIn: 0
PreviewTime: 54123
Countdown: 0
SampleSet: Soft
StackLeniency: 0.4
Mode: 0
LetterboxInBreaks: 0
WidescreenStoryboard: 1

[Editor]
Bookmarks: 575,10897,21220,31542,33639,41865,52187,54768,59929,65091,70252,77994
DistanceSpacing: 1.6
BeatDivisor: 4
GridSize: 4
TimelineZoom: 2.2

[Metadata]
Title:Hoshiai (TV Size)
TitleUnicode:星合 (TV Size)
Artist:all at once
ArtistUnicode:all at once
Creator:Chompy
Version:Chu's Hard
Source:名探偵コナン
Tags:Meitantei Detective Conan Case Closed ending ed62 ed 62 anime japanese pop jpop aao arronchu1207 [-evil-]
BeatmapID:3212163
BeatmapSetID:1554674

[Difficulty]
HPDrainRate:4
CircleSize:4.5
OverallDifficulty:5.8
ApproachRate:7.4
SliderMultiplier:1.6
SliderTickRate:1

[Events]
//Background and Video events
0,0,"_con.jpg",0,0
Video,-30,"ED62.mp4"
//Break Periods
//Storyboard Layer 0 (Background)
//Storyboard Layer 1 (Fail)
//Storyboard Layer 2 (Pass)
//Storyboard Layer 3 (Foreground)
//Storyboard Layer 4 (Overlay)
//Storyboard Sound Samples
Sample,9607,2,"soft-hitfinish2.wav",65

[TimingPoints]
575,645.161290322581,4,2,1,55,1,0
575,-125,4,2,1,55,0,0
9607,-125,4,2,2,65,0,0
10897,-83.3333333333333,4,2,1,60,0,0
21220,-83.3333333333333,4,2,1,60,0,0
31542,-83.3333333333333,4,2,1,65,0,0
52187,-83.3333333333333,4,2,1,40,0,0
54768,645.161290322581,4,2,1,75,1,1
54768,-66.6666666666667,4,2,1,75,0,1
77993,-100,4,2,1,75,0,0
78155,-100,4,2,1,25,0,0
79768,-100,4,2,1,5,0,0

[Colours]
Combo1 : 201,174,251
Combo2 : 251,236,174
Combo3 : 113,116,249

[HitObjects]
118,57,575,6,0,P|126:94|132:135,1,64,2|0,0:0|0:0,0:0:0:0:
176,185,1058,2,0,P|168:222|162:263,1,64,2|0,0:0|0:0,0:0:0:0:
110,307,1542,1,2,0:0:0:0:
110,307,2187,2,0,L|69:300,2,32,2|2|2,0:0|0:0|0:0,0:0:0:0:
200,372,2833,2,0,L|236:368,1,32,2|2,0:0|0:0,0:0:0:0:
295,319,3155,6,0,P|327:316|364:345,1,64,2|0,0:0|0:0,0:0:0:0:
418,377,3639,2,0,P|450:380|487:351,1,64,2|0,0:0|0:0,0:0:0:0:
510,293,4123,1,2,0:0:0:0:
510,293,4768,2,0,L|504:253,2,32,2|2|2,0:0|0:0|0:0,0:0:0:0:
425,229,5413,2,0,L|431:189,1,32,2|2,0:0|0:0,0:0:0:0:
474,131,5736,6,0,P|472:96|452:73,1,64,2|0,0:0|0:0,0:0:0:0:
377,84,6220,2,0,P|345:68|315:74,1,64,2|0,0:0|0:0,0:0:0:0:
261,125,6704,1,2,0:0:0:0:
261,125,7349,2,0,P|268:164|273:208,1,64,2|2,0:0|0:0,0:0:0:0:
215,266,7994,2,0,P|190:275|173:273,1,32,2|0,0:0|0:0,0:0:0:0:
184,274,8316,6,0,P|126:260|75:253,2,96,2|2|2,0:0|0:0|0:0,0:0:0:0:
255,340,9607,2,0,P|306:353|372:313,1,128,2|2,0:0|0:0,0:0:0:0:
497,175,10897,6,0,L|351:157,1,143.999995605469,6|2,0:0|0:0,0:0:0:0:
298,103,11542,2,0,P|290:78|297:54,2,47.9999985351563,2|2|2,0:0|0:0|0:0,0:0:0:0:
205,226,12187,2,0,P|220:275|204:327,1,95.9999970703126,2|2,0:0|0:0,0:0:0:0:
154,370,12671,1,2,0:0:0:0:
150,373,12833,2,0,L|94:366,2,47.9999985351563,2|2|2,0:0|0:0|0:0,0:0:0:0:
305,340,13478,6,0,B|343:323|388:331|388:331|407:359|444:364,1,143.999995605469,2|2,0:0|0:0,0:0:0:0:
454,287,14123,2,0,P|472:255|468:191,1,95.9999970703126,2|2,0:0|0:0,0:0:0:0:
322,207,14768,2,0,P|305:169|312:116,1,95.9999970703126,2|2,0:0|0:0,0:0:0:0:
356,53,15252,1,2,0:0:0:0:
360,50,15413,2,0,L|415:57,2,47.9999985351563,2|2|2,0:0|0:0|0:0,0:0:0:0:
218,122,16058,6,0,L|121:134,1,95.9999970703126,2|0,0:0|0:0,0:0:0:0:
51,99,16542,1,2,0:0:0:0:
56,103,16704,2,0,P|79:153|68:203,1,95.9999970703126,2|2,0:0|0:0,0:0:0:0:
28,255,17187,2,0,P|5:305|16:355,1,95.9999970703126,2|0,0:0|0:0,0:0:0:0:
84,376,17671,1,2,0:0:0:0:
82,382,17833,2,0,L|230:359,1,143.999995605469,2|2,0:0|0:0,0:0:0:0:
276,303,18478,1,2,0:0:0:0:
280,299,18639,6,0,P|320:285|370:329,1,95.9999970703126,2|2,0:0|0:0,0:0:0:0:
407,377,19123,1,2,0:0:0:0:
405,382,19284,1,0,0:0:0:0:
493,256,19607,2,0,L|484:202,1,47.9999985351563,2|2,0:0|0:0,0:0:0:0:
468,133,19929,2,0,P|422:153|365:134,1,95.9999970703126
326,87,20413,1,0,0:0:0:0:
323,82,20575,2,0,L|332:28,2,47.9999985351563,2|0|0,0:0|0:0|0:0,0:0:0:0:
240,214,21220,6,0,L|257:319,1,95.9999970703126,6|0,1:2|0:0,0:0:0:0:
209,371,21704,1,2,0:0:0:0:
205,375,21865,2,0,L|149:368,1,47.9999985351563,2|2,1:2|0:0,0:0:0:0:
81,359,22187,1,2,0:0:0:0:
10,220,22510,2,0,P|47:189|103:209,1,95.9999970703126,2|2,1:2|0:0,0:0:0:0:
149,147,22994,1,2,0:0:0:0:
150,142,23155,2,0,L|140:82,1,47.9999985351563,2|2,1:2|0:0,0:0:0:0:
221,189,23478,2,0,L|231:129,1,47.9999985351563,2|0,0:0|0:0,0:0:0:0:
300,108,23800,6,0,P|345:115|380:85,1,95.9999970703126,2|0,1:2|0:0,0:0:0:0:
397,7,24284,1,2,0:0:0:0:
393,2,24445,1,2,1:2:0:0:
502,109,24768,2,0,L|493:169,1,47.9999985351563,2|2,0:0|0:0,0:0:0:0:
437,208,25091,2,0,L|448:309,1,95.9999970703126,2|2,1:2|0:0,0:0:0:0:
394,359,25575,1,2,0:0:0:0:
390,363,25736,2,0,P|359:370|339:366,1,47.9999985351563,2|0,1:2|0:0,0:0:0:0:
290,311,26058,2,0,P|259:304|239:308,1,47.9999985351563,2|2,0:0|0:0,0:0:0:0:
191,363,26381,6,0,P|147:373|108:338,1,95.9999970703126,2|2,1:2|0:0,0:0:0:0:
95,267,26865,1,2,0:0:0:0:
98,263,27026,1,0,1:0:0:0:
206,160,27349,2,0,P|210:126|205:106,1,47.9999985351563,2|2,0:0|0:0,0:0:0:0:
161,50,27671,2,0,P|210:65|261:22,1,95.9999970703126,0|2,1:0|0:0,0:0:0:0:
316,8,28155,1,2,0:0:0:0:
322,7,28316,2,0,L|424:28,1,95.9999970703126,0|2,1:0|0:0,0:0:0:0:
474,77,28800,1,2,0:0:0:0:
481,80,28962,6,0,P|504:125|490:176,1,95.9999970703126,0|2,1:0|0:0,0:0:0:0:
428,204,29445,1,2,0:0:0:0:
424,208,29607,2,0,L|364:215,2,47.9999985351563,0|0|0,1:0|0:0|0:0,0:0:0:0:
498,344,30252,1,0,1:2:0:0:
423,325,30413,1,8,0:0:0:0:
370,381,30575,1,0,1:0:0:0:
233,323,30897,1,2,0:0:0:0:
229,319,31058,2,0,L|239:218,1,95.9999970703126,2|0,0:0|0:0,0:0:0:0:
179,171,31542,5,6,1:2:0:0:
184,167,31704,2,0,P|130:147|84:170,1,95.9999970703126,2|0,0:0|0:0,0:0:0:0:
20,149,32187,1,0,1:2:0:0:
24,145,32349,2,0,P|33:201|76:230,1,95.9999970703126,2|0,0:0|0:0,0:0:0:0:
87,300,32832,1,2,1:2:0:0:
84,294,32994,2,0,P|128:257|131:205,1,95.9999970703126,2|2,0:0|0:0,0:0:0:0:
90,155,33478,1,2,1:2:0:0:
95,159,33639,2,0,L|86:57,1,95.9999970703126,2|0,0:0|0:0,0:0:0:0:
132,1,34123,5,2,1:2:0:0:
279,192,34607,1,2,0:0:0:0:
275,187,34768,2,0,P|318:195|367:170,1,95.9999970703126,2|2,1:2|0:0,0:0:0:0:
452,50,35413,2,0,P|392:60|370:182,1,191.999994140625,2|2,1:2|1:2,0:0:0:0:
431,211,36220,1,2,0:0:0:0:
440,338,36542,1,2,0:0:0:0:
434,341,36704,5,2,1:2:0:0:
428,344,36865,2,0,L|332:330,1,95.9999970703126,2|0,0:0|0:0,0:0:0:0:
280,381,37349,1,2,1:2:0:0:
274,384,37510,2,0,P|233:388|192:346,1,95.9999970703126,2|0,0:0|0:0,0:0:0:0:
183,279,37994,1,2,1:2:0:0:
183,273,38155,2,0,P|200:235|256:220,1,95.9999970703126,2|0,0:0|0:0,0:0:0:0:
319,245,38639,1,0,1:0:0:0:
432,141,38962,2,0,L|420:82,1,47.9999985351563,2|2,0:0|0:0,0:0:0:0:
442,19,39284,6,0,P|409:50|344:34,1,95.9999970703126,2|2,1:2|0:0,0:0:0:0:
288,20,39768,1,2,0:0:0:0:
290,16,39929,2,0,L|303:115,1,95.9999970703126,2|2,1:2|0:0,0:0:0:0:
219,239,40575,2,0,P|221:210|213:188,1,47.9999985351563,2|0,1:2|0:0,0:0:0:0:
144,222,40897,2,0,P|114:216|57:253,1,95.9999970703126,0|2,0:0|1:2,0:0:0:0:
40,322,41381,1,2,0:0:0:0:
42,327,41542,1,0,0:0:0:0:
201,373,41865,5,6,1:2:0:0:
201,366,42026,2,0,P|225:338|286:335,1,95.9999970703126,2|0,0:0|0:0,0:0:0:0:
347,292,42510,1,2,1:2:0:0:
347,286,42671,2,0,P|323:258|262:255,1,95.9999970703126,2|2,0:0|0:0,0:0:0:0:
201,216,43155,1,2,1:2:0:0:
202,209,43316,2,0,P|226:181|287:178,1,95.9999970703126,2|0,0:0|0:0,0:0:0:0:
345,129,43800,1,2,1:2:0:0:
341,124,43962,2,0,L|327:19,1,95.9999970703126,2|2,0:0|0:0,0:0:0:0:
427,88,44445,5,2,1:2:0:0:
432,92,44607,2,0,L|419:187,1,95.9999970703126,2|2,0:0|0:0,0:0:0:0:
357,234,45091,2,0,L|363:293,1,47.9999985351563,2|2,1:2|0:0,0:0:0:0:
419,332,45413,1,0,0:0:0:0:
273,382,45736,2,0,P|241:342|194:338,1,95.9999970703126,2|2,1:2|0:0,0:0:0:0:
130,371,46220,1,2,0:0:0:0:
124,374,46381,2,0,L|68:366,2,47.9999985351563,2|0|2,1:2|0:0|0:0,0:0:0:0:
231,255,47026,6,0,P|239:209|217:164,1,95.9999970703126,2|2,1:2|0:0,0:0:0:0:
142,150,47510,1,2,0:0:0:0:
138,145,47671,2,0,L|149:50,1,95.9999970703126,0|2,1:2|0:0,0:0:0:0:
298,4,48316,2,0,L|309:99,1,95.9999970703126,0|2,1:0|0:0,0:0:0:0:
355,168,48800,1,2,0:0:0:0:
359,163,48962,2,0,P|399:155|448:181,1,95.9999970703126,0|2,1:0|0:0,0:0:0:0:
449,333,49607,6,0,B|403:330|365:321|336:298|336:298|296:321|314:368,1,191.999994140625,0|0,1:2|1:0,0:0:0:0:
164,310,50575,1,2,0:0:0:0:
100,266,50736,1,2,0:0:0:0:
169,233,50897,6,0,B|210:192|233:89|105:104|149:171,1,191.999994140625,2|8,1:2|0:0,0:0:0:0:
145,164,51704,1,8,0:0:0:0:
145,164,51865,1,0,1:2:0:0:
256,192,52187,12,2,54123,0:0:0:0:
83,193,54768,6,0,P|132:205|194:164,1,120.000004577637,6|2,1:2|0:0,0:0:0:0:
227,96,55252,1,2,0:0:0:0:
164,39,55413,2,0,P|115:27|53:68,1,120.000004577637,10|2,0:0|0:0,0:0:0:0:
20,136,55897,1,2,0:0:0:0:
83,193,56058,2,0,P|132:205|194:164,2,120.000004577637,2|2|10,1:2|0:0|0:0,0:0:0:0:
12,360,57026,1,2,0:0:0:0:
10,354,57187,1,2,0:0:0:0:
11,348,57349,6,0,P|60:336|122:377,1,120.000004577637,2|2,1:2|0:0,0:0:0:0:
181,314,57833,1,2,0:0:0:0:
186,311,57994,2,0,L|258:302,1,60.0000022888184,10|0,0:0|0:0,0:0:0:0:
288,231,58316,2,0,L|228:223,1,60.0000022888184,2|0,0:0|0:0,0:0:0:0:
174,158,58639,2,0,P|171:126|188:94,2,60.0000022888184,2|0|0,1:2|0:0|0:0,0:0:0:0:
301,45,59284,2,0,P|341:72|412:49,1,120.000004577637,10|2,0:0|0:0,0:0:0:0:
483,19,59768,1,2,0:0:0:0:
471,115,59929,6,0,L|457:241,1,120.000004577637,6|2,1:2|0:0,0:0:0:0:
390,284,60413,1,2,0:0:0:0:
386,279,60575,2,0,P|330:259|280:288,1,120.000004577637,10|2,0:0|0:0,0:0:0:0:
200,261,61058,2,0,L|220:386,1,120.000004577637,2|0,0:0|0:0,0:0:0:0:
137,359,61542,1,2,0:0:0:0:
138,353,61704,2,0,P|95:326|-4:389,1,180.000006866455,2|2,0:0|0:0,0:0:0:0:
38,317,62349,1,2,0:0:0:0:
35,311,62510,6,0,L|50:186,1,120.000004577637,0|2,1:0|0:0,0:0:0:0:
10,116,62994,1,2,0:0:0:0:
11,110,63155,1,10,0:0:0:0:
144,14,63478,2,0,P|169:23|204:20,1,60.0000022888184,2|2,0:0|0:0,0:0:0:0:
285,11,63800,2,0,P|268:78|288:131,1,120.000004577637,0|0,1:0|0:0,0:0:0:0:
351,174,64284,1,0,0:0:0:0:
419,125,64445,1,10,0:0:0:0:
423,120,64607,1,10,0:0:0:0:
427,115,64768,2,0,P|435:80|437:50,1,60.0000022888184,2|0,1:2|0:0,0:0:0:0:
351,174,65091,6,0,L|364:298,1,120.000004577637,6|2,1:2|0:0,0:0:0:0:
303,353,65575,1,2,0:0:0:0:
235,302,65736,2,0,L|222:178,1,120.000004577637,10|2,0:0|0:0,0:0:0:0:
283,123,66220,1,2,0:0:0:0:
351,174,66381,2,0,L|364:298,2,120.000004577637,2|2|10,1:2|0:0|0:0,0:0:0:0:
277,22,67349,1,2,0:0:0:0:
274,27,67510,1,2,0:0:0:0:
269,30,67671,6,0,P|237:22|200:18,1,60.0000022888184,2|2,1:2|0:0,0:0:0:0:
144,72,67994,2,0,P|112:80|75:84,1,60.0000022888184,2|2,0:0|0:0,0:0:0:0:
13,40,68316,2,0,P|43:77|20:148,1,120.000004577637,10|2,0:0|0:0,0:0:0:0:
81,216,68800,1,0,0:0:0:0:
74,213,68962,2,0,P|44:250|67:321,1,120.000004577637,2|0,1:2|0:0,0:0:0:0:
134,355,69445,1,0,0:0:0:0:
137,351,69607,2,0,P|172:355|206:366,1,60.0000022888184,8|0,0:0|0:0,0:0:0:0:
266,317,69929,2,0,P|301:313|335:302,1,60.0000022888184,2|2,0:0|0:0,0:0:0:0:
391,201,70252,6,0,P|342:207|299:152,1,120.000004577637,6|2,1:2|0:0,0:0:0:0:
339,82,70736,1,2,0:0:0:0:
341,77,70897,2,0,P|337:46|332:18,1,60.0000022888184,8|0,0:0|0:0,0:0:0:0:
437,61,71220,2,0,P|431:90|427:120,1,60.0000022888184,2|2,0:0|0:0,0:0:0:0:
341,77,71542,2,0,P|279:63|229:100,1,120.000004577637,2|2,1:2|0:0,0:0:0:0:
169,162,72026,1,2,0:0:0:0:
174,157,72187,2,0,P|188:95|151:45,1,120.000004577637,8|2,0:0|0:0,0:0:0:0:
61,88,72671,1,2,0:0:0:0:
66,84,72833,6,0,L|53:204,1,120.000004577637,0|2,1:2|0:0,0:0:0:0:
152,339,73478,2,0,P|173:291|148:224,1,120.000004577637,8|0,0:0|0:0,0:0:0:0:
270,109,74123,2,0,P|301:113|333:123,1,60.0000022888184,0|0,1:0|0:0,0:0:0:0:
396,72,74445,2,0,P|427:68|459:58,1,60.0000022888184,2|0,0:0|0:0,0:0:0:0:
507,125,74768,1,10,0:0:0:0:
507,125,75091,6,0,P|497:174|496:203,1,60.0000022888184,2|2,0:0|0:0,0:0:0:0:
426,229,75413,2,0,P|435:285|442:357,1,120.000004577637,6|2,1:2|0:0,0:0:0:0:
361,375,75897,1,2,0:0:0:0:
277,364,76058,2,0,P|268:308|261:236,1,120.000004577637,8|2,0:0|0:0,0:0:0:0:
191,91,76704,6,0,P|152:94|141:113,1,60.0000022888184,0|2,1:0|0:0,0:0:0:0:
61,132,77026,2,0,P|44:167|55:186,1,60.0000022888184
84,261,77349,1,8,0:0:0:0:
162,289,77510,1,8,0:0:0:0:
225,234,77671,1,0,1:0:0:0:
392,116,77993,6,0,B|410:89|435:70|435:70|410:66|384:72|383:72|383:72|383:72|383:72|356:52|338:27|338:27|333:52|338:77|340:80|340:80|320:105|295:124|295:124|321:129|349:123|348:122|348:122|348:121|348:121|374:140|393:165|393:165|398:139|391:112|391:112,1,440,6|0,0:0|0:0,0:0:0:0:
