osu file format v14

[General]
AudioFilename: audio.mp3
AudioLeadIn: 0
PreviewTime: 67067
Countdown: 1
SampleSet: Soft
StackLeniency: 0.7
Mode: 0
LetterboxInBreaks: 0
WidescreenStoryboard: 1

[Editor]
DistanceSpacing: 1.5
BeatDivisor: 4
GridSize: 32
TimelineZoom: 1

[Metadata]
Title:Starting Days!!
TitleUnicode:Starting Days!!
Artist:aki
ArtistUnicode:aki
Creator:Log Off Now
Version:Insane!!
Source:新次元ゲイム ネプテューヌVⅡR
Tags:megadimension neptunia viir victory realize idea factory compile heart nep neptune hyperdimension opening op ps4 playstation 4
BeatmapID:2176307
BeatmapSetID:1039956

[Difficulty]
HPDrainRate:5
CircleSize:3.8
OverallDifficulty:8.5
ApproachRate:9
SliderMultiplier:1.2
SliderTickRate:1

[Events]
//Background and Video events
0,0,"viir.jpg",0,0
//Break Periods
//Storyboard Layer 0 (Background)
//Storyboard Layer 1 (Fail)
//Storyboard Layer 2 (Pass)
//Storyboard Layer 3 (Foreground)
//Storyboard Layer 4 (Overlay)
//Storyboard Sound Samples

[TimingPoints]
3006,312.5,4,2,1,50,1,0
4256,-125,4,2,1,60,0,0
6287,-100,4,2,1,60,0,0
9256,-90.9090909090909,4,2,1,66,0,0
14099,-83.3333333333333,4,2,1,80,0,0
24256,-100,4,2,1,65,0,0
49256,-125,4,2,1,55,0,0
56756,-100,4,2,1,55,0,0
59099,-90.9090909090909,4,2,1,65,0,0
64724,-90.9090909090909,4,2,1,70,0,0
66599,-90.9090909090909,4,2,1,75,0,0
69256,-83.3333333333333,4,2,1,80,0,1
88162,-100,4,2,1,70,0,1
89099,-83.3333333333333,4,2,1,80,0,0

[Colours]
Combo1 : 149,220,227
Combo2 : 208,175,245
Combo3 : 114,99,250
Combo4 : 245,137,237

[HitObjects]
109,163,3474,5,2,0:0:0:0:
109,163,3631,2,0,P|142:146|191:146,1,60,2|0,0:0|0:0,0:0:0:0:
229,251,3943,2,0,P|199:245|173:230,1,60,2|0,0:0|0:0,0:0:0:0:
217,77,4256,6,0,P|238:102|236:179,1,96,6|2,3:2|0:3,0:0:0:0:
188,325,4724,1,2,0:0:0:0:
133,241,4881,2,0,L|248:252,1,96,2|2,0:0|0:3,0:0:0:0:
372,264,5349,1,2,0:0:0:0:
321,384,5506,6,0,P|300:359|302:282,1,96,2|2,0:0|0:3,0:0:0:0:
342,155,5974,1,2,0:0:0:0:
372,264,6131,1,2,0:0:0:0:
435,134,6287,1,0,3:0:0:0:
435,134,6365,1,0,3:0:0:0:
435,134,6443,2,0,L|443:212,1,60,0|0,1:0|0:0,0:0:0:0:
456,327,6756,5,4,3:2:0:0:
313,204,6912,2,0,L|317:163,2,30,0|0|0,3:0|3:0|3:0,0:0:0:0:
303,357,7224,1,2,3:0:0:0:
206,175,7537,1,2,3:0:0:0:
425,57,7849,6,0,L|413:189,1,120,4|0,3:2|3:0,0:0:0:0:
303,250,8318,1,0,1:0:0:0:
322,129,8474,1,8,0:3:0:0:
449,278,8631,2,0,P|407:268|381:269,1,60,8|4,0:3|0:3,0:0:0:0:
254,346,8943,2,0,P|212:356|186:355,1,60,4|0,0:3|3:0,0:0:0:0:
32,255,9256,6,0,L|41:343,1,66.0000020141602,4|0,3:2|0:0,0:0:0:0:
156,165,9568,1,2,3:2:0:0:
156,165,9724,2,0,L|147:253,1,66.0000020141602,2|0,0:0|3:0,0:0:0:0:
32,50,10037,2,0,P|67:76|110:78,1,66.0000020141602,2|0,0:0|3:0,0:0:0:0:
238,18,10349,1,2,0:0:0:0:
173,158,10506,6,0,P|208:132|251:130,1,66.0000020141602,4|0,3:2|0:0,0:0:0:0:
337,198,10818,1,2,3:2:0:0:
337,198,10974,2,0,L|328:110,1,66.0000020141602,2|0,0:0|3:0,0:0:0:0:
225,18,11287,1,2,0:0:0:0:
239,171,11443,1,0,1:0:0:0:
430,61,11599,1,0,1:0:0:0:
430,61,11677,1,0,1:0:0:0:
430,61,11756,6,0,L|423:126,1,66.0000020141602,4|0,3:2|0:0,0:0:0:0:
404,280,12068,1,0,3:0:0:0:
337,198,12224,1,0,3:0:0:0:
512,156,12381,2,0,L|505:221,1,66.0000020141602,0|0,3:0|3:0,0:0:0:0:
493,373,12693,1,0,3:0:0:0:
414,256,12849,1,2,3:2:0:0:
414,256,12927,1,2,3:2:0:0:
414,256,13006,1,6,1:2:0:0:
93,342,14099,6,0,P|135:291|234:293,1,143.999995605469,6|2,3:2|3:2,0:0:0:0:
312,337,14568,1,0,1:0:0:0:
188,382,14724,1,2,0:0:0:0:
308,243,14881,2,0,P|360:254|392:284,1,71.9999978027344,2|0,3:2|3:0,0:0:0:0:
458,376,15193,2,0,L|467:300,1,71.9999978027344,2|0,1:2|0:0,0:0:0:0:
480,144,15506,6,0,P|448:161|413:165,1,71.9999978027344,2|0,3:2|3:0,0:0:0:0:
294,51,15818,2,0,L|303:127,1,71.9999978027344,2|0,1:2|0:0,0:0:0:0:
208,237,16131,1,2,3:2:0:0:
195,114,16287,1,0,3:0:0:0:
319,228,16443,2,0,L|310:304,1,71.9999978027344,2|0,1:2|0:0,0:0:0:0:
228,382,16756,6,0,P|191:342|104:336,1,143.999995605469,2|0,3:2|1:0,0:0:0:0:
0,377,17224,1,0,0:0:0:0:
34,269,17381,2,0,P|41:228|36:197,1,71.9999978027344,2|2,3:2|3:2,0:0:0:0:
1,62,17693,1,2,1:2:0:0:
185,137,17849,6,0,B|147:123|147:123|109:127,1,71.9999978027344,2|0,3:2|0:0,0:0:0:0:
236,48,18162,1,2,3:2:0:0:
372,159,18318,2,0,B|340:162|340:162|302:148,1,71.9999978027344,0|0,1:0|0:0,0:0:0:0:
509,39,18631,2,0,P|501:89|500:135,1,71.9999978027344,2|0,3:2|3:0,0:0:0:0:
413,260,18943,2,0,P|410:224|403:188,1,71.9999978027344,2|0,1:2|0:0,0:0:0:0:
207,132,19256,6,0,L|224:281,1,143.999995605469,6|0,3:2|1:0,0:0:0:0:
320,367,19724,1,0,0:0:0:0:
413,260,19881,2,0,L|339:273,1,71.9999978027344,2|2,3:2|3:2,0:0:0:0:
226,375,20193,1,2,1:2:0:0:
125,210,20349,6,0,B|175:204|175:204|210:226|210:226|267:219,1,143.999995605469,2|2,0:0|3:2,0:0:0:0:
236,130,20818,1,2,1:2:0:0:
119,298,20974,2,0,P|68:284|37:197,1,143.999995605469,2|2,3:2|3:2,0:0:0:0:
51,176,21365,1,2,3:2:0:0:
51,176,21443,2,0,L|43:134,3,35.9999989013672,6|0|2|0,0:0|0:0|3:2|0:0,0:0:0:0:
125,210,21756,5,4,1:2:0:0:
181,61,21912,1,0,3:0:0:0:
226,166,22068,1,0,3:0:0:0:
23,40,22224,2,0,L|102:49,1,71.9999978027344,2|0,1:3|0:0,0:0:0:0:
339,83,22537,2,0,L|267:91,1,71.9999978027344,2|0,1:3|0:0,0:0:0:0:
136,184,22849,6,0,P|159:223|141:317,1,143.999995605469,4|2,3:2|0:0,0:0:0:0:
74,252,23318,1,2,0:0:0:0:
250,294,23474,2,0,B|326:291|295:332|397:321,1,143.999995605469,2|0,0:0|3:0,0:0:0:0:
463,268,23943,2,0,P|454:229|453:193,1,71.9999978027344,4|0,0:3|0:0,0:0:0:0:
352,40,24256,6,0,B|384:73|384:73|374:158,1,120,4|0,3:2|1:2,0:0:0:0:
364,234,24724,1,0,0:0:0:0:
281,171,24881,2,0,P|240:155|213:155,1,60,2|2,3:2|3:2,0:0:0:0:
186,279,25193,2,0,P|220:251|233:228,1,60,0|0,1:2|0:0,0:0:0:0:
170,91,25506,6,0,P|146:135|161:208,1,120,2|2,3:2|1:2,0:0:0:0:
42,263,25974,2,0,L|114:271,1,60,2|0,3:2|0:3,0:0:0:0:
154,355,26287,2,0,L|226:347,1,60,2|2,3:2|1:2,0:0:0:0:
280,282,26599,1,0,0:0:0:0:
378,347,26756,6,0,B|367:285|367:285|376:221,1,120,2|0,3:2|1:0,0:0:0:0:
443,174,27224,1,0,0:0:0:0:
512,299,27381,2,0,P|477:284|444:279,1,60,2|0,3:2|3:0,0:0:0:0:
358,362,27693,2,0,P|323:377|290:382,1,60,2|0,1:2|0:0,0:0:0:0:
220,316,28006,6,0,P|236:284|215:190,1,120,2|2,3:2|1:2,0:0:0:0:
89,238,28474,2,0,P|124:253|157:258,1,60,2|0,3:2|0:0,0:0:0:0:
328,149,28787,2,0,P|323:178|320:221,1,60,2|0,3:2|1:0,0:0:0:0:
236,113,29099,1,2,0:0:0:0:
430,43,29256,6,0,L|417:175,1,120,4|0,3:2|1:0,0:0:0:0:
408,259,29724,1,0,0:0:0:0:
320,208,29881,2,0,P|281:198|250:200,1,60,2|2,3:2|3:2,0:0:0:0:
168,258,30193,1,0,1:0:0:0:
267,296,30349,1,2,3:2:0:0:
174,160,30506,6,0,P|160:117|188:38,1,120,2|2,3:2|1:2,0:0:0:0:
258,108,30974,1,2,3:2:0:0:
62,193,31131,2,0,L|71:117,1,60,2|0,1:3|0:0,0:0:0:0:
143,271,31443,2,0,L|152:347,1,60,2|0,1:3|0:0,0:0:0:0:
247,227,31756,6,0,P|280:202|376:206,1,120,2|0,3:0|1:0,0:0:0:0:
418,275,32224,1,0,0:0:0:0:
313,348,32381,2,0,L|320:280,1,60,2|0,3:2|3:0,0:0:0:0:
230,200,32693,2,0,L|223:132,1,60,2|0,1:2|0:0,0:0:0:0:
347,43,33006,5,2,3:2:0:0:
332,164,33162,1,2,3:2:0:0:
229,104,33318,1,2,1:2:0:0:
127,243,33474,2,0,L|134:175,1,60,2|0,1:3|0:0,0:0:0:0:
148,7,33787,1,2,3:0:0:0:
235,163,33943,2,0,L|228:95,1,60,2|0,1:3|0:0,0:0:0:0:
365,21,34256,6,0,P|345:42|335:136,2,120,4|0|0,3:2|1:0|3:0,0:0:0:0:
478,104,35037,2,0,L|406:95,1,60,2|2,3:2|1:2,0:0:0:0:
281,214,35349,2,0,P|307:266|298:325,1,120,2|0,3:2|3:0,0:0:0:0:
154,272,35818,2,0,L|213:279,1,60,0|0,1:0|0:0,0:0:0:0:
310,356,36131,2,0,L|369:348,1,60,0|0,3:0|3:0,0:0:0:0:
452,276,36443,1,2,1:2:0:0:
501,367,36599,1,2,0:0:0:0:
349,262,36756,6,0,L|363:123,1,120,2|2,3:2|1:2,0:0:0:0:
470,44,37224,2,0,P|424:71|401:74,1,60,2|0,0:0|3:0,0:0:0:0:
297,28,37537,1,2,3:2:0:0:
335,154,37693,1,0,1:0:0:0:
134,97,37849,6,0,B|196:91|179:123|258:110,1,120,6|0,3:2|3:0,0:0:0:0:
363,77,38318,2,0,L|354:159,1,60,0|2,1:0|0:0,0:0:0:0:
346,282,38631,1,2,3:2:0:0:
268,208,38787,1,2,3:2:0:0:
445,159,38943,2,0,L|436:241,1,60,2|0,1:2|0:0,0:0:0:0:
378,362,39256,6,0,P|340:328|272:319,1,120,4|2,3:2|1:2,0:0:0:0:
174,371,39724,2,0,L|183:301,1,60,2|0,0:0|3:0,0:0:0:0:
85,212,40037,2,0,L|94:282,1,60,2|0,3:2|1:0,0:0:0:0:
257,139,40349,6,0,P|209:106|129:115,1,120,2|0,0:0|3:0,0:0:0:0:
177,194,40818,1,0,1:2:0:0:
281,129,40974,1,0,3:0:0:0:
272,287,41131,2,0,L|263:212,1,60,2|0,1:3|0:0,0:0:0:0:
380,91,41443,2,0,L|371:166,1,60,2|0,1:3|0:0,0:0:0:0:
472,297,41756,6,0,P|447:273|364:257,2,120,4|0|0,3:2|1:0|3:0,0:0:0:0:
386,358,42537,1,2,3:2:0:0:
287,301,42693,2,0,P|278:267|280:237,1,60,2|0,1:2|0:0,0:0:0:0:
342,160,43006,5,2,3:2:0:0:
203,187,43162,1,2,3:2:0:0:
252,50,43318,2,0,P|261:84|259:114,1,60,2|0,1:2|0:0,0:0:0:0:
123,134,43631,2,0,P|147:109|174:95,1,60,2|0,3:2|3:0,0:0:0:0:
257,209,43943,2,0,P|223:199|198:183,1,60,2|2,1:2|0:0,0:0:0:0:
30,74,44256,6,0,L|39:200,1,120,4|0,3:2|1:0,0:0:0:0:
120,260,44724,1,0,0:0:0:0:
202,186,44881,2,0,P|231:168|261:162,1,60,2|0,3:2|3:0,0:0:0:0:
354,276,45193,2,0,L|348:208,1,60,0|0,1:0|0:0,0:0:0:0:
459,58,45506,6,0,L|450:184,1,120,2|0,3:2|1:0,0:0:0:0:
440,316,45974,2,0,P|411:298|381:292,1,60,0|2,3:0|0:0,0:0:0:0:
297,358,46287,1,0,3:0:0:0:
224,281,46443,2,0,L|230:213,1,60,0|0,1:0|3:0,0:0:0:0:
88,58,46756,6,0,L|94:126,1,60,4|0,1:2|3:0,0:0:0:0:
116,276,47068,1,4,0:3:0:0:
240,124,47224,2,0,L|234:192,1,60,4|4,1:2|3:0,0:0:0:0:
218,342,47536,1,0,3:0:0:0:
127,249,47693,1,0,1:0:0:0:
348,186,47849,1,0,3:0:0:0:
348,186,47927,1,0,3:0:0:0:
348,186,48006,6,0,L|336:319,2,120,4|2|2,3:2|0:2|0:2,0:0:0:0:
276,115,48787,1,0,3:0:0:0:
197,166,48943,2,0,P|164:182|135:185,1,60,2|0,3:2|0:0,0:0:0:0:
19,121,49256,6,0,P|47:153|40:267,1,144,4|0,3:2|3:0,0:0:0:0:
24,379,49881,2,0,P|58:358|117:353,1,96,0|0,3:0|0:0,0:0:0:0:
262,384,50506,1,0,3:0:0:0:
262,384,50662,2,0,L|254:284,1,96,0|0,3:0|3:0,0:0:0:0:
325,221,51131,2,0,L|330:166,1,48,0|0,3:0|0:0,0:0:0:0:
163,125,51443,2,0,L|168:180,1,48,0|0,1:0|0:0,0:0:0:0:
263,99,51756,6,0,P|306:77|402:101,1,144,0|0,3:0|3:0,0:0:0:0:
487,147,52381,2,0,L|477:37,1,96,0|0,3:0|0:0,0:0:0:0:
332,164,53006,1,0,3:0:0:0:
332,164,53162,2,0,L|340:259,2,96,0|0|0,3:0|3:0|3:0,0:0:0:0:
183,72,53943,2,0,L|188:127,1,48,4|0,1:2|0:0,0:0:0:0:
242,208,54256,6,0,P|223:187|111:182,1,144,4|0,3:2|3:0,0:0:0:0:
149,347,54881,2,0,L|166:234,1,96,0|0,3:0|1:0,0:0:0:0:
67,104,55506,1,0,3:0:0:0:
67,104,55662,2,0,L|84:217,1,96,0|0,3:0|3:0,0:0:0:0:
168,150,56131,2,0,P|196:151|221:159,1,48,0|0,3:0|0:0,0:0:0:0:
288,258,56443,2,0,L|294:208,1,48,0|0,1:0|0:0,0:0:0:0:
364,141,56756,6,0,L|358:89,2,40,2|0|0,3:2|0:0|0:0,0:0:0:0:
453,174,57068,2,0,L|447:122,2,40,2|0|0,0:0|0:0|0:0,0:0:0:0:
407,260,57381,2,0,P|356:224|299:235,1,120,2|0,3:2|1:0,0:0:0:0:
256,305,57849,1,0,0:0:0:0:
256,305,58006,5,2,3:2:0:0:
168,110,58162,2,0,L|246:119,1,60,0|0,1:0|0:0,0:0:0:0:
319,204,58474,2,0,L|259:197,1,60,0|2,3:0|0:0,0:0:0:0:
187,257,58787,2,0,L|157:253,2,30,0|0|0,3:0|3:0|1:0,0:0:0:0:
114,179,59099,6,0,P|145:134|123:52,1,132.00000402832,4|0,3:2|3:0,0:0:0:0:
0,104,59568,2,0,L|67:112,1,66.0000020141602,2|0,1:2|0:0,0:0:0:0:
223,66,59881,1,0,3:0:0:0:
202,199,60037,1,0,3:0:0:0:
228,38,60193,1,0,1:0:0:0:
318,234,60349,6,0,P|287:189|309:107,1,132.00000402832,2|0,3:2|3:0,0:0:0:0:
432,159,60818,2,0,L|365:167,1,66.0000020141602,0|0,1:0|0:0,0:0:0:0:
218,94,61131,1,0,3:0:0:0:
197,227,61287,1,0,3:0:0:0:
223,66,61443,1,0,1:0:0:0:
109,192,61599,6,0,L|122:325,1,132.00000402832,6|0,3:2|3:0,0:0:0:0:
257,248,62068,2,0,P|224:229|191:227,1,66.0000020141602,0|0,1:0|0:0,0:0:0:0:
36,277,62381,1,0,3:0:0:0:
198,313,62537,1,0,3:0:0:0:
13,274,62693,1,0,1:0:0:0:
210,181,62849,6,0,L|197:314,1,132.00000402832,6|0,3:2|3:0,0:0:0:0:
60,363,63318,2,0,P|93:344|126:342,1,66.0000020141602,0|0,1:0|3:0,0:0:0:0:
270,377,63631,1,0,0:0:0:0:
232,205,63787,1,0,3:0:0:0:
232,205,63865,1,0,3:0:0:0:
232,205,63943,2,0,P|265:224|298:226,1,66.0000020141602,4|0,1:2|0:0,0:0:0:0:
448,175,64256,5,0,1:0:0:0:
289,138,64412,1,4,0:3:0:0:
452,276,64568,1,0,3:0:0:0:
368,68,64724,5,4,1:2:0:0:
331,348,65037,5,2,1:2:0:0:
210,121,65349,5,2,1:2:0:0:
506,190,65662,5,2,1:2:0:0:
175,305,65974,5,2,1:2:0:0:
448,374,66287,5,2,1:2:0:0:
344,101,66599,6,0,L|332:234,1,132.00000402832,6|0,3:2|3:0,0:0:0:0:
263,70,67068,1,0,1:0:0:0:
424,169,67224,1,0,3:0:0:0:
235,301,67381,2,0,L|243:223,1,66.0000020141602,0|2,1:0|3:2,0:0:0:0:
265,42,67693,5,2,1:2:0:0:
434,272,67849,2,0,L|426:194,1,66.0000020141602,6|0,3:2|0:0,0:0:0:0:
406,6,68162,1,2,1:2:0:0:
326,218,68318,1,2,1:2:0:0:
104,25,68787,5,0,3:0:0:0:
104,25,68865,1,0,3:0:0:0:
104,25,68943,2,0,P|112:74|110:100,1,66.0000020141602,4|0,1:2|0:0,0:0:0:0:
0,153,69256,6,0,B|76:150|45:191|147:180,1,143.999995605469,6|0,3:2|1:0,0:0:0:0:
220,117,69724,1,2,0:0:0:0:
156,263,69881,2,0,P|196:247|229:247,1,71.9999978027344,2|0,3:2|3:0,0:0:0:0:
263,384,70193,2,0,P|229:357|212:328,1,71.9999978027344,0|2,1:0|0:0,0:0:0:0:
267,169,70506,6,0,P|298:201|290:304,1,143.999995605469,2|0,3:2|1:0,0:0:0:0:
224,246,70974,1,2,0:0:0:0:
399,163,71131,2,0,L|391:244,1,71.9999978027344,2|0,3:2|3:0,0:0:0:0:
330,370,71443,2,0,L|322:289,1,71.9999978027344,0|2,1:0|0:0,0:0:0:0:
246,158,71756,6,0,P|215:207|127:215,1,143.999995605469,2|2,3:2|1:2,0:0:0:0:
40,135,72224,2,0,L|48:216,1,71.9999978027344,2|0,3:2|0:0,0:0:0:0:
87,299,72537,1,2,3:2:0:0:
160,136,72693,1,0,1:0:0:0:
205,281,72849,6,0,P|244:238|333:242,1,143.999995605469,2|0,3:2|3:0,0:0:0:0:
292,383,73318,2,0,L|284:302,1,71.9999978027344,0|0,1:0|0:0,0:0:0:0:
407,219,73631,2,0,L|415:138,1,71.9999978027344,2|0,3:2|3:0,0:0:0:0:
298,62,73943,2,0,L|305:133,1,71.9999978027344,2|0,1:2|0:0,0:0:0:0:
512,12,74256,6,0,P|472:54|383:50,1,143.999995605469,6|0,3:2|1:0,0:0:0:0:
206,10,74724,2,0,L|213:81,1,71.9999978027344,2|0,0:0|3:0,0:0:0:0:
229,222,75037,1,2,3:2:0:0:
298,62,75193,1,0,1:0:0:0:
139,171,75349,6,0,L|153:314,1,143.999995605469,6|0,3:2|3:0,0:0:0:0:
234,375,75818,1,2,1:2:0:0:
376,258,75974,2,0,B|300:255|331:296|229:285,1,143.999995605469,2|0,0:0|3:0,0:0:0:0:
60,235,76443,1,2,1:2:0:0:
266,198,76599,1,2,0:0:0:0:
145,384,76756,6,0,L|154:299,1,71.9999978027344,6|0,3:2|0:0,0:0:0:0:
51,145,77068,1,0,1:0:0:0:
58,336,77224,2,0,L|67:251,1,71.9999978027344,2|0,3:2|0:0,0:0:0:0:
146,53,77537,2,0,L|155:138,1,71.9999978027344,2|0,3:2|1:0,0:0:0:0:
323,239,77849,6,0,P|270:201|178:218,1,143.999995605469,4|0,3:2|3:0,0:0:0:0:
81,285,78318,1,0,1:0:0:0:
229,358,78474,2,0,L|275:352,2,35.9999989013672,0|0|0,3:0|3:0|1:0,0:0:0:0:
56,280,78787,2,0,L|10:274,2,35.9999989013672,0|0|0,3:0|3:0|1:0,0:0:0:0:
205,165,79099,1,0,1:0:0:0:
205,165,79177,1,0,1:0:0:0:
205,165,79256,6,0,B|287:161|250:203|352:192,1,143.999995605469,4|0,3:2|1:0,0:0:0:0:
316,108,79724,1,2,0:0:0:0:
217,250,79881,2,0,P|177:266|144:266,1,71.9999978027344,2|0,3:2|3:0,0:0:0:0:
111,131,80193,2,0,P|145:158|162:187,1,71.9999978027344,0|2,1:0|0:0,0:0:0:0:
91,340,80506,6,0,B|58:303|58:303|76:190,1,143.999995605469,2|0,3:2|1:0,0:0:0:0:
107,42,80974,1,2,0:0:0:0:
9,128,81131,2,0,L|90:120,1,71.9999978027344,2|0,3:2|3:0,0:0:0:0:
194,11,81443,2,0,L|186:92,1,71.9999978027344,0|2,1:0|0:0,0:0:0:0:
173,239,81756,5,4,3:2:0:0:
274,114,81912,2,0,L|270:63,2,35.9999989013672,0|0|0,3:0|3:0|1:0,0:0:0:0:
307,344,82224,2,0,P|275:320|240:311,1,71.9999978027344,0|0,1:0|0:0,0:0:0:0:
192,134,82537,2,0,P|160:158|125:167,1,71.9999978027344,0|0,1:0|0:0,0:0:0:0:
38,323,82849,6,0,P|82:283|168:284,1,143.999995605469,4|0,3:2|3:0,0:0:0:0:
252,384,83318,2,0,L|244:303,1,71.9999978027344,0|0,1:2|0:0,0:0:0:0:
192,134,83631,2,0,L|184:205,1,71.9999978027344,2|0,3:2|3:0,0:0:0:0:
334,321,83943,2,0,L|327:250,1,71.9999978027344,2|0,1:2|0:0,0:0:0:0:
267,69,84256,6,0,P|307:111|396:107,1,143.999995605469,4|0,3:2|1:0,0:0:0:0:
477,55,84724,1,0,0:0:0:0:
512,179,84881,2,0,L|505:250,1,71.9999978027344,2|0,3:2|3:0,0:0:0:0:
388,111,85193,2,0,L|381:40,1,71.9999978027344,0|0,1:0|0:0,0:0:0:0:
199,221,85506,6,0,P|239:179|328:183,1,143.999995605469,2|0,3:2|1:0,0:0:0:0:
277,266,85974,1,0,0:0:0:0:
199,96,86131,2,0,L|120:107,1,71.9999978027344,2|0,3:2|3:0,0:0:0:0:
110,134,86365,1,0,3:0:0:0:
110,134,86443,2,0,L|31:123,1,71.9999978027344,2|4,1:2|0:3,0:0:0:0:
177,216,86756,5,2,1:2:0:0:
80,35,86912,1,4,0:3:0:0:
31,211,87068,1,2,3:2:0:0:
276,117,87224,5,2,1:2:0:0:
217,325,87381,1,4,0:3:0:0:
151,185,87537,1,2,3:2:0:0:
95,359,87693,5,2,1:2:0:0:
318,273,87849,1,2,0:0:0:0:
46,236,88006,1,4,1:2:0:0:
360,106,88474,5,0,3:0:0:0:
360,106,88552,1,0,3:0:0:0:
360,106,88631,1,2,1:2:0:0:
312,355,88787,2,0,L|301:281,1,60,2|0,1:2|0:0,0:0:0:0:
301,34,89099,6,0,P|273:72|351:14,1,503.999984619141,4|0,3:2|0:0,0:0:0:0:
360,106,90349,5,0,3:0:0:0:
360,106,90427,1,0,3:0:0:0:
360,106,90506,1,2,1:2:0:0:
193,59,90662,2,0,L|188:24,2,35.9999989013672,2|4|0,0:0|0:3|3:0,0:0:0:0:
218,251,90974,1,2,1:2:0:0:
