osu file format v14

[General]
AudioFilename: audio.mp3
AudioLeadIn: 0
PreviewTime: 67067
Countdown: 1
SampleSet: Soft
StackLeniency: 0.7
Mode: 0
LetterboxInBreaks: 0
WidescreenStoryboard: 1

[Editor]
DistanceSpacing: 1.5
BeatDivisor: 4
GridSize: 32
TimelineZoom: 1

[Metadata]
Title:Starting Days!!
TitleUnicode:Starting Days!!
Artist:aki
ArtistUnicode:aki
Creator:Log Off Now
Version:Hard!!
Source:新次元ゲイム ネプテューヌVⅡR
Tags:megadimension neptunia viir victory realize idea factory compile heart nep neptune hyperdimension opening op ps4 playstation 4
BeatmapID:2177028
BeatmapSetID:1039956

[Difficulty]
HPDrainRate:4
CircleSize:3.6
OverallDifficulty:7
ApproachRate:8
SliderMultiplier:1.1
SliderTickRate:1

[Events]
//Background and Video events
0,0,"viir.jpg",0,0
//Break Periods
//Storyboard Layer 0 (Background)
//Storyboard Layer 1 (Fail)
//Storyboard Layer 2 (Pass)
//Storyboard Layer 3 (Foreground)
//Storyboard Layer 4 (Overlay)
//Storyboard Sound Samples

[TimingPoints]
3006,312.5,4,2,1,50,1,0
4256,-100,4,2,1,60,0,0
9256,-100,4,2,1,66,0,0
14099,-100,4,2,1,80,0,0
24256,-100,4,2,1,65,0,0
49256,-100,4,2,1,55,0,0
59099,-100,4,2,1,65,0,0
64724,-100,4,2,1,70,0,0
66599,-100,4,2,1,75,0,0
69256,-90.9090909090909,4,2,1,80,0,1
88162,-90.9090909090909,4,2,1,70,0,1
89099,-90.9090909090909,4,2,1,80,0,0

[Colours]
Combo1 : 149,220,227
Combo2 : 208,175,245
Combo3 : 114,99,250
Combo4 : 245,137,237

[HitObjects]
31,282,3474,6,0,L|41:354,2,55,2|2|0,0:0|0:0|0:0,0:0:0:0:
83,217,3943,2,0,L|90:157,1,55,2|0,0:0|0:0,0:0:0:0:
54,87,4256,6,0,P|85:117|203:119,1,165,6|2,3:2|0:0,0:0:0:0:
265,68,4881,2,0,L|255:187,1,110,2|2,0:0|0:3,0:0:0:0:
209,245,5349,1,2,0:0:0:0:
276,292,5506,6,0,P|307:262|425:260,1,165,2|2,0:0|0:0,0:0:0:0:
491,212,6131,1,2,0:0:0:0:
437,149,6287,2,0,L|390:154,2,27.5,0|0|0,3:0|3:0|1:0,0:0:0:0:
305,248,6756,6,0,B|329:282|329:282|316:364,1,110,4|0,3:2|3:0,0:0:0:0:
241,379,7224,2,0,L|233:316,1,55,2|0,3:0|0:0,0:0:0:0:
161,251,7537,2,0,L|153:314,1,55,2|0,3:0|0:0,0:0:0:0:
77,366,7849,6,0,L|61:240,1,110,4|0,3:2|3:0,0:0:0:0:
107,186,8318,1,0,1:0:0:0:
172,235,8474,1,8,0:3:0:0:
236,182,8631,2,0,L|230:115,1,55,8|4,0:3|0:3,0:0:0:0:
285,65,8943,2,0,P|327:86|349:87,1,55,4|0,0:3|3:0,0:0:0:0:
403,41,9256,6,0,L|387:167,1,110,4|2,3:2|3:2,0:0:0:0:
337,214,9724,2,0,P|294:199|270:199,1,55,2|0,0:0|3:0,0:0:0:0:
234,264,10037,2,0,L|240:331,1,55,2|0,0:0|3:0,0:0:0:0:
178,374,10349,6,0,P|147:343|77:335,1,110,2|0,0:0|0:0,0:0:0:0:
24,275,10818,1,2,3:2:0:0:
74,210,10974,2,0,P|84:178|76:99,1,110,2|2,0:0|0:0,0:0:0:0:
7,57,11443,1,0,1:0:0:0:
114,24,11599,1,0,1:0:0:0:
114,24,11677,1,0,1:0:0:0:
114,24,11756,6,0,L|234:35,1,110,4|0,3:2|3:0,0:0:0:0:
277,95,12224,1,0,3:0:0:0:
217,153,12381,2,0,L|224:219,1,55,0|0,3:0|3:0,0:0:0:0:
280,266,12693,1,0,3:0:0:0:
351,225,12849,1,2,3:2:0:0:
351,225,12927,1,2,3:2:0:0:
351,225,13006,1,6,1:2:0:0:
452,359,14099,6,0,P|418:326|341:317,1,110,6|2,3:2|3:2,0:0:0:0:
292,363,14568,1,0,1:0:0:0:
292,363,14724,1,2,0:0:0:0:
229,308,14881,2,0,L|235:238,1,55,2|0,3:2|3:0,0:0:0:0:
297,200,15193,2,0,L|291:130,1,55,2|0,1:2|0:0,0:0:0:0:
235,84,15506,6,0,P|205:100|174:105,1,55,2|0,3:2|3:0,0:0:0:0:
125,47,15818,2,0,P|95:31|64:26,1,55,2|0,1:2|0:0,0:0:0:0:
8,77,16131,1,2,3:2:0:0:
8,77,16287,1,0,3:0:0:0:
53,145,16443,2,0,L|46:214,1,55,2|0,1:2|0:0,0:0:0:0:
8,273,16756,6,0,P|51:251|121:254,1,110,2|0,3:2|1:0,0:0:0:0:
178,299,17224,1,0,0:0:0:0:
236,239,17381,2,0,L|229:173,1,55,2|2,3:2|3:2,0:0:0:0:
189,112,17693,1,2,1:2:0:0:
256,65,17849,6,0,P|303:79|323:79,1,55,2|0,3:2|0:0,0:0:0:0:
372,25,18162,1,2,3:2:0:0:
371,25,18318,2,0,P|397:14|424:10,1,55,0|0,1:0|0:0,0:0:0:0:
486,65,18631,2,0,L|480:126,1,55,2|0,3:2|3:0,0:0:0:0:
419,174,18943,2,0,L|425:235,1,55,2|0,1:2|0:0,0:0:0:0:
467,299,19256,6,0,P|417:281|361:276,1,110,6|0,3:2|1:0,0:0:0:0:
301,333,19724,1,0,0:0:0:0:
242,273,19881,2,0,P|236:242|240:211,1,55,2|2,3:2|3:2,0:0:0:0:
286,152,20193,1,2,1:2:0:0:
239,84,20349,6,0,P|203:112|132:121,1,110,2|2,0:0|3:2,0:0:0:0:
79,66,20818,1,2,1:2:0:0:
14,116,20974,2,0,L|25:239,1,110,2|2,3:2|3:2,0:0:0:0:
49,258,21365,1,2,3:2:0:0:
49,258,21443,2,0,L|41:334,1,55,6|2,0:0|3:2,0:0:0:0:
103,369,21756,5,4,1:2:0:0:
103,369,21912,1,0,3:0:0:0:
165,315,22068,1,0,3:0:0:0:
228,367,22224,2,0,P|259:353|294:351,1,55,2|0,1:3|0:0,0:0:0:0:
346,301,22537,2,0,P|377:315|412:317,1,55,2|0,1:3|0:0,0:0:0:0:
463,367,22849,6,0,L|451:251,1,110,4|2,3:2|0:0,0:0:0:0:
395,196,23318,1,2,0:0:0:0:
424,119,23474,2,0,P|379:150|318:147,1,110,2|0,0:0|3:0,0:0:0:0:
266,91,23943,1,4,0:3:0:0:
311,249,24256,6,0,P|266:218|205:221,1,110,4|0,3:2|1:2,0:0:0:0:
158,280,24724,1,0,0:0:0:0:
90,232,24881,2,0,L|95:170,1,55,2|2,3:2|3:2,0:0:0:0:
38,116,25193,1,0,1:2:0:0:
38,116,25349,1,0,0:0:0:0:
89,50,25506,6,0,P|132:77|199:81,1,110,2|2,3:2|1:2,0:0:0:0:
256,34,25974,2,0,L|242:167,1,110,2|2,3:2|3:2,0:0:0:0:
180,196,26443,2,0,L|187:259,1,55,2|0,1:2|0:0,0:0:0:0:
248,305,26756,2,0,P|291:281|355:283,1,110,2|0,3:2|1:0,0:0:0:0:
497,357,27381,6,0,L|488:281,1,55,2|0,3:2|3:0,0:0:0:0:
429,247,27693,2,0,L|438:171,1,55,2|0,1:2|0:0,0:0:0:0:
462,114,28006,2,0,P|410:153|360:150,1,110,2|2,3:2|1:2,0:0:0:0:
299,104,28474,2,0,L|312:224,1,110,2|2,3:2|3:2,0:0:0:0:
253,273,28943,2,0,P|215:256|195:255,1,55,0|2,1:0|0:0,0:0:0:0:
137,306,29256,6,0,L|150:186,1,110,4|0,3:2|1:0,0:0:0:0:
93,135,29724,1,0,0:0:0:0:
147,72,29881,2,0,P|185:89|205:90,1,55,2|2,3:2|3:2,0:0:0:0:
263,40,30193,2,0,P|301:23|321:22,1,55,0|2,1:0|3:2,0:0:0:0:
382,68,30506,6,0,P|377:103|375:196,1,110,2|2,3:2|1:2,0:0:0:0:
428,239,30974,1,2,3:2:0:0:
369,297,31131,2,0,L|299:289,1,55,2|0,1:3|0:0,0:0:0:0:
258,229,31443,2,0,L|188:237,1,55,2|0,1:3|0:0,0:0:0:0:
158,304,31756,6,0,L|30:289,2,110,2|0|2,3:0|1:0|3:2,0:0:0:0:
218,360,32537,1,0,3:0:0:0:
273,299,32693,2,0,P|279:259|279:235,1,55,2|0,1:2|0:0,0:0:0:0:
233,175,33006,6,0,L|179:181,2,55,2|2|2,3:2|3:2|1:2,0:0:0:0:
292,118,33474,1,2,1:3:0:0:
429,210,33787,1,2,3:0:0:0:
429,210,33943,2,0,L|421:132,1,55,2|0,1:3|0:0,0:0:0:0:
388,79,34256,6,0,P|353:110|279:114,1,110,4|0,3:2|1:0,0:0:0:0:
223,71,34724,1,0,0:0:0:0:
159,124,34881,2,0,L|165:188,1,55,0|2,3:0|3:2,0:0:0:0:
221,238,35193,1,2,1:2:0:0:
221,238,35349,6,0,P|212:284|207:356,1,110,2|0,3:2|3:0,0:0:0:0:
282,382,35818,2,0,P|316:356|388:352,1,110,0|0,1:0|3:0,0:0:0:0:
458,381,36287,1,0,3:0:0:0:
505,313,36443,2,0,L|499:246,1,55,2|2,1:2|0:0,0:0:0:0:
441,199,36756,6,0,P|407:225|335:229,1,110,2|2,3:2|1:2,0:0:0:0:
282,173,37224,2,0,L|290:95,1,55,2|0,0:0|3:0,0:0:0:0:
232,56,37537,2,0,P|189:69|171:69,1,55,2|0,3:2|1:0,0:0:0:0:
113,19,37849,6,0,L|124:151,1,110,6|0,3:2|3:0,0:0:0:0:
181,186,38318,2,0,L|175:240,1,55,0|2,1:0|0:0,0:0:0:0:
115,298,38631,1,2,3:2:0:0:
115,298,38787,1,2,3:2:0:0:
168,360,38943,2,0,P|212:344|235:341,1,55,2|0,1:2|0:0,0:0:0:0:
293,379,39256,6,0,P|278:334|284:265,1,110,4|2,3:2|1:2,0:0:0:0:
334,209,39724,2,0,L|402:219,1,55,2|0,0:0|3:0,0:0:0:0:
444,143,40037,2,0,L|389:134,1,55,2|0,3:2|1:0,0:0:0:0:
321,88,40349,6,0,P|295:125|217:135,1,110,2|0,0:0|3:0,0:0:0:0:
169,88,40818,1,0,1:2:0:0:
169,88,40974,1,0,3:0:0:0:
108,144,41131,2,0,L|115:208,1,55,2|0,1:3|0:0,0:0:0:0:
189,281,41443,2,0,L|196:217,1,55,2|0,1:3|0:0,0:0:0:0:
257,171,41756,6,0,B|317:164|300:191|373:183,1,110,4|0,3:2|1:0,0:0:0:0:
430,133,42224,1,0,0:0:0:0:
494,184,42381,2,0,L|489:249,1,55,0|2,3:0|3:2,0:0:0:0:
423,288,42693,2,0,P|381:271|367:269,1,55,2|0,1:2|0:0,0:0:0:0:
305,320,43006,5,2,3:2:0:0:
305,320,43162,1,2,3:2:0:0:
237,272,43318,2,0,L|242:216,1,55,2|0,1:2|0:0,0:0:0:0:
261,137,43630,2,0,P|219:172|161:181,1,110,2|2,3:2|1:2,0:0:0:0:
88,152,44099,1,2,0:0:0:0:
24,205,44256,6,0,B|13:256|13:256|26:317,2,110,4|0|2,3:2|1:0|3:2,0:0:0:0:
3,124,45037,1,0,3:0:0:0:
62,67,45193,2,0,P|89:84|120:90,1,55,0|0,1:0|0:0,0:0:0:0:
191,69,45506,6,0,L|178:193,1,110,2|0,3:2|1:0,0:0:0:0:
167,259,45974,1,0,3:0:0:0:
231,309,46131,2,0,P|280:291|341:296,1,110,2|0,0:0|1:0,0:0:0:0:
399,348,46599,1,0,3:0:0:0:
462,293,46756,6,0,L|456:232,1,55,4|0,1:2|3:0,0:0:0:0:
399,178,47068,1,4,0:3:0:0:
399,178,47224,2,0,L|405:117,1,55,4|4,1:2|3:0,0:0:0:0:
418,41,47537,1,0,3:0:0:0:
346,0,47693,1,0,1:0:0:0:
276,44,47849,1,0,3:0:0:0:
276,44,47927,1,0,3:0:0:0:
276,44,48006,6,0,L|287:162,1,110,4|2,3:2|0:2,0:0:0:0:
209,300,48631,2,0,P|261:275|325:286,1,110,2|2,0:2|3:2,0:0:0:0:
456,360,49256,6,0,P|445:292|439:192,1,165,4|0,3:2|3:0,0:0:0:0:
461,116,49881,2,0,P|400:160|361:158,1,110,0|0,3:0|0:0,0:0:0:0:
224,76,50506,1,0,3:0:0:0:
224,76,50662,2,0,L|234:200,1,110,0|0,3:0|3:0,0:0:0:0:
175,245,51131,2,0,P|132:223|66:222,1,110,0|0,3:0|1:0,0:0:0:0:
27,61,51756,6,0,P|70:83|136:84,1,110,0|0,3:0|0:0,0:0:0:0:
191,140,52224,1,0,3:0:0:0:
191,140,52381,2,0,P|189:87|179:9,2,110,0|0|0,3:0|0:0|3:0,0:0:0:0:
157,215,53162,2,0,P|121:199|46:192,2,110,0|0|0,3:0|3:0|3:0,0:0:0:0:
213,274,53943,2,0,L|287:267,1,55,4|0,1:2|0:0,0:0:0:0:
328,324,54256,6,0,P|352:270|284:188,1,165,4|0,3:2|3:0,0:0:0:0:
212,192,54881,2,0,L|225:79,1,110,0|0,3:0|1:0,0:0:0:0:
374,13,55506,1,0,3:0:0:0:
374,13,55662,2,0,L|387:126,1,110,0|0,3:0|3:0,0:0:0:0:
325,178,56131,2,0,L|312:291,1,110,0|0,3:0|1:0,0:0:0:0:
251,343,56599,1,0,0:0:0:0:
181,297,56756,6,0,L|144:301,2,36.6666666666667,2|0|0,3:2|0:0|0:0,0:0:0:0:
203,220,57068,2,0,L|240:216,2,36.6666666666667,2|0|0,0:0|0:0|0:0,0:0:0:0:
140,163,57381,2,0,P|121:135|122:54,1,110,2|0,3:2|1:0,0:0:0:0:
182,8,57849,1,0,0:0:0:0:
245,60,58006,5,2,3:2:0:0:
245,60,58162,2,0,L|319:53,1,55,0|0,1:0|0:0,0:0:0:0:
362,0,58474,2,0,L|436:7,1,55,0|2,3:0|0:0,0:0:0:0:
477,61,58787,2,0,L|513:57,2,27.5,0|0|0,3:0|3:0|1:0,0:0:0:0:
422,122,59099,6,0,P|426:164|430:245,1,110,4|0,3:2|3:0,0:0:0:0:
368,287,59568,2,0,P|322:275|310:275,1,55,2|0,1:2|0:0,0:0:0:0:
243,316,59881,2,0,L|237:380,2,55,0|0|0,3:0|3:0|1:0,0:0:0:0:
188,253,60349,6,0,L|180:135,1,110,2|0,3:2|3:0,0:0:0:0:
251,100,60818,2,0,P|297:112|309:112,1,55,0|0,1:0|0:0,0:0:0:0:
376,71,61131,2,0,L|382:7,2,55,0|0|0,3:0|3:0|1:0,0:0:0:0:
435,128,61599,6,0,L|447:249,1,110,6|0,3:2|3:0,0:0:0:0:
393,301,62068,1,0,1:0:0:0:
319,262,62224,2,0,P|290:255|262:254,1,55,0|0,0:0|3:0,0:0:0:0:
210,316,62537,2,0,P|181:323|153:324,1,55,0|0,3:0|1:0,0:0:0:0:
87,277,62849,6,0,P|102:220|91:168,1,110,6|0,3:2|3:0,0:0:0:0:
37,108,63318,1,0,1:0:0:0:
100,55,63474,2,0,L|165:60,1,55,0|0,3:0|0:0,0:0:0:0:
218,130,63787,1,0,3:0:0:0:
218,130,63865,1,0,3:0:0:0:
218,130,63943,2,0,L|283:125,1,55,4|0,1:2|0:0,0:0:0:0:
333,69,64256,6,0,L|398:74,1,55,0|4,1:0|0:3,0:0:0:0:
441,136,64568,1,0,3:0:0:0:
441,136,64724,1,4,1:2:0:0:
351,274,65037,6,0,L|336:164,1,110,2|2,1:2|1:2,0:0:0:0:
222,45,65662,1,2,1:2:0:0:
107,163,65974,2,0,L|92:272,1,110,2|2,1:2|1:2,0:0:0:0:
234,357,66599,6,0,P|276:332|348:326,1,110,6|0,3:2|3:0,0:0:0:0:
399,271,67068,2,0,L|464:277,2,55,0|0|0,1:0|3:0|1:0,0:0:0:0:
349,204,67537,1,2,3:2:0:0:
394,135,67693,1,2,1:2:0:0:
344,69,67849,6,0,L|224:81,1,110,6|2,3:2|1:2,0:0:0:0:
182,144,68318,1,2,1:2:0:0:
42,30,68787,5,0,3:0:0:0:
42,30,68865,1,0,3:0:0:0:
42,30,68943,2,0,P|54:79|52:92,1,55,4|0,1:2|0:0,0:0:0:0:
15,169,69256,6,0,P|53:138|145:143,1,121.000003692627,6|0,3:2|1:0,0:0:0:0:
193,190,69724,1,2,0:0:0:0:
267,137,69881,2,0,L|259:62,1,60.5000018463135,2|0,3:2|3:0,0:0:0:0:
332,21,70193,2,0,P|372:39|397:40,1,60.5000018463135,0|2,1:0|0:0,0:0:0:0:
475,12,70506,6,0,L|465:148,1,121.000003692627,2|0,3:2|1:0,0:0:0:0:
402,196,70974,1,2,0:0:0:0:
325,148,71131,2,0,P|283:136|261:137,1,60.5000018463135,2|0,3:2|3:0,0:0:0:0:
204,201,71443,2,0,L|210:261,1,60.5000018463135,0|2,1:0|0:0,0:0:0:0:
255,340,71756,6,0,P|209:313|135:321,1,121.000003692627,2|2,3:2|1:2,0:0:0:0:
59,352,72224,2,0,L|70:232,1,121.000003692627,2|2,3:2|3:2,0:0:0:0:
12,160,72693,1,0,1:0:0:0:
80,100,72849,6,0,B|152:92|128:121|206:114,1,121.000003692627,2|0,3:2|3:0,0:0:0:0:
272,60,73318,1,0,1:0:0:0:
272,60,73474,1,0,0:0:0:0:
337,123,73631,2,0,L|330:197,1,60.5000018463135,2|0,3:2|3:0,0:0:0:0:
256,234,73943,2,0,L|263:308,1,60.5000018463135,2|0,1:2|0:0,0:0:0:0:
312,369,74256,6,0,P|346:347|427:343,1,121.000003692627,6|0,3:2|1:0,0:0:0:0:
511,366,74724,2,0,L|504:305,1,60.5000018463135,2|0,0:0|3:0,0:0:0:0:
435,246,75037,2,0,L|442:185,1,60.5000018463135,2|0,3:2|1:0,0:0:0:0:
473,100,75349,6,0,P|429:139|354:140,1,121.000003692627,6|0,3:2|3:0,0:0:0:0:
299,97,75818,1,2,1:2:0:0:
299,97,75974,2,0,P|311:180|314:232,1,121.000003692627,2|0,0:0|3:0,0:0:0:0:
252,284,76443,1,2,1:2:0:0:
173,238,76599,1,2,0:0:0:0:
90,277,76756,6,0,B|68:238|68:238|78:158,1,121.000003692627,6|0,3:2|1:0,0:0:0:0:
159,92,77224,2,0,L|164:155,1,60.5000018463135,2|0,3:2|0:0,0:0:0:0:
244,225,77537,2,0,L|249:162,1,60.5000018463135,2|0,3:2|1:0,0:0:0:0:
305,93,77849,6,0,P|346:116|420:108,1,121.000003692627,4|0,3:2|3:0,0:0:0:0:
482,173,78318,1,0,1:0:0:0:
417,237,78474,2,0,L|414:281,2,30.2500009231568,0|0|0,3:0|3:0|1:0,0:0:0:0:
337,191,78787,2,0,L|334:147,2,30.2500009231568,0|0|0,3:0|3:0|1:0,0:0:0:0:
272,255,79099,1,0,1:0:0:0:
272,255,79177,1,0,1:0:0:0:
272,255,79256,6,0,B|200:263|224:234|146:241,1,121.000003692627,4|0,3:2|1:0,0:0:0:0:
88,303,79724,1,2,0:0:0:0:
23,239,79881,2,0,L|30:159,1,60.5000018463135,2|0,3:2|3:0,0:0:0:0:
90,112,80193,2,0,P|130:130|155:131,1,60.5000018463135,0|2,1:0|0:0,0:0:0:0:
221,80,80506,6,0,P|263:67|344:63,1,121.000003692627,2|0,3:2|1:0,0:0:0:0:
412,114,80974,1,2,0:0:0:0:
358,189,81131,2,0,L|364:249,1,60.5000018463135,2|0,3:2|3:0,0:0:0:0:
295,308,81443,2,0,P|253:291|231:290,1,60.5000018463135,0|2,1:0|0:0,0:0:0:0:
165,345,81756,6,0,B|150:287|150:287|169:219,1,121.000003692627,4|0,3:2|1:0,0:0:0:0:
226,159,82224,2,0,L|213:78,1,60.5000018463135,0|0,1:0|0:0,0:0:0:0:
139,10,82537,2,0,L|126:91,1,60.5000018463135,0|0,1:0|0:0,0:0:0:0:
56,123,82849,6,0,L|73:257,1,121.000003692627,4|0,3:2|3:0,0:0:0:0:
136,307,83318,2,0,P|179:288|204:288,1,60.5000018463135,0|0,1:2|0:0,0:0:0:0:
271,331,83631,1,2,3:2:0:0:
271,331,83787,1,0,3:0:0:0:
342,275,83943,2,0,L|336:214,1,60.5000018463135,2|0,1:2|0:0,0:0:0:0:
294,133,84256,6,0,P|327:159|409:159,1,121.000003692627,4|0,3:2|1:0,0:0:0:0:
477,109,84724,1,0,0:0:0:0:
510,193,84881,2,0,L|505:323,1,121.000003692627,2|0,3:2|1:0,0:0:0:0:
432,367,85349,1,0,0:0:0:0:
357,314,85506,6,0,P|307:288|240:280,1,121.000003692627,2|0,3:2|1:0,0:0:0:0:
171,335,85974,1,0,0:0:0:0:
100,277,86131,2,0,L|107:207,1,60.5000018463135,2|0,3:2|3:0,0:0:0:0:
172,155,86443,2,0,P|207:175|241:181,1,60.5000018463135,2|4,1:2|0:3,0:0:0:0:
308,118,86756,6,0,L|315:188,1,60.5000018463135,2|4,1:2|0:3,0:0:0:0:
325,269,87068,1,2,3:2:0:0:
394,153,87224,2,0,L|401:223,1,60.5000018463135,2|4,1:2|0:3,0:0:0:0:
411,304,87536,1,2,3:2:0:0:
482,180,87693,2,0,L|489:250,1,60.5000018463135,2|2,1:2|0:0,0:0:0:0:
499,331,88005,1,4,1:2:0:0:
281,377,88474,5,0,3:0:0:0:
281,377,88552,1,0,3:0:0:0:
281,377,88631,1,2,1:2:0:0:
289,291,88787,2,0,L|296:221,1,60.5000018463135,2|0,1:2|0:0,0:0:0:0:
234,175,89099,6,0,B|200:207|116:176|131:85|175:35|259:26|295:105|323:160|397:138|459:106,1,423.500012924195,4|0,3:2|0:0,0:0:0:0:
501,180,90349,5,0,3:0:0:0:
501,180,90427,1,0,3:0:0:0:
501,180,90506,1,2,1:2:0:0:
431,238,90662,2,0,L|370:231,1,60.5000018463135,2|0,0:0|3:0,0:0:0:0:
318,157,90974,1,2,1:2:0:0:
