osu file format v14

[General]
AudioFilename: audio.mp3
AudioLeadIn: 0
PreviewTime: 179914
Countdown: 0
SampleSet: Soft
StackLeniency: 0.4
Mode: 0
LetterboxInBreaks: 0
WidescreenStoryboard: 1

[Editor]
Bookmarks: 48664,85997,129997
DistanceSpacing: 1
BeatDivisor: 2
GridSize: 32
TimelineZoom: 1.6

[Metadata]
Title:Clione no Akari
TitleUnicode:クリオネの灯り
Artist:aki
ArtistUnicode:aki
Creator:MiyohashiKoori
Version:GfMRT's Hard
Source:クリオネの灯り
Tags:Flask GfMRT ThoG11k 出口陽 Deguchi Aki japanese anime pop opening op
BeatmapID:2241923
BeatmapSetID:1013752

[Difficulty]
HPDrainRate:5.1
CircleSize:3.9
OverallDifficulty:5.8
ApproachRate:8
SliderMultiplier:1.55
SliderTickRate:1

[Events]
//Background and Video events
0,0,"75727874_p0_master1200.png",0,0
//Break Periods
//Storyboard Layer 0 (Background)
//Storyboard Layer 1 (Fail)
//Storyboard Layer 2 (Pass)
//Storyboard Layer 3 (Foreground)
//Storyboard Layer 4 (Overlay)
//Storyboard Sound Samples

[TimingPoints]
3202,333.333333333333,4,2,23,50,1,0
3285,-100,4,2,13,60,0,0
16535,-100,4,2,23,50,0,0
16618,-100,4,2,13,40,0,0
37868,-100,4,2,23,50,0,0
37951,-100,4,2,13,60,0,0
61868,-100,4,2,23,70,0,1
61951,-100,4,2,13,70,0,1
85868,-100,4,2,23,70,0,0
85951,-100,4,2,13,60,0,0
94368,-100,4,2,13,50,0,0
95035,-100,4,2,13,50,0,0
96535,-100,4,2,13,30,0,0
97285,-100,4,2,13,50,0,0
97868,-100,4,2,23,50,0,0
97951,-100,4,2,13,40,0,0
119201,-100,4,2,23,50,0,0
119285,-100,4,2,13,60,0,0
143201,-100,4,2,23,70,0,1
143285,-100,4,2,13,70,0,1
167201,-100,4,2,23,70,0,0
167285,-100,4,2,13,60,0,0
177868,-100,4,2,13,70,0,0
180535,-100,4,2,23,70,0,1
180618,-100,4,2,13,70,0,1
203201,-100,4,2,13,30,0,0
205868,-100,4,2,13,40,0,0
206035,-100,4,2,13,45,0,0
206201,-100,4,2,13,50,0,0
206368,-100,4,2,13,55,0,0
207201,-100,4,2,23,60,0,0
207285,-100,4,2,13,60,0,0
220535,375,4,2,13,40,1,0
220535,-100,4,2,13,40,0,0
222785,382.165605095541,4,2,13,40,1,0
222785,-100,4,2,13,40,0,0
223549,375,4,2,13,50,1,0
223549,-100,4,2,13,50,0,0
225049,-100,4,2,13,25,0,0
226924,-100,4,2,13,5,0,0

[Colours]
Combo1 : 237,231,143
Combo2 : 230,111,107
Combo3 : 252,160,202
Combo4 : 206,143,89

[HitObjects]
261,267,3201,6,0,P|185:269|115:238,1,155,12|8,0:0|0:0,0:0:0:0:
77,170,3701,1,0,0:0:0:0:
77,170,3868,2,0,P|72:132|81:95,2,77.5,2|0|8,0:0|0:0|0:0,0:0:0:0:
230,140,4535,6,0,P|267:149|305:144,1,77.5,6|0,0:0|0:0,0:0:0:0:
378,117,4868,2,0,P|415:107|453:112,1,77.5,8|0,0:0|0:0,0:0:0:0:
511,164,5201,2,0,L|504:252,2,77.5,2|8|8,0:0|0:0|0:0,0:0:0:0:
483,11,5868,6,0,P|411:28|327:13,1,155,6|8,0:0|0:0,0:0:0:0:
254,11,6368,1,0,0:0:0:0:
199,65,6535,2,0,P|185:140|203:215,1,155,2|8,0:0|0:0,0:0:0:0:
237,285,7035,1,0,0:0:0:0:
312,268,7201,6,0,P|374:261|404:270,1,77.5,6|0,0:0|0:0,0:0:0:0:
457,299,7535,2,0,P|461:260|453:222,1,77.5,8|0,0:0|0:0,0:0:0:0:
410,157,7868,2,0,P|402:120|407:81,2,77.5,2|8|8,0:0|0:0|0:0,0:0:0:0:
261,201,8535,6,0,P|224:211|186:209,1,77.5,6|0,0:0|0:0,0:0:0:0:
117,170,8868,2,0,P|79:159|41:161,1,77.5,8|0,0:0|0:0,0:0:0:0:
71,232,9201,2,0,P|72:270|61:307,2,77.5,2|0|8,0:0|0:0|0:0,0:0:0:0:
34,81,9868,6,0,P|71:71|109:73,1,77.5,6|0,0:0|0:0,0:0:0:0:
179,106,10201,2,0,P|217:117|255:115,1,77.5,8|0,0:0|0:0,0:0:0:0:
330,96,10535,1,2,0:0:0:0:
330,96,10701,1,8,0:0:0:0:
391,144,10868,2,0,L|375:236,1,77.5,8|0,0:0|0:0,0:0:0:0:
351,293,11201,6,0,P|276:327|269:258,1,155,6|8,0:0|0:0,0:0:0:0:
184,260,11701,1,0,0:0:0:0:
184,260,11868,2,0,P|109:294|102:225,1,155,2|8,0:0|0:0,0:0:0:0:
136,180,12368,1,0,0:0:0:0:
136,180,12535,6,0,P|175:123|229:166,1,155,6|8,0:0|0:0,0:0:0:0:
303,147,13035,1,0,0:0:0:0:
303,147,13201,2,0,P|342:90|396:133,1,155,2|8,0:0|0:0,0:0:0:0:
443,207,13701,1,0,0:0:0:0:
443,207,13785,1,0,0:0:0:0:
443,207,13868,6,0,P|363:232|279:234,2,155,6|8|2,0:0|0:0|0:0,0:0:0:0:
483,140,14701,2,0,L|492:42,1,77.5,0|8,0:0|0:0,0:0:0:0:
415,40,15035,6,0,P|335:65|251:67,1,155,0|0,0:0|0:0,0:0:0:0:
186,65,15535,2,0,P|188:130|182:163,1,77.5,12|0,0:0|0:0,0:0:0:0:
149,210,15868,2,0,L|157:276,2,38.75,6|2|10,0:0|0:0|0:0,0:0:0:0:
81,171,16201,1,10,0:0:0:0:
9,200,16368,1,10,0:0:0:0:
9,200,16451,1,2,0:0:0:0:
9,200,16535,5,4,0:0:0:0:
218,300,17035,2,0,B|210:353,2,38.75,0|0|0,0:0|0:0|0:0,0:0:0:0:
10,354,17868,2,0,P|3:275|12:182,1,155,2|0,0:0|0:0,0:0:0:0:
71,153,18368,2,0,P|78:74|69:-19,2,155,0|0|0,0:0|0:0|0:0,0:0:0:0:
90,228,19201,6,0,B|156:270|185:346|185:346|169:268|193:190,1,310,2|0,0:0|0:0,0:0:0:0:
237,130,20035,2,0,P|200:117|162:120,2,77.5
310,154,20535,2,0,P|373:165|458:131,1,155,2|0,0:0|0:0,0:0:0:0:
482,285,21201,2,0,P|419:274|334:308,1,155,0|0,0:0|0:0,0:0:0:0:
181,277,21868,6,0,P|193:179|316:157,1,232.5,2|0,0:0|0:0,0:0:0:0:
381,181,22535,2,0,P|481:158|500:96,1,155,0|0,0:0|0:0,0:0:0:0:
509,40,23035,2,0,L|513:-1,2,38.75,0|0|2,0:0|0:0|0:0,0:0:0:0:
354,29,23535,1,0,0:0:0:0:
381,181,23868,1,0,0:0:0:0:
226,170,24201,1,0,0:0:0:0:
253,322,24535,6,0,P|274:267|363:303,1,155,2|0,0:0|0:0,0:0:0:0:
403,342,25035,1,0,0:0:0:0:
468,382,25201,2,0,B|500:335|471:296|441:271|444:223|471:205,1,155,0|0,0:0|0:0,0:0:0:0:
471,158,25701,1,0,0:0:0:0:
471,158,25785,1,0,0:0:0:0:
471,158,25868,5,2,0:0:0:0:
371,39,26201,1,0,0:0:0:0:
222,85,26535,2,0,L|232:179,1,77.5,2|0,0:0|0:0,0:0:0:0:
277,223,26868,2,0,P|239:235|184:226,1,77.5,0|0,0:0|0:0,0:0:0:0:
152,172,27201,6,0,L|134:7,1,155,2|0,0:0|0:0,0:0:0:0:
214,7,27701,1,0,0:0:0:0:
214,7,27785,1,0,0:0:0:0:
214,7,27868,2,0,L|231:171,1,155
356,251,28535,2,0,P|384:172|355:86,1,155,2|0,0:0|0:0,0:0:0:0:
365,28,29035,2,0,P|436:0|511:16,2,155,0|0|0,0:0|0:0|0:0,0:0:0:0:
297,71,29868,6,0,P|214:87|141:77,1,155,2|0,0:0|0:0,0:0:0:0:
73,47,30368,1,0,0:0:0:0:
5,186,30701,1,0,0:0:0:0:
5,186,30868,2,0,L|22:288,1,77.5,0|0,0:0|0:0,0:0:0:0:
52,331,31201,2,0,B|119:365|119:365|202:353,1,155,2|0,0:0|0:0,0:0:0:0:
275,236,31868,2,0,B|208:202|208:202|129:214,1,155,0|0,0:0|0:0,0:0:0:0:
198,353,32535,6,0,B|256:383|320:386|371:369|395:338|401:278,1,232.5,2|0,0:0|0:0,0:0:0:0:
377,231,33201,2,0,P|359:178|335:57,1,155
284,27,33701,1,0,0:0:0:0:
208,44,33868,2,0,P|159:53|130:52,1,77.5,2|0,0:0|0:0,0:0:0:0:
53,49,34201,2,0,P|61:86|61:125,1,77.5,0|0,0:0|0:0,0:0:0:0:
55,203,34535,2,0,P|104:194|132:194,1,77.5,0|0,0:0|0:0,0:0:0:0:
210,198,34868,2,0,P|201:160|201:121,1,77.5,0|0,0:0|0:0,0:0:0:0:
208,44,35201,6,0,B|211:40|285:7|376:62,1,155,2|0,0:0|0:0,0:0:0:0:
429,80,35701,1,0,0:0:0:0:
429,80,35868,2,0,P|483:38|506:102,1,155,0|0,0:0|0:0,0:0:0:0:
452,154,36368,1,0,0:0:0:0:
433,229,36535,6,0,P|419:273|407:329,1,77.5,2|0,0:0|0:0,0:0:0:0:
351,352,36868,2,0,P|306:338|251:326,1,77.5,2|0,0:0|0:0,0:0:0:0:
198,334,37201,2,0,P|153:347|98:360,1,77.5,2|8,0:0|0:0,0:0:0:0:
45,351,37535,1,2,0:0:0:0:
45,351,37618,1,2,0:0:0:0:
45,351,37701,1,8,0:0:0:0:
13,279,37868,6,0,B|0:210|32:202|51:178|41:118,1,155,6|8,0:0|0:0,0:0:0:0:
89,69,38368,2,0,P|155:53|264:53,2,155,0|0|2,0:0|0:0|0:0,0:0:0:0:
42,130,39201,2,0,L|71:283,1,155,2|8,0:0|0:0,0:0:0:0:
79,359,39701,2,0,B|147:343|142:310|154:273|216:269,1,155,0|0,0:0|0:0,0:0:0:0:
277,274,40201,2,0,L|362:283,1,77.5,8|2,0:0|0:0,0:0:0:0:
368,359,40535,6,0,L|209:343,1,155,6|8,0:0|0:0,0:0:0:0:
141,315,41035,2,0,P|100:279|78:237,1,77.5,0|2,0:0|0:0,0:0:0:0:
46,194,41368,2,0,P|100:176|144:182,2,77.5,0|8|0,0:0|0:0|0:0,0:0:0:0:
25,119,41868,6,0,P|47:63|142:71,1,155,2|8,0:0|0:0,0:0:0:0:
182,120,42368,2,0,L|341:136,1,155,2|0,0:0|0:0,0:0:0:0:
413,142,42868,1,8,0:0:0:0:
336,7,43201,6,0,P|285:46|266:83,1,77.5,6|0,0:0|0:0,0:0:0:0:
259,132,43535,1,8,0:0:0:0:
259,132,43701,2,0,P|172:148|98:120,2,155,0|2|10,0:0|0:0|0:0,0:0:0:0:
336,132,44535,1,2,0:0:0:0:
336,132,44701,1,0,0:0:0:0:
413,142,44868,2,0,P|402:89|368:54,1,77.5,8|0,0:0|0:0,0:0:0:0:
316,42,45201,2,0,P|274:42|230:30,2,77.5,2|0|8,0:0|0:0|0:0,0:0:0:0:
471,43,45868,6,0,B|468:113|434:225,1,155,6|8,0:0|0:0,0:0:0:0:
413,267,46368,1,0,0:0:0:0:
413,267,46535,2,0,B|344:257|253:207,1,155,2|8,0:0|0:0,0:0:0:0:
209,168,47035,1,0,0:0:0:0:
209,168,47201,2,0,B|195:63|195:63|191:37|162:21,1,155,2|8,0:0|0:0,0:0:0:0:
90,31,47701,5,0,0:0:0:0:
30,81,47868,2,0,P|37:125|57:161,1,77.5,2|0,0:0|0:0,0:0:0:0:
130,150,48201,2,0,P|149:109|177:79,1,77.5,8|0,0:0|0:0,0:0:0:0:
229,33,48535,6,0,P|306:24|395:24,1,155,6|8,0:0|0:0,0:0:0:0:
397,99,49035,2,0,P|320:108|231:108,2,155,0|2|0,0:0|0:0|0:0,0:0:0:0:
453,46,49868,2,0,L|416:294,1,232.5,2|0,0:0|0:0,0:0:0:0:
399,351,50535,2,0,P|321:368|247:353,1,155,2|8,0:0|0:0,0:0:0:0:
202,291,51035,1,0,0:0:0:0:
202,291,51201,6,0,P|193:215|192:137,1,155,6|8,0:0|0:0,0:0:0:0:
269,128,51701,2,0,P|277:205|278:283,2,155,0|2|0,0:0|0:0|0:0,0:0:0:0:
220,66,52535,2,0,P|139:6|175:110,1,232.5,2|0,0:0|0:0,0:0:0:0:
192,136,53201,2,0,P|201:194|201:248,1,77.5,2|0,0:0|0:0,0:0:0:0:
202,291,53535,1,8,0:0:0:0:
202,291,53618,1,0,0:0:0:0:
202,291,53701,1,8,0:0:0:0:
123,303,53868,6,0,P|74:290|41:260,1,77.5,6|0,0:0|0:0,0:0:0:0:
21,203,54201,1,8,0:0:0:0:
21,203,54368,2,0,P|34:154|64:121,1,77.5,0|2,0:0|0:0,0:0:0:0:
122,107,54701,2,0,P|171:120|204:150,1,77.5,2|8,0:0|0:0,0:0:0:0:
212,211,55035,2,0,B|222:269|202:283|184:295|189:347|214:370,1,155,0|0,0:0|0:0,0:0:0:0:
271,318,55535,2,0,P|324:318|398:396,2,155,8|2|8,0:0|0:0|0:0,0:0:0:0:
124,369,56535,6,0,B|73:348|31:349|31:349|53:323|55:294,1,155,6|8,0:0|0:0,0:0:0:0:
53,141,57201,2,0,B|45:63|38:40|35:37,2,77.5,2|0|8,0:0|0:0|0:0,0:0:0:0:
128,171,57701,6,0,P|206:108|119:100,1,232.5,2|8,0:0|0:0,0:0:0:0:
37,219,58535,2,0,L|54:295,1,77.5,2|0,0:0|0:0,0:0:0:0:
109,365,58868,1,8,0:0:0:0:
109,365,58951,1,0,0:0:0:0:
109,365,59035,1,0,0:0:0:0:
184,382,59201,6,0,L|360:340,1,155,6|8,0:0|0:0,0:0:0:0:
317,270,59701,2,0,L|140:311,1,155,6|8,0:0|0:0,0:0:0:0:
149,229,60201,2,0,L|224:211,1,77.5,6|0,0:0|0:0,0:0:0:0:
300,195,60535,5,14,0:0:0:0:
376,215,60701,1,8,0:0:0:0:
418,153,60868,1,14,0:0:0:0:
370,93,61035,1,8,0:0:0:0:
295,114,61201,2,0,B|254:114|223:105|217:49|117:68,1,155,2|2,0:0|0:0,0:0:0:0:
11,130,61868,6,0,P|19:208|35:288,1,155,4|8,0:0|0:0,0:0:0:0:
59,356,62368,1,0,0:0:0:0:
59,356,62535,2,0,P|137:348|217:332,1,155,2|8,0:0|0:0,0:0:0:0:
241,261,63035,1,0,0:0:0:0:
241,261,63201,6,0,P|288:240|327:236,1,77.5,6|0,0:0|0:0,0:0:0:0:
391,233,63535,2,0,P|412:280|416:319,1,77.5,8|8,0:0|0:0,0:0:0:0:
350,347,63868,2,0,P|303:368|264:372,1,77.5,2|2,0:0|0:0,0:0:0:0:
212,333,64201,1,8,0:0:0:0:
212,333,64368,1,0,0:0:0:0:
159,275,64535,6,0,P|139:209|193:132,1,155,6|8,0:0|0:0,0:0:0:0:
254,113,65035,1,0,0:0:0:0:
330,123,65201,2,0,P|407:118|483:102,2,155,2|8|6,0:0|0:0|0:0,0:0:0:0:
348,277,66201,1,8,0:0:0:0:
348,277,66368,2,0,P|425:272|501:256,1,155,8|8,0:0|0:0,0:0:0:0:
499,178,66868,1,8,0:0:0:0:
499,178,67035,1,2,0:0:0:0:
419,196,67201,6,0,P|411:141|408:40,1,155,6|8,0:0|0:0,0:0:0:0:
483,22,67701,1,0,0:0:0:0:
486,99,67868,2,0,P|431:107|330:110,1,155,2|8,0:0|0:0,0:0:0:0:
255,122,68368,1,0,0:0:0:0:
240,197,68535,6,0,P|304:264|368:244,2,155,6|8|2,0:0|0:0|0:0,0:0:0:0:
181,145,69368,1,8,0:0:0:0:
181,145,69535,2,0,P|139:138|104:149,1,77.5,8|0,0:0|0:0,0:0:0:0:
57,208,69868,6,0,P|126:266|189:241,1,155,6|8,0:0|0:0,0:0:0:0:
239,197,70368,1,2,0:0:0:0:
307,160,70535,2,0,P|346:151|409:161,1,77.5,2|8,0:0|0:0,0:0:0:0:
451,201,70868,1,8,0:0:0:0:
451,201,71035,1,2,0:0:0:0:
463,277,71201,6,0,L|420:359,1,77.5,6|10,0:0|0:0,0:0:0:0:
350,351,71535,2,0,L|250:387,1,77.5,10|10,0:0|0:0,0:0:0:0:
212,334,71868,2,0,L|112:297,1,77.5,6|8,0:0|0:0,0:0:0:0:
74,264,72201,1,10,0:0:0:0:
74,264,72285,1,10,0:0:0:0:
74,264,72368,1,10,0:0:0:0:
91,184,72535,6,0,P|150:149|189:226,1,155,6|8,0:0|0:0,0:0:0:0:
273,230,73035,1,0,0:0:0:0:
273,230,73201,2,0,P|332:195|371:272,1,155,2|8,0:0|0:0,0:0:0:0:
455,276,73701,1,0,0:0:0:0:
455,276,73868,6,0,P|479:239|487:184,1,77.5,6|0,0:0|0:0,0:0:0:0:
424,160,74201,2,0,P|416:116|383:72,1,77.5,8|0,0:0|0:0,0:0:0:0:
325,112,74535,2,0,P|289:86|234:78,1,77.5,2|0,0:0|0:0,0:0:0:0:
191,119,74868,1,8,0:0:0:0:
191,119,75035,1,8,0:0:0:0:
184,196,75201,6,0,B|219:230|218:267|218:267|234:230|274:208,1,155,6|8,0:0|0:0,0:0:0:0:
347,212,75701,1,0,0:0:0:0:
347,212,75868,2,0,L|388:54,2,155,2|8|6,0:0|0:0|0:0,0:0:0:0:
385,362,76868,1,8,0:0:0:0:
461,348,77035,6,0,L|518:332,2,38.75,8|0|2,0:0|0:0|0:0,0:0:0:0:
411,287,77368,1,8,0:0:0:0:
442,215,77535,1,8,0:0:0:0:
442,215,77701,1,8,0:0:0:0:
498,161,77868,6,0,P|475:97|421:137,1,155,6|8,0:0|0:0,0:0:0:0:
367,193,78368,1,2,0:0:0:0:
303,333,78701,1,8,0:0:0:0:
225,333,78868,2,0,P|187:323|151:310,1,77.5,8|0,0:0|0:0,0:0:0:0:
91,261,79201,6,0,P|113:197|167:237,1,155,6|8,0:0|0:0,0:0:0:0:
244,226,79701,1,2,0:0:0:0:
244,226,79868,2,0,P|266:162|320:202,1,155,2|8,0:0|0:0,0:0:0:0:
351,273,80368,1,0,0:0:0:0:
296,330,80535,6,0,L|132:360,1,155,6|8,0:0|0:0,0:0:0:0:
68,339,81035,1,0,0:0:0:0:
88,185,81368,1,8,0:0:0:0:
163,170,81535,2,0,P|201:161|238:147,1,77.5,8|0,0:0|0:0,0:0:0:0:
299,101,81868,6,0,P|276:37|222:77,1,155,6|8,0:0|0:0,0:0:0:0:
146,66,82368,1,8,0:0:0:0:
146,66,82535,2,0,P|123:2|69:42,1,155,2|8,0:0|0:0,0:0:0:0:
51,118,83035,1,2,0:0:0:0:
89,185,83201,6,0,L|108:259,1,77.5,14|0,0:0|0:0,0:0:0:0:
181,287,83535,2,0,L|200:361,1,77.5,10|0,0:0|0:0,0:0:0:0:
278,362,83868,2,0,L|297:287,1,77.5,14|0,0:0|0:0,0:0:0:0:
370,260,84201,2,0,L|389:185,1,77.5,10|0,0:0|0:0,0:0:0:0:
444,130,84535,5,14,0:0:0:0:
444,130,84701,1,0,0:0:0:0:
368,111,84868,1,10,0:0:0:0:
368,111,85035,1,0,0:0:0:0:
293,89,85201,2,0,P|279:42|277:7,2,77.5,14|0|10,0:0|0:0|0:0,0:0:0:0:
315,172,85701,1,2,0:0:0:0:
315,172,85785,1,2,0:0:0:0:
315,172,85868,6,0,P|222:159|157:169,1,155,4|8,0:0|0:0,0:0:0:0:
120,232,86368,1,0,0:0:0:0:
120,232,86535,2,0,P|84:161|152:90,1,155,2|8,0:0|0:0,0:0:0:0:
261,162,87201,6,0,P|280:194|312:215,1,77.5,6|0,0:0|0:0,0:0:0:0:
367,271,87535,2,0,P|387:241|392:201,1,77.5,8|0,0:0|0:0,0:0:0:0:
415,127,87868,2,0,P|376:125|341:141,2,77.5,2|8|8,0:0|0:0|0:0,0:0:0:0:
511,248,88535,6,0,P|479:355|448:384,1,155,6|8,0:0|0:0,0:0:0:0:
375,357,89035,1,8,0:0:0:0:
375,357,89201,2,0,P|265:380|225:367,1,155,2|8,0:0|0:0,0:0:0:0:
158,332,89701,1,2,0:0:0:0:
158,332,89868,6,0,P|169:270|164:240,1,77.5,6|0,0:0|0:0,0:0:0:0:
110,203,90201,2,0,P|168:181|202:185,1,77.5,8|0,0:0|0:0,0:0:0:0:
248,224,90535,2,0,P|259:285|275:312,2,77.5,2|8|8,0:0|0:0|0:0,0:0:0:0:
400,198,91201,6,0,P|402:159|392:122,1,77.5,6|0,0:0|0:0,0:0:0:0:
337,67,91535,2,0,P|299:77|261:74,1,77.5,8|2,0:0|0:0,0:0:0:0:
241,149,91868,2,0,P|238:187|248:224,2,77.5,2|8|8,0:0|0:0|0:0,0:0:0:0:
100,82,92535,6,0,P|45:78|-3:98,1,77.5,6|0,0:0|0:0,0:0:0:0:
4,159,92868,2,0,P|15:201|24:258,1,77.5,8|0,0:0|0:0,0:0:0:0:
0,308,93201,2,0,P|39:305|74:289,1,77.5,2|8,0:0|0:0,0:0:0:0:
136,241,93535,1,8,0:0:0:0:
151,316,93701,1,2,0:0:0:0:
206,370,93868,5,0,0:0:0:0:
272,329,94035,1,0,0:0:0:0:
339,292,94201,1,2,0:0:0:0:
339,292,94368,2,0,P|299:223|243:262,2,155,10|8|10,0:0|0:0|0:0,0:0:0:0:
369,364,95201,6,0,P|451:363|472:286,1,155,4|8,0:0|0:0,0:0:0:0:
447,230,95701,1,2,0:0:0:0:
447,230,95868,2,0,L|467:129,1,77.5,6|8,0:0|0:0,0:0:0:0:
385,142,96201,2,0,L|405:41,1,77.5,6|0,0:0|0:0,0:0:0:0:
321,57,96535,5,2,0:0:0:0:
321,57,97368,1,8,0:0:0:0:
321,57,97451,1,8,0:0:0:0:
321,57,97535,1,8,0:0:0:0:
296,130,97701,1,8,0:0:0:0:
243,72,97868,6,0,P|173:46|105:93,1,155,4|0,0:0|0:0,0:0:0:0:
92,169,98368,1,0,0:0:0:0:
92,169,98451,1,0,0:0:0:0:
92,169,98535,2,0,B|119:340,1,155,0|0,0:0|0:0,0:0:0:0:
257,258,99201,2,0,P|326:232|394:279,1,155,2|0,0:0|0:0,0:0:0:0:
408,347,99701,2,0,P|413:305|457:184,2,155,0|0|0,0:0|0:0|0:0,0:0:0:0:
331,364,100535,6,0,P|195:331|217:187,1,310,8|0,0:0|0:0,0:0:0:0:
284,157,101368,2,0,P|306:124|308:59,1,77.5
276,18,101701,1,0,0:0:0:0:
276,18,101868,2,0,B|203:42|140:38|77:30|77:30|103:81,1,232.5,2|0,0:0|0:0,0:0:0:0:
146,112,102535,2,0,L|113:209,1,77.5,2|0,0:0|0:0,0:0:0:0:
43,183,102868,2,0,L|10:280,1,77.5,0|0,0:0|0:0,0:0:0:0:
44,329,103201,6,0,P|135:384|192:275,1,232.5,10|0,0:0|0:0,0:0:0:0:
192,223,103868,2,0,P|255:138|346:193,1,232.5,0|0,0:0|0:0,0:0:0:0:
363,268,104535,1,2,0:0:0:0:
509,218,104868,1,0,0:0:0:0:
392,116,105201,1,0,0:0:0:0:
363,268,105535,1,0,0:0:0:0:
509,218,105868,6,0,P|459:311|363:268,1,232.5,10|0,0:0|0:0,0:0:0:0:
345,192,106535,2,0,P|248:178|315:316,2,310,0|10|2,0:0|0:0|0:0,0:0:0:0:
345,192,108535,6,0,P|415:200|391:113,1,155,8|0,0:3|0:0,0:0:0:0:
359,86,109035,1,0,0:0:0:0:
359,86,109118,1,0,0:0:0:0:
359,86,109201,2,0,P|263:90|202:87,1,155,0|0,0:0|0:0,0:0:0:0:
130,65,109701,1,0,0:0:0:0:
130,65,109868,2,0,P|156:163|131:222,1,155,2|0,0:0|0:0,0:0:0:0:
90,271,110368,2,0,P|188:245|247:270,2,155,0|0|0,0:0|0:0|0:0,0:0:0:0:
19,303,111201,6,0,B|15:298|7:227|2:176|4:130|30:71|30:71|72:108|91:158,1,310,8|0,0:3|0:0,0:0:0:0:
112,197,112035,2,0,P|107:229|82:282,1,77.5,0|0,0:0|0:0,0:0:0:0:
128,337,112368,2,0,B|132:342|200:363|249:378|295:385|349:371|349:371|332:323|274:281,1,310
235,262,113201,2,0,P|215:239|201:194,2,77.5,2|0|0,0:0|0:0|0:0,0:0:0:0:
379,264,113868,6,0,B|418:113|418:113|378:100|332:109,1,232.5,10|0,0:0|0:0,0:0:0:0:
322,182,114535,2,0,B|283:333|283:333|334:326|367:344,1,232.5,0|0,0:0|0:0,0:0:0:0:
432,361,115201,2,0,L|471:210,2,155,2|0|0,0:0|0:0|0:0,0:0:0:0:
279,331,116201,1,8,1:0:0:0:
322,182,116535,6,0,P|285:136|237:214,1,155,10|8,0:0|0:0,0:0:0:0:
279,244,117035,1,2,0:0:0:0:
346,292,117201,1,0,0:0:0:0:
346,292,117368,1,8,0:0:0:0:
279,331,117535,2,0,P|241:339|190:325,1,77.5,2|8,0:0|0:0,0:0:0:0:
129,308,117868,6,0,P|93:316|53:308,2,77.5,6|8|2,0:0|0:0|0:0,0:0:0:0:
184,254,118368,1,8,0:0:0:0:
225,187,118535,2,0,P|263:171|309:174,1,77.5,8|2,0:0|0:0,0:0:0:0:
371,198,118868,2,0,P|391:226|412:246,2,38.75,2|0|2,0:0|0:0|0:0,0:0:0:0:
367,120,119201,6,0,P|325:35|268:25,1,155,4|8,0:0|0:0,0:0:0:0:
197,5,119701,2,0,P|210:69|289:113,1,155,0|2,0:0|0:0,0:0:0:0:
367,120,120201,1,8,0:0:0:0:
367,120,120368,1,0,0:0:0:0:
443,101,120535,2,0,P|476:137|511:60,2,155,6|8|2,0:0|0:0|0:0,0:0:0:0:
307,176,121535,2,0,L|224:197,1,77.5,8|2,0:0|0:0,0:0:0:0:
156,212,121868,6,0,P|198:297|255:307,1,155,6|8,0:0|0:0,0:0:0:0:
326,327,122368,2,0,P|313:263|281:236,1,77.5,0|2,0:0|0:0,0:0:0:0:
307,176,122701,1,0,0:0:0:0:
307,176,122868,2,0,P|364:147|405:155,1,77.5,8|0,0:0|0:0,0:0:0:0:
445,182,123201,2,0,P|453:230|370:210,2,155,2|8|2,0:0|0:0|0:0,0:0:0:0:
368,47,124201,2,0,P|311:18|270:26,1,77.5,8|2,0:0|0:0,0:0:0:0:
232,58,124535,6,0,P|161:115|91:150,1,155,6|8,0:0|0:0,0:0:0:0:
32,115,125035,2,0,P|23:66|111:8,2,155,2|2|2,0:0|0:0|0:0,0:0:0:0:
40,192,125868,2,0,L|19:361,1,155,2|8,0:0|0:0,0:0:0:0:
175,355,126535,2,0,L|196:186,1,155,2|8,0:0|0:0,0:0:0:0:
348,212,127201,6,0,L|327:381,1,155,6|8,0:0|0:0,0:0:0:0:
406,369,127701,1,2,0:0:0:0:
406,369,127868,2,0,L|427:200,1,155,2|8,0:0|0:0,0:0:0:0:
437,138,128368,1,8,0:0:0:0:
482,75,128535,6,0,P|492:38|492:-1,2,77.5,2|0|8,0:0|0:0|0:0,0:0:0:0:
437,138,129035,1,0,0:0:0:0:
359,135,129201,2,0,L|257:117,1,77.5,2|0,0:0|0:0,0:0:0:0:
205,111,129535,1,10,0:0:0:0:
205,111,129618,1,2,0:0:0:0:
205,111,129701,1,10,0:0:0:0:
165,38,129868,6,0,P|126:120|177:176,1,155,6|8,0:0|0:0,0:0:0:0:
230,192,130368,1,0,0:0:0:0:
383,214,130701,2,0,L|459:227,2,77.5,0|8|0,0:0|0:0|0:0,0:0:0:0:
306,200,131201,6,0,P|253:265|167:235,1,155,2|8,0:0|0:0,0:0:0:0:
119,222,131701,1,0,0:0:0:0:
57,268,131868,2,0,P|126:296|188:256,1,155,2|8,0:0|0:0,0:0:0:0:
230,192,132368,1,2,0:0:0:0:
230,192,132451,1,0,0:0:0:0:
230,192,132535,6,0,P|213:144|210:105,2,77.5,6|0|8,0:0|0:0|0:0,0:0:0:0:
306,200,133035,2,0,L|484:179,2,155,2|2|8,0:0|0:0|0:0,0:0:0:0:
260,262,133868,2,0,P|204:301|100:289,1,155,2|8,0:0|0:0,0:0:0:0:
87,285,134285,1,2,0:0:0:0:
87,285,134368,1,2,0:0:0:0:
37,224,134535,6,0,L|1:142,1,77.5,8|2,0:0|0:0,0:0:0:0:
76,119,134868,2,0,L|112:201,1,77.5,8|8,0:0|0:0,0:0:0:0:
119,205,135118,1,2,0:0:0:0:
136,214,135201,6,0,P|204:172|201:85,1,155,6|8,0:0|0:0,0:0:0:0:
158,44,135701,2,0,P|73:42|-15:62,2,155,2|2|8,0:0|0:0|0:0,0:0:0:0:
209,102,136535,2,0,P|294:104|382:84,1,155,6|8,0:0|0:0,0:0:0:0:
439,78,137035,1,0,0:0:0:0:
439,78,137201,2,0,L|423:171,1,77.5,2|0,0:0|0:0,0:0:0:0:
412,231,137535,1,8,0:0:0:0:
295,332,137868,6,0,P|268:271|269:157,1,155,6|8,0:0|0:0,0:0:0:0:
296,32,138535,1,2,0:0:0:0:
353,83,138701,2,0,P|394:69|435:43,2,77.5,8|8|2,0:0|0:0|0:0,0:0:0:0:
279,107,139201,6,0,P|203:118|113:111,1,155,6|8,0:0|0:0,0:0:0:0:
49,94,139701,1,0,0:0:0:0:
49,94,139868,2,0,P|44:171|55:247,1,155,2|8,0:0|0:0,0:0:0:0:
64,285,140285,1,2,0:0:0:0:
64,285,140368,1,2,0:0:0:0:
55,362,140535,6,0,L|224:351,1,155,4|8,0:0|0:0,0:0:0:0:
270,303,141035,2,0,L|439:292,1,155,6|8,0:0|0:0,0:0:0:0:
470,230,141535,2,0,L|457:154,1,77.5,6|0,0:0|0:0,0:0:0:0:
482,80,141868,6,0,P|427:80|391:106,1,77.5,14|8,0:0|0:0,0:0:0:0:
351,143,142201,1,14,0:0:0:0:
351,143,142368,1,8,0:0:0:0:
300,202,142535,2,0,P|271:151|271:108,1,77.5,2|0,0:0|0:0,0:0:0:0:
234,63,142868,2,0,P|256:58|280:52,2,38.75,10|10|10,0:0|0:0|0:0,0:0:0:0:
156,63,143201,6,0,L|122:220,1,155,4|8,0:0|0:0,0:0:0:0:
105,298,143701,1,0,0:0:0:0:
105,298,143868,2,0,L|262:332,1,155,2|8,0:0|0:0,0:0:0:0:
333,343,144368,1,0,0:0:0:0:
333,343,144535,6,0,L|350:264,1,77.5,6|0,0:0|0:0,0:0:0:0:
370,192,144868,2,0,L|291:175,1,77.5,8|8,0:0|0:0,0:0:0:0:
218,159,145201,2,0,L|201:237,1,77.5,2|2,0:0|0:0,0:0:0:0:
186,310,145535,1,8,0:0:0:0:
186,310,145701,1,0,0:0:0:0:
106,297,145868,6,0,P|46:268|48:170,1,155,6|8,0:0|0:0,0:0:0:0:
83,124,146368,1,0,0:0:0:0:
83,124,146535,2,0,P|78:49|13:13,2,155,2|8|6,0:0|0:0|0:0,0:0:0:0:
201,234,147535,1,8,0:0:0:0:
201,234,147701,2,0,P|275:229|311:164,1,155,8|10,0:0|0:0,0:0:0:0:
303,88,148201,1,8,0:0:0:0:
238,133,148368,1,2,0:0:0:0:
311,164,148535,6,0,P|365:133|362:37,1,155,6|8,0:0|0:0,0:0:0:0:
300,13,149035,1,0,0:0:0:0:
300,13,149201,2,0,B|241:34|241:34|214:55|214:55|150:75,1,155,2|8,0:0|0:0,0:0:0:0:
83,93,149701,1,0,0:0:0:0:
28,147,149868,6,0,P|56:254|75:298,2,155,6|8|2,0:0|0:0|0:0,0:0:0:0:
10,71,150701,1,8,0:0:0:0:
83,93,150868,2,0,P|111:97|167:80,1,77.5,8|0,0:0|0:0,0:0:0:0:
229,55,151201,6,0,P|298:86|382:97,1,155,6|8,0:0|0:0,0:0:0:0:
452,110,151701,2,0,P|451:76|425:32,2,77.5,2|2|8,0:0|0:0|0:0,0:0:0:0:
448,191,152201,1,8,0:0:0:0:
448,191,152368,1,2,0:0:0:0:
511,237,152535,6,0,L|494:325,1,77.5,6|10,0:0|0:0,0:0:0:0:
494,352,152785,1,2,0:0:0:0:
494,352,152868,1,10,0:0:0:0:
417,336,153035,1,8,0:0:0:0:
341,319,153201,2,0,L|265:302,1,77.5,6|2,0:0|0:0,0:0:0:0:
213,245,153535,2,0,L|202:178,2,38.75,10|10|10,0:0|0:0|0:0,0:0:0:0:
182,317,153868,6,0,P|98:297|75:225,1,155,6|8,0:0|0:0,0:0:0:0:
96,165,154368,1,0,0:0:0:0:
96,165,154535,2,0,P|80:92|11:62,1,155,2|8,0:0|0:0,0:0:0:0:
22,139,155035,1,0,0:0:0:0:
96,165,155201,6,0,L|198:151,1,77.5,6|0,0:0|0:0,0:0:0:0:
250,144,155535,2,0,L|264:246,1,77.5,8|0,0:0|0:0,0:0:0:0:
270,297,155868,2,0,L|168:311,1,77.5,2|0,0:0|0:0,0:0:0:0:
116,320,156201,1,8,0:0:0:0:
116,320,156368,1,8,0:0:0:0:
46,284,156535,6,0,P|14:215|21:138,1,155,6|8,0:0|0:0,0:0:0:0:
82,90,157035,1,2,0:0:0:0:
82,90,157201,2,0,L|245:67,2,155,2|8|6,0:0|0:0|0:0,0:0:0:0:
113,242,158201,1,8,0:0:0:0:
152,308,158368,6,0,L|142:364,2,38.75,8|0|2,0:0|0:0|0:0,0:0:0:0:
203,249,158701,1,8,0:0:0:0:
279,262,158868,1,8,0:0:0:0:
279,262,159035,1,8,0:0:0:0:
349,230,159201,6,0,P|350:157|309:87,1,155,6|8,0:0|0:0,0:0:0:0:
235,68,159701,1,2,0:0:0:0:
390,59,160035,2,0,L|475:52,2,77.5,8|8|0,0:0|0:0|0:0,0:0:0:0:
316,85,160535,6,0,P|315:158|356:228,1,155,6|8,0:0|0:0,0:0:0:0:
430,201,161035,1,2,0:0:0:0:
430,201,161201,2,0,P|430:127|389:57,1,155,2|8,0:0|0:0,0:0:0:0:
316,85,161701,1,2,0:0:0:0:
316,85,161868,6,0,P|222:114|152:111,1,155,6|8,0:0|0:0,0:0:0:0:
89,101,162368,1,0,0:0:0:0:
36,246,162701,2,0,L|132:215,1,77.5,8|8,0:0|0:0,0:0:0:0:
184,199,163035,6,0,B|284:167|306:285|406:268,1,232.5,2|8,0:0|0:0,0:0:0:0:
472,258,163701,1,2,0:0:0:0:
500,185,163868,1,8,0:2:0:0:
500,185,163951,1,8,0:0:0:0:
500,185,164035,1,2,0:0:0:0:
456,114,164201,2,0,P|444:78|445:33,1,77.5,8|2,0:2|0:0,0:0:0:0:
376,0,164535,5,14,0:0:0:0:
376,0,164701,1,0,0:0:0:0:
305,33,164868,1,10,0:0:0:0:
305,33,165035,1,0,0:0:0:0:
230,55,165201,6,0,L|157:78,1,77.5,14|0,0:0|0:0,0:0:0:0:
83,140,165535,2,0,L|158:159,1,77.5,10|0,0:0|0:0,0:0:0:0:
215,212,165868,5,14,0:0:0:0:
215,212,166035,1,0,0:0:0:0:
202,288,166201,1,10,0:0:0:0:
202,288,166368,1,0,0:0:0:0:
278,303,166535,6,0,L|351:280,1,77.5,14|0,0:0|0:0,0:0:0:0:
425,218,166868,2,0,L|350:199,1,77.5,10|10,0:0|0:0,0:0:0:0:
311,192,167118,1,2,0:0:0:0:
311,192,167201,6,0,P|327:122|407:112,1,155,4|8,0:0|0:0,0:0:0:0:
467,147,167701,1,0,0:0:0:0:
506,214,167868,2,0,B|498:267|498:267|475:308|475:308|471:370,1,155,2|8,0:0|0:0,0:0:0:0:
396,381,168368,1,0,0:0:0:0:
319,368,168535,6,0,L|236:378,1,77.5,6|2,0:0|0:0,0:0:0:0:
167,355,168868,2,0,L|90:322,1,77.5,8|0,0:0|0:0,0:0:0:0:
79,248,169201,2,0,L|68:165,1,77.5,2|0,0:0|0:0,0:0:0:0:
143,145,169535,2,0,L|221:122,1,77.5,8|8,0:0|0:0,0:0:0:0:
282,165,169868,6,0,P|282:258|157:243,2,232.5,6|0|8,0:0|0:0|0:0,0:0:0:0:
217,123,171035,1,2,0:0:0:0:
217,123,171118,1,2,0:0:0:0:
217,123,171201,6,0,P|290:131|362:94,1,155,6|8,0:0|0:0,0:0:0:0:
433,66,171701,1,2,0:0:0:0:
433,66,171868,2,0,L|444:154,1,77.5,2|2,0:0|0:0,0:0:0:0:
494,200,172201,2,0,L|505:288,1,77.5,8|8,0:0|0:0,0:0:0:0:
425,253,172535,6,0,P|312:273|263:264,2,155,6|8|2,0:0|0:0|0:0,0:0:0:0:
375,105,173535,2,0,P|336:102|299:111,1,77.5,8|2,0:0|0:0,0:0:0:0:
232,151,173868,6,0,P|119:171|70:162,1,155,6|8,0:0|0:0,0:0:0:0:
115,316,174535,1,2,0:0:0:0:
187,343,174702,1,0,0:0:0:0:
262,324,174868,1,8,0:0:0:0:
307,261,175035,1,8,0:0:0:0:
304,185,175201,6,0,P|417:165|466:174,1,155,6|8,0:0|0:0,0:0:0:0:
508,228,175701,2,0,P|511:289|506:314,1,77.5,2|0,0:0|0:0,0:0:0:0:
430,307,176035,2,0,P|427:368|431:392,2,77.5,2|8|0,0:0|0:0|0:0,0:0:0:0:
417,270,176451,1,0,0:0:0:0:
417,270,176535,6,0,P|364:278|325:273,1,77.5,4|2,0:0|0:0,0:0:0:0:
264,258,176868,2,0,P|211:266|172:261,1,77.5,8|2,0:0|0:0,0:0:0:0:
112,244,177201,1,8,0:0:0:0:
41,210,177368,1,2,0:0:0:0:
105,166,177535,1,8,0:0:0:0:
105,166,177701,1,10,0:2:0:0:
74,94,177868,6,0,P|38:81|-8:71,2,77.5,14|0|8,0:0|0:0|0:0,0:0:0:0:
148,71,178368,2,0,P|190:84|230:94,2,77.5,6|0|8,0:0|0:0|0:0,0:0:0:0:
90,18,178868,1,6,0:0:0:0:
90,18,179035,1,0,0:0:0:0:
74,94,179201,6,0,L|58:191,1,77.5,14|8,0:0|0:0,0:0:0:0:
8,227,179535,2,0,P|46:243|106:234,1,77.5,14|8,0:0|0:0,0:0:0:0:
159,234,179868,2,0,P|159:258|155:294,2,38.75,10|0|10,0:0|0:0|0:0,0:0:0:0:
168,156,180201,1,10,0:0:0:0:
168,156,180368,1,10,0:0:0:0:
235,197,180535,6,0,P|353:249|356:290,1,155,4|8,0:0|0:0,0:0:0:0:
361,335,181035,1,0,0:0:0:0:
361,335,181201,2,0,P|416:359|413:278,1,155,2|8,0:0|0:0,0:0:0:0:
355,258,181701,1,0,0:0:0:0:
290,300,181868,6,0,L|187:319,1,77.5,6|0,0:0|0:0,0:0:0:0:
201,237,182201,2,0,L|277:222,1,77.5,8|8,0:0|0:0,0:0:0:0:
266,145,182535,2,0,L|163:164,1,77.5,2|2,0:0|0:0,0:0:0:0:
177,82,182868,1,8,0:0:0:0:
253,67,183035,1,0,0:0:0:0:
326,90,183201,6,0,P|428:58|431:0,1,155,6|8,0:0|0:0,0:0:0:0:
357,21,183701,1,0,0:0:0:0:
326,90,183868,2,0,L|346:254,2,155,2|8|6,0:0|0:0|0:0,0:0:0:0:
171,105,184868,1,8,0:0:0:0:
171,105,185035,2,0,L|191:269,1,155,8|8,0:0|0:0,0:0:0:0:
238,319,185535,2,0,P|197:333|148:329,1,77.5,8|8,0:0|0:0,0:0:0:0:
87,314,185868,6,0,L|67:150,1,155,6|8,0:0|0:0,0:0:0:0:
96,87,186368,1,0,0:0:0:0:
171,105,186535,2,0,L|191:269,1,155,2|8,0:0|0:0,0:0:0:0:
204,335,187035,1,0,0:0:0:0:
277,358,187201,6,0,L|430:376,2,155,6|8|2,0:0|0:0|0:0,0:0:0:0:
204,335,188035,1,8,0:0:0:0:
129,354,188201,2,0,L|52:363,1,77.5,8|0,0:0|0:0,0:0:0:0:
0,304,188535,6,0,P|22:238|116:224,1,155,6|8,0:0|0:0,0:0:0:0:
166,253,189035,2,0,L|242:263,1,77.5,2|2,0:0|0:0,0:0:0:0:
320,258,189368,1,8,0:0:0:0:
360,334,189535,1,8,0:0:0:0:
360,334,189701,1,2,0:0:0:0:
435,351,189868,6,0,P|455:306|468:276,1,77.5,6|8,0:0|0:0,0:0:0:0:
485,246,190118,1,0,0:0:0:0:
485,246,190201,1,10,0:0:0:0:
404,225,190368,1,10,0:0:0:0:
429,152,190535,6,0,P|445:106|454:74,1,77.5,14|0,0:0|0:0,0:0:0:0:
423,7,190868,2,0,P|450:3|469:4,2,38.75,10|10|10,0:0|0:0|0:0,0:0:0:0:
367,65,191201,6,0,B|314:90|296:50|267:28|223:27,1,155,6|8,0:0|0:0,0:0:0:0:
152,55,191701,1,0,0:0:0:0:
119,125,191868,2,0,P|202:152|216:97,1,155,2|8,0:0|0:0,0:0:0:0:
224,28,192368,1,0,0:0:0:0:
300,20,192535,6,0,L|399:35,1,77.5,6|0,0:0|0:0,0:0:0:0:
449,58,192868,2,0,L|386:136,1,77.5,8|0,0:0|0:0,0:0:0:0:
340,167,193201,2,0,L|311:94,1,77.5,2|0,0:0|0:0,0:0:0:0:
300,20,193535,1,8,0:0:0:0:
300,20,193701,1,0,0:0:0:0:
224,28,193868,6,0,B|202:73|196:101|196:101|165:69|133:51,1,155,6|8,0:0|0:0,0:0:0:0:
60,34,194368,1,0,0:0:0:0:
0,83,194535,2,0,P|11:178|23:247,2,155,2|8|6,0:0|0:0|0:0,0:0:0:0:
99,202,195535,1,8,0:0:0:0:
158,251,195701,6,0,L|152:292,2,38.75,8|0|2,0:0|0:0|0:0,0:0:0:0:
226,213,196035,1,8,0:0:0:0:
301,195,196201,1,8,0:0:0:0:
374,219,196368,1,2,0:0:0:0:
437,264,196535,6,0,L|472:111,1,155,6|8,0:0|0:0,0:0:0:0:
487,36,197035,1,2,0:0:0:0:
341,90,197368,2,0,L|346:131,2,38.75,8|0|8,0:0|0:0|0:0,0:0:0:0:
295,26,197701,1,0,0:0:0:0:
264,96,197868,6,0,P|191:114|111:117,1,155,6|8,0:0|0:0,0:0:0:0:
35,130,198368,1,2,0:0:0:0:
83,190,198535,2,0,P|135:244|177:312,1,155,2|8,0:0|0:0,0:0:0:0:
222,374,199035,1,0,0:0:0:0:
258,305,199201,6,0,P|278:232|316:161,1,155,6|8,0:0|0:0,0:0:0:0:
355,96,199701,1,0,0:0:0:0:
201,73,200035,2,0,L|129:60,2,38.75,0|0|8,0:0|0:0|0:0,0:0:0:0:
241,139,200368,1,0,0:0:0:0:
315,162,200535,6,0,P|295:235|257:306,1,155,6|8,0:0|0:0,0:0:0:0:
222,374,201035,1,2,0:0:0:0:
299,376,201201,2,0,P|348:365|389:351,1,77.5,14|2,0:2|0:2,0:0:0:0:
445,327,201535,2,0,L|508:339,2,38.75,10|2|2,0:2|0:2|0:2,0:0:0:0:
383,279,201868,5,14,1:2:0:0:
383,279,202035,1,2,0:0:0:0:
427,215,202201,1,14,0:0:0:0:
427,215,202368,1,2,0:0:0:0:
401,141,202535,2,0,L|374:38,1,77.5,14|10,0:0|0:0,0:0:0:0:
314,25,202868,2,0,L|282:126,1,77.5,14|10,0:0|0:0,0:0:0:0:
273,174,203201,5,4,0:0:0:0:
234,364,204368,1,0,0:0:0:0:
234,364,204451,1,0,0:0:0:0:
234,364,204535,2,0,P|116:345|79:219,1,232.5,2|0,0:0|0:0,0:0:0:0:
126,193,205201,2,0,P|78:116|32:224,1,232.5,0|0,0:0|0:0,0:0:0:0:
73,250,205868,5,12,0:0:0:0:
153,269,206035,1,2,0:0:0:0:
227,289,206201,1,8,0:0:0:0:
310,314,206368,1,2,0:0:0:0:
310,314,206451,1,0,0:0:0:0:
310,314,206535,2,0,L|320:269,3,38.75,12|0|2|0,0:0|0:0|0:0|0:0,0:0:0:0:
329,239,206868,2,0,L|339:194,3,38.75,14|10|10|10,0:2|0:0|0:2|0:0,0:0:0:0:
348,164,207201,6,0,P|384:93|313:76,1,155,6|8,0:0|0:0,0:0:0:0:
257,90,207701,1,0,0:0:0:0:
257,90,207868,2,0,P|201:95|99:91,1,155,2|8,0:0|0:0,0:0:0:0:
26,74,208368,1,0,0:0:0:0:
0,146,208535,6,0,P|5:197|16:239,1,77.5,6|0,0:0|0:0,0:0:0:0:
83,250,208868,1,8,0:0:0:0:
146,205,209035,1,0,0:0:0:0:
146,205,209201,2,0,P|188:210|233:209,1,77.5,2|0,0:0|0:0,0:0:0:0:
230,287,209535,2,0,P|188:292|143:291,1,77.5,8|0,0:0|0:0,0:0:0:0:
159,369,209868,6,0,P|241:378|328:376,1,155,6|8,0:0|0:0,0:0:0:0:
382,341,210368,1,2,0:0:0:0:
382,341,210535,2,0,P|403:278|422:187,1,155,2|8,0:0|0:0,0:0:0:0:
434,114,211035,1,0,0:0:0:0:
434,114,211201,6,0,P|384:110|346:103,1,77.5,6|8,0:0|0:0,0:0:0:0:
301,50,211535,2,0,P|255:48|211:51,1,77.5,8|2,0:0|0:0,0:0:0:0:
149,70,211868,2,0,L|163:162,2,77.5,2|8|8,0:0|0:0|0:0,0:0:0:0:
76,43,212368,1,0,0:0:0:0:
7,79,212535,6,0,P|24:181|87:213,1,155,6|8,0:0|0:0,0:0:0:0:
137,222,213035,1,0,0:0:0:0:
137,222,213201,2,0,P|154:324|217:356,1,155,2|8,0:0|0:0,0:0:0:0:
267,365,213701,1,0,0:0:0:0:
267,365,213868,6,0,P|307:357|341:346,1,77.5,6|0,0:0|0:0,0:0:0:0:
398,292,214201,2,0,P|436:257|452:238,1,77.5,8|8,0:0|0:0,0:0:0:0:
474,162,214535,2,0,P|490:119|494:88,1,77.5,2|2,0:0|0:0,0:0:0:0:
460,17,214868,1,8,0:0:0:0:
411,79,215035,1,0,0:0:0:0:
411,79,215118,1,0,0:0:0:0:
411,79,215201,6,0,P|331:110|239:104,1,155,6|8,0:0|0:0,0:0:0:0:
185,117,215701,1,2,0:0:0:0:
185,117,215868,2,0,P|105:148|13:142,1,155,2|8,0:0|0:0,0:0:0:0:
33,225,216368,1,2,0:0:0:0:
33,225,216535,6,0,P|113:256|205:250,1,155,6|8,0:0|0:0,0:0:0:0:
258,262,217035,1,2,0:0:0:0:
258,262,217201,2,0,P|338:293|430:287,1,155,2|8,0:0|0:0,0:0:0:0:
488,284,217701,1,8,0:0:0:0:
488,284,217785,1,0,0:0:0:0:
488,284,217868,6,0,L|521:182,1,77.5,6|8,0:0|0:0,0:0:0:0:
436,193,218201,2,0,L|403:91,1,77.5,10|8,0:0|0:0,0:0:0:0:
439,46,218535,2,0,P|478:30|519:36,2,77.5,10|10|10,0:0|0:0|0:0,0:0:0:0:
362,57,219035,1,10,0:0:0:0:
207,44,219368,5,8,0:0:0:0:
220,120,219535,1,2,0:0:0:0:
233,196,219701,1,8,0:0:0:0:
192,262,219868,6,0,L|283:300,1,77.5,6|2,0:0|0:0,0:0:0:0:
332,327,220201,2,0,L|428:298,1,77.5,14|10,0:0|0:0,0:0:0:0:
443,292,220451,1,0,0:0:0:0:
472,273,220535,6,0,B|487:218|443:141|406:156|346:119|336:105|358:37|410:4|470:7|517:57|533:127|504:139|354:226|329:213|329:213|320:151|291:114|291:114|251:150|236:200|236:200|182:180|155:155,1,852.5,4|0,0:0|0:0,0:0:0:0:
118,112,222785,6,0,P|80:89|20:82,3,77.5
55,162,223549,6,0,P|120:346|232:189,1,465,2|0,0:0|0:0,0:0:0:0:
208,127,224861,2,0,L|227:41,1,77.5
256,192,225142,12,0,226924,0:0:0:0:
