osu file format v14

[General]
AudioFilename: audio.mp3
AudioLeadIn: 0
PreviewTime: 179914
Countdown: 0
SampleSet: Soft
StackLeniency: 0.4
Mode: 0
LetterboxInBreaks: 0
WidescreenStoryboard: 0

[Editor]
Bookmarks: 44164,49497,54830,78497,125164,130497,135830,159830,179664,197164
DistanceSpacing: 1.4
BeatDivisor: 4
GridSize: 32
TimelineZoom: 1.6

[Metadata]
Title:Clione no Akari
TitleUnicode:クリオネの灯り
Artist:aki
ArtistUnicode:aki
Creator:MiyohashiKoori
Version:Flying in the Sky
Source:クリオネの灯り
Tags:Flask GfMRT ThoG11k 出口陽 Deguchi Aki japanese anime pop opening op
BeatmapID:2137749
BeatmapSetID:1013752

[Difficulty]
HPDrainRate:5.8
CircleSize:3.9
OverallDifficulty:9.2
ApproachRate:9.4
SliderMultiplier:2.05
SliderTickRate:1

[Events]
//Background and Video events
0,0,"75727874_p0_master1200.png",0,0
//Break Periods
//Storyboard Layer 0 (Background)
//Storyboard Layer 1 (Fail)
//Storyboard Layer 2 (Pass)
//Storyboard Layer 3 (Foreground)
//Storyboard Layer 4 (Overlay)
//Storyboard Sound Samples

[TimingPoints]
3202,333.333333333333,4,2,23,50,1,0
3285,-100,4,2,13,60,0,0
16535,-133.333333333333,4,2,23,50,0,0
16618,-133.333333333333,4,2,13,40,0,0
37868,-100,4,2,23,50,0,0
37951,-100,4,2,13,60,0,0
61201,-200,4,2,13,60,0,0
61868,-90.9090909090909,4,2,23,70,0,1
61951,-90.9090909090909,4,2,13,70,0,1
85868,-100,4,2,23,70,0,1
85951,-100,4,2,13,60,0,0
94368,-200,4,2,13,50,0,0
95035,-100,4,2,13,50,0,0
96535,-200,4,2,13,30,0,0
97285,-200,4,2,13,50,0,0
97868,-133.333333333333,4,2,23,50,0,0
97951,-133.333333333333,4,2,13,40,0,0
119201,-100,4,2,23,50,0,0
119285,-100,4,2,13,60,0,0
143201,-90.9090909090909,4,2,23,70,0,1
143285,-90.9090909090909,4,2,13,70,0,1
167201,-100,4,2,23,70,0,1
167285,-100,4,2,13,60,0,0
177868,-100,4,2,13,70,0,0
180535,-90.9090909090909,4,2,23,70,0,1
180618,-90.9090909090909,4,2,13,70,0,1
203201,-200,4,2,13,30,0,0
205868,-100,4,2,13,60,0,0
207201,-100,4,2,23,60,0,0
207285,-100,4,2,13,60,0,0
220535,375,4,2,13,40,1,0
220535,-166.666666666667,4,2,13,40,0,0
222785,382.165605095541,4,2,13,40,1,0
222785,-200,4,2,13,40,0,0
223549,375,4,2,13,50,1,0
223549,-153.846153846154,4,2,13,50,0,0
225049,-166.666666666667,4,2,13,25,0,0
226924,-200,4,2,13,5,0,0

[Colours]
Combo1 : 237,231,143
Combo2 : 230,111,107
Combo3 : 252,160,202
Combo4 : 206,143,89
SliderBorder : 195,136,80
SliderTrackOverride : 177,255,255

[HitObjects]
85,293,3201,6,0,B|138:267|185:289|185:289|232:313|301:275,1,205,8|8,0:0|0:0,0:0:0:0:
363,170,3701,1,2,0:0:0:0:
234,210,3868,5,0,3:0:0:0:
431,265,4035,1,0,3:0:0:0:
392,64,4201,2,0,B|363:47|328:52|328:52|283:85|216:50,1,153.75,8|0,0:0|0:0,0:0:0:0:
159,69,4535,6,0,P|119:46|86:-6,1,102.5,0|0,3:0|0:0,0:0:0:0:
20,140,4868,1,8,0:0:0:0:
234,210,5035,1,0,3:0:0:0:
17,246,5201,5,2,0:0:0:0:
231,125,5368,1,0,3:0:0:0:
161,312,5535,2,0,P|119:283|110:215,1,102.5,8|0,0:0|0:0,0:0:0:0:
275,53,5868,6,0,B|232:31|185:41|214:56|154:67|123:33|123:33|185:19,1,205,0|8,3:0|0:0,0:0:0:0:
363,17,6368,1,0,3:0:0:0:
309,199,6535,5,2,0:0:0:0:
501,130,6701,1,0,3:0:0:0:
231,125,6868,2,0,P|205:167|207:228,1,102.5,8|0,0:0|0:0,0:0:0:0:
361,368,7201,5,0,3:0:0:0:
386,103,7368,1,0,3:0:0:0:
209,319,7535,1,8,0:0:0:0:
431,174,7701,1,0,3:0:0:0:
129,200,7868,5,2,0:0:0:0:
444,258,8035,1,0,3:0:0:0:
189,110,8201,2,0,P|135:103|69:87,1,102.5,8|0,0:0|0:0,0:0:0:0:
272,149,8535,6,0,B|296:104|280:75|277:75|273:75|255:33|282:-13,1,153.75,6|0,0:0|0:0,0:0:0:0:
364,38,8868,2,0,P|419:36|473:29,1,102.5,8|0,0:0|0:0,0:0:0:0:
178,17,9201,5,0,3:0:0:0:
270,235,9368,1,0,3:0:0:0:
12,85,9535,2,0,B|75:92|75:92|108:115|108:115|195:123,1,153.75,8|0,0:0|0:0,0:0:0:0:
194,104,9868,6,0,L|72:92,1,102.5,0|0,3:0|0:0,0:0:0:0:
32,208,10201,1,8,0:0:0:0:
178,17,10368,1,0,3:0:0:0:
171,300,10535,5,0,0:0:0:0:
64,63,10701,1,0,3:0:0:0:
391,165,10868,2,0,P|356:207|287:212,1,102.5,8|0,0:0|0:0,0:0:0:0:
58,41,11201,6,0,B|73:121|73:121|52:156|52:156|68:237,1,205,0|8,3:0|0:0,0:0:0:0:
217,286,11701,1,2,0:0:0:0:
217,286,11868,2,0,B|186:303|145:289|145:289|109:272|67:286|67:286|48:251|85:216,1,205,0|8,3:0|0:0,0:0:0:0:
104,356,12368,1,2,0:0:0:0:
227,184,12535,6,0,P|310:238|289:352,1,205,0|8,3:0|0:0,0:0:0:0:
338,103,13035,1,2,0:0:0:0:
77,108,13201,2,0,P|118:184|230:181,1,205,0|8,3:0|0:0,0:0:0:0:
71,275,13701,1,2,0:0:0:0:
247,21,13868,6,0,B|274:97|274:97|314:112|314:112|355:211,1,205,0|8,3:0|0:0,0:0:0:0:
405,332,14368,1,0,3:0:0:0:
479,137,14535,5,2,0:0:0:0:
214,237,14701,1,0,3:0:0:0:
334,40,14868,1,10,0:0:0:0:
312,285,15035,1,2,0:0:0:0:
84,201,15201,5,0,3:0:0:0:
405,93,15368,1,8,0:0:0:0:
230,325,15535,5,8,0:0:0:0:
253,0,15701,1,0,3:0:0:0:
440,245,15868,5,8,0:0:0:0:
440,245,15951,1,8,0:0:0:0:
440,245,16035,2,0,P|452:209|449:189,1,51.25,0|0,3:0|3:0,0:0:0:0:
405,93,16201,1,8,0:0:0:0:
364,60,16285,1,8,3:0:0:0:
312,60,16368,1,8,3:0:0:0:
274,95,16451,1,8,3:0:0:0:
264,148,16535,6,0,B|211:164|211:164|98:124,1,153.750005865097,6|2,0:0|0:0,0:0:0:0:
29,38,17035,1,2,0:0:0:0:
29,38,17118,1,2,0:0:0:0:
29,38,17201,2,0,P|33:84|20:134,1,76.8750029325486,2|2,0:0|0:0,0:0:0:0:
87,278,17535,2,0,P|81:236|90:183,1,76.8750029325486,2|2,0:0|0:0,0:0:0:0:
178,114,17868,6,0,B|148:131|115:119|115:119|81:107|37:128,1,115.312504398823,2|0,0:0|0:0,0:0:0:0:
51,128,18201,1,2,0:0:0:0:
133,34,18368,2,0,P|169:23|223:37,1,76.8750029325486,2|0,0:0|0:0,0:0:0:0:
234,188,18701,2,0,P|197:207|137:199,1,76.8750029325486,2|0,0:0|0:0,0:0:0:0:
298,114,19035,1,2,0:0:0:0:
298,114,19201,6,0,B|321:164|321:164|306:294,1,153.750005865097,2|0,0:0|0:0,0:0:0:0:
300,353,19701,2,0,L|383:352,1,76.8750029325486,2|0,0:0|0:0,0:0:0:0:
225,295,20035,2,0,L|124:296,2,76.8750029325486,2|2|2,0:0|0:0|0:0,0:0:0:0:
372,212,20535,6,0,B|309:212|309:212|282:196|282:196|193:197,1,153.750005865097,2|0,0:0|0:0,0:0:0:0:
126,204,21035,1,0,0:0:0:0:
126,204,21201,2,0,B|84:190|82:129|125:103|125:103|146:116|159:138,1,153.750005865097,2|0,0:0|0:0,0:0:0:0:
145,120,21868,6,0,B|247:123|247:123|311:105,1,153.750005865097,2|0,0:0|0:0,0:0:0:0:
413,16,22368,1,2,0:0:0:0:
413,16,22535,2,0,P|400:62|412:123,1,76.8750029325486,2|2,0:0|0:0,0:0:0:0:
346,231,22868,2,0,P|359:185|347:124,1,76.8750029325486,0|0,0:0|0:0,0:0:0:0:
401,306,23201,6,0,P|329:324|263:254,1,153.750005865097,2|0,0:0|0:0,0:0:0:0:
226,195,23701,1,2,0:0:0:0:
226,195,23868,2,0,L|136:186,1,76.8750029325486,2|0,0:0|0:0,0:0:0:0:
57,300,24201,2,0,L|144:290,1,76.8750029325486,2|0,0:0|0:0,0:0:0:0:
127,144,24535,6,0,B|151:201|151:201|127:320,1,153.750005865097,2|0,0:0|0:0,0:0:0:0:
59,216,25035,1,2,0:0:0:0:
59,216,25201,2,0,P|36:179|30:126,1,76.8750029325486,2|0,0:0|0:0,0:0:0:0:
183,73,25535,2,0,P|213:116|214:164,1,76.8750029325486,0|2,0:0|0:0,0:0:0:0:
213,228,25785,1,2,0:0:0:0:
213,228,25868,6,0,L|309:224,1,76.8750029325486,2|0,0:0|0:0,0:0:0:0:
125,298,26201,1,2,0:0:0:0:
125,298,26368,1,2,0:0:0:0:
352,282,26535,6,0,P|375:239|363:191,1,76.8750029325486,2|2,0:0|0:0,0:0:0:0:
501,267,26868,1,2,0:0:0:0:
501,267,27035,1,2,0:0:0:0:
438,137,27201,6,0,B|398:141|366:118|366:118|330:137|262:134,1,153.750005865097,2|0,0:0|0:0,0:0:0:0:
191,105,27701,1,2,0:0:0:0:
191,105,27785,1,2,0:0:0:0:
191,105,27868,2,0,P|179:63|187:4,1,76.8750029325486,2|0,0:0|0:0,0:0:0:0:
290,134,28201,2,0,P|302:176|294:235,1,76.8750029325486,0|0,0:0|0:0,0:0:0:0:
195,249,28535,6,0,P|171:182|193:101,1,153.750005865097,2|0,0:0|0:0,0:0:0:0:
99,270,29035,1,2,0:0:0:0:
99,270,29201,2,0,L|15:294,2,76.8750029325486,0|2|0,0:0|0:0|0:0,0:0:0:0:
219,328,29701,1,2,0:0:0:0:
219,328,29868,6,0,B|252:311|294:323|294:323|334:338|384:314,1,153.750005865097,2|0,0:0|0:0,0:0:0:0:
358,174,30368,2,0,P|336:205|334:252,1,76.8750029325486,2|0,0:0|0:0,0:0:0:0:
443,203,30701,2,0,P|451:166|429:111,1,76.8750029325486,2|2,0:0|0:0,0:0:0:0:
354,58,31035,1,2,0:0:0:0:
354,58,31201,6,0,L|181:46,2,153.750005865097,2|0|2,0:0|0:0|0:0,0:0:0:0:
441,128,32035,2,0,P|450:165|443:203,1,76.8750029325486,0|2,0:0|0:0,0:0:0:0:
366,267,32368,1,0,0:0:0:0:
366,267,32535,6,0,B|258:267|258:267|202:238,1,153.750005865097,2|0,0:0|0:0,0:0:0:0:
121,329,33035,1,2,0:0:0:0:
144,138,33201,2,2,L|144:227,1,76.8750029325486,2|2,0:0|0:0,0:0:0:0:
281,184,33535,2,0,L|280:93,1,76.8750029325486,0|0,0:0|0:0,0:0:0:0:
57,119,33868,6,0,P|89:67|183:60,1,153.750005865097,2|2,0:0|0:0,0:0:0:0:
280,107,34368,1,2,0:0:0:0:
280,107,34535,2,0,L|386:98,1,76.8750029325486,2|2,0:0|0:0,0:0:0:0:
251,193,34868,2,0,L|125:201,1,115.312504398823,2|0,0:0|0:0,0:0:0:0:
56,170,35201,6,0,P|109:225|108:324,1,153.750005865097,2|0,0:0|0:0,0:0:0:0:
264,266,35701,1,2,0:0:0:0:
264,266,35868,2,0,P|265:225|230:172,1,76.8750029325486,2|0,0:0|0:0,0:0:0:0:
116,299,36201,2,0,P|115:340|150:393,1,76.8750029325486,2|0,0:0|0:0,0:0:0:0:
349,341,36535,6,0,P|272:294|188:316,1,153.750005865097,2|0,0:0|0:0,0:0:0:0:
376,208,37035,1,2,0:0:0:0:
258,384,37201,1,2,0:0:0:0:
216,133,37368,1,8,3:0:0:0:
470,193,37535,1,8,0:0:0:0:
470,193,37618,1,8,0:0:0:0:
470,193,37701,1,8,0:0:0:0:
178,260,37868,6,0,B|159:237|116:236|116:236|69:204|67:142|106:101,1,205,8|0,3:0|3:0,0:0:0:0:
228,35,38368,2,0,P|234:91|204:145,1,102.5,2|0,0:0|3:0,0:0:0:0:
309,233,38701,1,0,3:0:0:0:
94,115,38868,1,0,3:0:0:0:
327,31,39035,1,0,3:0:0:0:
372,295,39201,6,0,P|298:320|227:208,1,205,0|0,3:0|3:0,0:0:0:0:
367,157,39701,1,2,0:0:0:0:
451,366,39868,1,0,3:0:0:0:
223,234,40035,1,0,3:0:0:0:
475,152,40201,1,0,3:0:0:0:
242,346,40368,1,0,3:0:0:0:
126,82,40535,6,0,B|222:63|222:63|249:74|249:74|331:56,1,205,0|0,3:0|3:0,0:0:0:0:
202,160,41035,2,0,L|186:221,2,51.25,2|0|0,0:0|0:0|3:0,0:0:0:0:
325,57,41368,1,0,3:0:0:0:
288,296,41535,1,0,3:0:0:0:
108,174,41701,1,0,3:0:0:0:
387,202,41868,6,0,B|415:195|425:164|425:164|408:251|458:323,1,205,0|0,3:0|3:0,0:0:0:0:
171,226,42368,1,2,0:0:0:0:
325,57,42535,1,0,3:0:0:0:
288,296,42701,1,0,3:0:0:0:
128,128,42868,1,0,3:0:0:0:
428,81,43035,1,0,3:0:0:0:
111,288,43201,6,0,B|90:213|90:213|52:195|52:195|26:100,1,205,0|0,3:0|3:0,0:0:0:0:
177,45,43701,2,0,P|160:102|110:133,1,102.5,2|0,0:0|3:0,0:0:0:0:
215,344,44035,2,0,P|199:286|222:229,1,102.5,0|0,3:0|3:0,0:0:0:0:
358,144,44368,1,2,0:0:0:0:
358,144,44451,1,2,0:0:0:0:
358,144,44535,6,0,L|469:134,1,102.5,0|0,3:0|0:0,0:0:0:0:
384,277,44868,2,0,L|253:293,1,102.5,0|2,3:0|0:0,0:0:0:0:
458,353,45201,1,0,3:0:0:0:
358,144,45368,1,0,3:0:0:0:
215,344,45535,1,0,3:0:0:0:
462,214,45701,1,0,3:0:0:0:
146,179,45868,6,0,B|156:215|135:252|135:252|85:273|72:337|113:397,1,205,0|0,3:0|3:0,0:0:0:0:
45,180,46368,1,2,0:0:0:0:
288,291,46535,1,0,3:0:0:0:
207,36,46701,1,0,3:0:0:0:
60,264,46868,1,0,3:0:0:0:
348,180,47035,1,0,3:0:0:0:
52,69,47201,6,0,B|27:203|27:203|63:271,1,205,0|0,3:0|3:0,0:0:0:0:
200,165,47701,1,2,0:0:0:0:
107,341,47868,1,0,3:0:0:0:
158,94,48035,1,0,3:0:0:0:
290,310,48201,1,0,3:0:0:0:
188,21,48368,1,8,0:0:0:0:
49,244,48535,6,0,B|176:206|142:286|271:234,1,205,0|0,3:0|3:0,0:0:0:0:
411,343,49035,2,0,P|428:292|401:230,1,102.5,2|0,0:0|3:0,0:0:0:0:
341,124,49368,2,0,P|324:175|351:237,1,102.5,8|0,3:0|3:0,0:0:0:0:
430,77,49701,1,0,0:0:0:0:
205,0,49868,6,0,B|228:70|228:70|195:222,1,205,0|0,3:0|3:0,0:0:0:0:
317,31,50368,1,2,0:0:0:0:
84,115,50535,1,0,3:0:0:0:
380,141,50701,1,0,3:0:0:0:
178,312,50868,1,0,3:0:0:0:
129,36,51035,1,0,3:0:0:0:
434,229,51201,6,0,P|356:241|292:117,1,205,0|0,3:0|3:0,0:0:0:0:
463,124,51701,1,2,0:0:0:0:
309,324,51868,1,0,3:0:0:0:
229,20,52035,1,8,0:0:0:0:
103,244,52201,2,0,L|206:228,1,102.5,0|0,3:0|3:0,0:0:0:0:
397,90,52535,6,0,P|313:99|298:219,1,205,0|0,3:0|3:0,0:0:0:0:
417,328,53035,1,2,0:0:0:0:
360,165,53201,1,8,3:0:0:0:
245,371,53368,1,8,0:0:0:0:
442,192,53535,2,8,P|450:167|444:132,1,51.25,8|8,0:0|0:0,0:0:0:0:
280,139,53701,2,8,P|272:164|278:199,1,51.25,8|8,0:0|0:0,0:0:0:0:
360,165,53868,6,0,P|379:117|355:60,1,102.5,4|0,0:0|0:0,0:0:0:0:
277,267,54201,1,8,0:0:0:0:
191,87,54368,2,0,L|300:151,1,102.5,0|0,3:0|0:0,0:0:0:0:
367,315,54701,2,0,L|275:265,1,102.5,0|8,3:0|0:0,0:0:0:0:
435,211,55035,1,0,3:0:0:0:
215,341,55201,6,0,P|181:253|248:179,1,205,0|8,3:0|0:0,0:0:0:0:
72,217,55701,1,0,0:0:0:0:
157,28,55868,2,0,P|178:80|154:157,1,102.5,2|0,0:0|3:0,0:0:0:0:
264,275,56201,2,0,P|243:223|267:146,1,102.5,10|0,0:0|0:0,0:0:0:0:
434,90,56535,6,0,B|386:119|304:93|366:74|280:37|214:61,1,205,2|8,0:0|0:0,0:0:0:0:
394,11,57035,1,2,0:0:0:0:
466,217,57201,1,2,0:0:0:0:
261,153,57368,1,0,3:0:0:0:
434,90,57535,1,10,0:0:0:0:
264,275,57701,1,2,0:0:0:0:
53,82,57868,6,0,B|124:81|183:94|183:94|212:69|250:62,1,205,0|8,3:0|0:0,0:0:0:0:
348,122,58368,2,0,P|339:174|354:245,1,102.5,0|0,0:0|3:0,0:0:0:0:
429,15,58701,1,0,3:0:0:0:
261,153,58868,2,0,P|212:156|142:158,1,102.5,8|0,0:0|0:0,0:0:0:0:
344,313,59201,6,0,B|323:267|351:225|351:225|339:210|339:210|372:161|338:101,1,205,12|0,0:0|3:0,0:0:0:0:
446,287,59701,1,12,0:0:0:0:
261,153,59868,1,0,3:0:0:0:
429,15,60035,1,0,3:0:0:0:
284,251,60201,2,0,P|213:247|170:176,1,153.75,12|0,0:0|0:0,0:0:0:0:
191,97,60535,5,12,0:0:0:0:
15,362,60701,1,8,0:0:0:0:
32,45,60868,5,8,0:0:0:0:
176,362,61035,1,8,0:0:0:0:
337,88,61201,6,0,L|220:76,1,102.5,2|2,0:0|0:0,0:0:0:0:
253,192,61868,6,0,B|218:172|174:182|174:182|148:129|186:68|265:79,1,225.500006881714,12|8,0:0|0:0,0:0:0:0:
331,112,62368,1,0,0:0:0:0:
205,266,62535,5,0,3:0:0:0:
397,327,62701,1,0,3:0:0:0:
194,268,62868,1,8,0:0:0:0:
331,112,63035,1,0,0:0:0:0:
45,56,63201,6,0,P|125:55|166:125,1,169.125005161286,0|0,3:0|0:0,0:0:0:0:
165,171,63535,1,8,0:0:0:0:
248,41,63701,1,0,3:0:0:0:
314,258,63868,5,0,0:0:0:0:
84,125,64035,1,0,3:0:0:0:
398,29,64201,2,0,B|375:91|375:91|392:193,1,169.125005161286,8|0,0:0|0:0,0:0:0:0:
424,245,64535,6,0,B|399:97|399:97|345:35,1,225.500006881714,0|8,3:0|0:0,0:0:0:0:
203,156,65035,1,0,0:0:0:0:
495,166,65201,5,0,3:0:0:0:
257,63,65368,1,0,3:0:0:0:
293,311,65535,1,8,0:0:0:0:
349,40,65701,1,0,0:0:0:0:
203,258,65868,6,0,B|142:277|143:245|83:251|83:251|76:224|95:201,1,169.125005161286,0|0,3:0|0:0,0:0:0:0:
108,182,66201,1,8,0:0:0:0:
236,371,66368,1,0,3:0:0:0:
319,111,66535,5,0,0:0:0:0:
100,328,66701,1,0,3:0:0:0:
359,278,66868,1,8,0:0:0:0:
147,71,67035,1,0,3:0:0:0:
407,81,67201,6,0,P|393:161|322:203,1,169.125005161286,4|0,0:0|0:0,0:0:0:0:
255,176,67535,1,8,0:0:0:0:
370,0,67701,1,0,0:0:0:0:
147,71,67868,6,0,P|217:78|272:57,1,112.750003440857,0|0,3:0|3:0,0:0:0:0:
110,231,68201,1,8,0:0:0:0:
51,29,68368,1,0,0:0:0:0:
319,111,68535,6,0,B|324:148|347:166|347:166|312:224|312:224|282:182,1,169.125005161286,0|0,3:0|0:0,0:0:0:0:
255,176,68868,1,8,0:0:0:0:
438,80,69035,1,0,3:0:0:0:
289,305,69201,5,0,0:0:0:0:
240,36,69368,1,0,3:0:0:0:
474,222,69535,2,0,P|416:223|338:215,1,112.750003440857,8|0,0:0|0:0,0:0:0:0:
154,72,69868,6,0,B|208:99|266:92|301:60|301:60|268:24|226:39,1,225.500006881714,0|8,3:0|0:0,0:0:0:0:
361,218,70368,1,0,0:0:0:0:
239,35,70535,5,0,3:0:0:0:
470,128,70701,1,0,3:0:0:0:
185,226,70868,1,8,0:0:0:0:
378,48,71035,1,0,0:0:0:0:
421,294,71201,5,0,3:0:0:0:
185,226,71368,2,2,P|161:246|151:269,1,56.3750017204285,8|0,0:0|3:0,0:0:0:0:
307,374,71535,2,2,P|331:354|341:331,1,56.3750017204285,8|0,0:0|0:0,0:0:0:0:
324,145,71701,1,0,3:0:0:0:
193,359,71868,5,8,0:0:0:0:
361,218,72035,1,8,0:0:0:0:
80,158,72201,1,8,0:0:0:0:
57,118,72285,1,8,0:0:0:0:
63,73,72368,1,8,0:0:0:0:
98,45,72451,1,8,0:0:0:0:
143,45,72535,6,0,L|305:47,1,112.750003440857,4|0,0:0|0:0,0:0:0:0:
384,125,72868,1,8,0:0:0:0:
197,219,73035,1,0,0:0:0:0:
452,194,73201,2,0,P|482:137|453:52,1,112.750003440857,0|0,3:0|3:0,0:0:0:0:
255,46,73535,1,8,0:0:0:0:
340,295,73701,1,0,0:0:0:0:
69,201,73868,6,0,B|38:103|38:103|67:37,1,169.125005161286,0|0,3:0|0:0,0:0:0:0:
127,104,74201,2,0,L|9:90,1,112.750003440857,8|0,0:0|3:0,0:0:0:0:
149,16,74535,2,0,L|271:25,1,112.750003440857,2|0,0:0|3:0,0:0:0:0:
181,212,74868,2,0,L|55:199,1,112.750003440857,8|0,0:0|3:0,0:0:0:0:
264,284,75201,6,0,P|295:202|190:109,1,225.500006881714,0|8,3:0|0:0,0:0:0:0:
396,149,75701,1,2,0:0:0:0:
264,284,75868,2,0,L|138:271,1,112.750003440857,0|0,3:0|3:0,0:0:0:0:
130,106,76201,2,0,P|66:176|102:259,1,169.125005161286,8|0,0:0|0:0,0:0:0:0:
151,272,76535,5,0,3:0:0:0:
270,120,76701,1,0,0:0:0:0:
410,239,76868,1,8,0:0:0:0:
156,188,77035,1,0,3:0:0:0:
378,55,77201,5,2,0:0:0:0:
279,341,77368,1,0,3:0:0:0:
161,105,77535,1,8,0:0:0:0:
391,144,77701,1,0,3:0:0:0:
39,167,77868,6,0,P|28:115|97:31,1,169.125005161286,4|0,0:0|0:0,0:0:0:0:
170,24,78201,1,8,0:0:0:0:
232,234,78368,2,0,L|362:233,1,112.750003440857,2|0,0:0|3:0,0:0:0:0:
121,293,78701,5,0,3:0:0:0:
261,95,78868,1,8,0:0:0:0:
356,319,79035,1,0,0:0:0:0:
132,65,79201,6,0,B|166:82|186:66|189:66|192:66|221:43|261:93|261:93|232:149|198:134,1,225.500006881714,0|8,3:0|0:0,0:0:0:0:
36,82,79701,1,0,3:0:0:0:
199,238,79868,5,2,0:0:0:0:
73,12,80035,1,0,3:0:0:0:
76,259,80201,1,8,0:0:0:0:
162,0,80368,1,0,0:0:0:0:
411,200,80535,6,0,B|338:198|338:198|315:184|315:184|196:180,1,169.125005161286,0|0,3:0|0:0,0:0:0:0:
171,204,80868,2,0,P|148:151|173:82,1,112.750003440857,8|2,0:0|0:0,0:0:0:0:
364,112,81201,1,0,3:0:0:0:
259,340,81368,1,0,3:0:0:0:
505,279,81535,1,8,0:0:0:0:
235,141,81701,1,0,3:0:0:0:
471,20,81868,6,0,P|460:77|460:149,1,112.750003440857,0|0,3:0|0:0,0:0:0:0:
390,265,82201,1,8,0:0:0:0:
364,112,82368,1,0,3:0:0:0:
259,340,82535,5,2,0:0:0:0:
285,187,82701,1,0,3:0:0:0:
163,253,82868,5,8,0:0:0:0:
137,100,83035,1,0,3:0:0:0:
137,100,83118,1,0,3:0:0:0:
137,100,83201,5,10,0:0:0:0:
390,265,83368,1,0,3:0:0:0:
211,48,83535,5,10,0:0:0:0:
259,340,83701,1,0,3:0:0:0:
301,43,83868,5,10,0:0:0:0:
120,320,84035,1,0,3:0:0:0:
381,91,84201,5,10,0:0:0:0:
44,212,84368,1,0,3:0:0:0:
426,174,84535,5,10,0:0:0:0:
74,81,84701,1,0,3:0:0:0:
382,0,84868,5,10,0:0:0:0:
44,212,85035,1,0,3:0:0:0:
327,369,85201,5,10,0:0:0:0:
192,11,85368,1,0,3:0:0:0:
153,366,85535,5,10,0:0:0:0:
369,25,85701,1,0,3:0:0:0:
369,25,85785,1,0,3:0:0:0:
369,25,85868,6,0,L|486:30,1,102.5,6|0,0:0|0:0,0:0:0:0:
306,122,86201,2,0,L|423:127,1,102.5,8|0,0:0|0:0,0:0:0:0:
244,224,86535,5,0,3:0:0:0:
192,11,86701,1,0,3:0:0:0:
42,160,86868,2,0,L|159:165,1,102.5,8|0,0:0|0:0,0:0:0:0:
244,224,87201,6,0,P|278:157|200:74,1,153.75,0|0,3:0|0:0,0:0:0:0:
166,88,87535,1,8,0:0:0:0:
336,37,87701,1,0,3:0:0:0:
149,199,87868,5,2,0:0:0:0:
405,226,88035,1,0,3:0:0:0:
232,32,88201,2,0,P|188:4|122:15,1,102.5,8|0,0:0|0:0,0:0:0:0:
46,289,88535,6,0,B|100:277|100:277|124:282|124:282|124:286|124:286|124:282|124:282|147:287|147:287|208:275,1,153.75,0|0,3:0|0:0,0:0:0:0:
264,255,88868,1,8,0:0:0:0:
166,88,89035,1,0,3:0:0:0:
46,289,89201,5,2,0:0:0:0:
268,137,89368,1,0,3:0:0:0:
267,378,89535,1,8,0:0:0:0:
64,162,89701,1,0,0:0:0:0:
362,189,89868,5,0,3:0:0:0:
46,289,90035,1,0,3:0:0:0:
166,88,90201,1,8,0:0:0:0:
357,317,90368,1,0,3:0:0:0:
64,162,90535,5,2,0:0:0:0:
301,27,90701,1,0,3:0:0:0:
265,333,90868,2,0,B|228:347|196:330|196:330|160:289|88:309,1,153.75,8|0,0:0|0:0,0:0:0:0:
64,162,91201,6,0,P|120:165|147:33,1,205,4|8,0:0|0:0,0:0:0:0:
227,230,91701,1,0,0:0:0:0:
136,382,91868,5,0,3:0:0:0:
64,162,92035,1,0,3:0:0:0:
301,27,92201,1,8,0:0:0:0:
227,230,92368,1,0,0:0:0:0:
10,84,92535,6,0,B|67:74|67:74|94:83|94:83|159:74,1,153.75,0|0,3:0|0:0,0:0:0:0:
231,56,92868,1,8,0:0:0:0:
157,298,93035,1,0,3:0:0:0:
345,156,93201,5,2,0:0:0:0:
64,162,93368,1,0,3:0:0:0:
366,145,93535,2,0,P|355:198|357:261,1,102.5,8|2,0:0|0:0,0:0:0:0:
231,56,93868,5,0,3:0:0:0:
488,106,94035,1,8,0:0:0:0:
225,218,94201,5,8,0:0:0:0:
417,256,94368,2,0,L|495:252,1,76.875,0|0,3:0|0:0,0:0:0:0:
492,252,94701,1,0,3:0:0:0:
393,368,94868,1,8,0:0:0:0:
281,148,95035,2,0,L|242:139,4,25.625,4|0|0|0|2,3:0|0:0|0:0|0:0|0:0,0:0:0:0:
406,73,95368,1,0,3:0:0:0:
281,259,95535,1,8,0:0:0:0:
273,7,95701,1,0,3:0:0:0:
417,202,95868,5,8,0:0:0:0:
113,91,96035,1,0,3:0:0:0:
407,42,96201,2,0,P|462:27|516:4,1,102.5,8|0,0:0|3:0,0:0:0:0:
273,7,96535,6,0,L|270:22,16,12.8125
211,128,97368,1,0,3:0:0:0:
211,128,97451,1,0,3:0:0:0:
211,128,97535,1,8,0:0:0:0:
347,83,97701,1,8,0:0:0:0:
188,30,97868,6,0,P|113:73|104:147,1,153.750005865097,4|2,0:0|0:0,0:0:0:0:
120,275,98368,1,2,0:0:0:0:
120,275,98451,1,2,0:0:0:0:
120,275,98535,2,0,P|68:264|9:266,1,76.8750029325486,2|0,0:0|0:0,0:0:0:0:
171,344,98868,2,0,P|211:299|197:218,1,115.312504398823,0|0,3:0|0:0,0:0:0:0:
196,177,99201,6,0,P|188:144|214:90,1,76.8750029325486,2|8,0:0|3:0,0:0:0:0:
369,228,99535,1,2,0:0:0:0:
378,121,99701,1,2,0:0:0:0:
273,148,99868,1,0,3:0:0:0:
388,116,100035,2,0,P|404:73|390:23,1,76.8750029325486,8|0,3:0|3:0,0:0:0:0:
268,156,100368,1,0,3:0:0:0:
488,114,100535,6,0,P|461:167|474:274,1,153.750005865097,8|2,0:0|0:0,0:0:0:0:
389,340,101035,2,0,P|353:348|302:372,2,76.8750029325486,2|0|0,0:0|0:0|3:0,0:0:0:0:
362,233,101535,2,0,P|322:235|286:225,1,76.8750029325486,8|0,3:0|0:0,0:0:0:0:
189,188,101868,5,2,0:0:0:0:
245,86,102035,1,8,3:0:0:0:
184,198,102201,2,0,L|96:193,1,76.8750029325486,2|8,0:0|3:0,0:0:0:0:
296,177,102535,5,2,0:0:0:0:
240,75,102701,1,8,3:0:0:0:
301,187,102868,2,0,L|377:182,1,76.8750029325486,8|2,0:0|0:0,0:0:0:0:
277,281,103201,6,0,P|207:231|214:150,1,153.750005865097,8|0,3:0|0:0,0:0:0:0:
77,57,103701,1,8,3:0:0:0:
77,57,103868,2,0,B|101:87|85:124|85:124|94:132|94:132|69:171|103:222,1,153.750005865097,2|0,0:0|3:0,0:0:0:0:
90,199,104535,6,0,L|173:189,1,76.8750029325486,2|8,0:0|3:0,0:0:0:0:
244,276,104868,2,0,L|161:286,1,76.8750029325486,0|8,3:0|3:0,0:0:0:0:
336,266,105201,2,0,L|326:183,1,76.8750029325486,2|0,0:0|3:0,0:0:0:0:
432,292,105535,2,0,L|442:375,1,76.8750029325486,10|0,0:0|3:0,0:0:0:0:
512,227,105868,6,0,P|451:183|357:212,1,153.750005865097,8|0,3:0|0:0,0:0:0:0:
336,266,106368,1,8,3:0:0:0:
336,266,106535,2,0,L|167:255,1,153.750005865097,2|8,0:0|3:0,0:0:0:0:
182,256,107201,5,2,0:0:0:0:
90,265,107368,1,8,3:0:0:0:
80,173,107535,1,0,3:0:0:0:
171,162,107701,1,8,3:0:0:0:
137,290,107868,5,2,0:0:0:0:
52,222,108035,1,8,3:0:0:0:
121,140,108201,1,10,0:0:0:0:
204,207,108368,1,2,0:0:0:0:
36,19,108535,6,0,B|59:58|40:96|40:96|19:138|49:192,1,153.750005865097,8|2,0:3|0:0,0:0:0:0:
77,300,109035,1,2,0:0:0:0:
77,300,109118,1,2,0:0:0:0:
77,300,109201,2,0,P|31:308|-19:298,1,76.8750029325486,2|0,0:0|0:0,0:0:0:0:
141,212,109535,1,0,3:0:0:0:
177,337,109701,1,2,0:0:0:0:
286,266,109868,6,0,P|244:260|200:262,1,76.8750029325486,2|8,0:0|3:0,0:0:0:0:
376,326,110201,1,2,0:0:0:0:
376,326,110368,2,0,L|383:237,1,76.8750029325486,2|8,0:0|3:0,0:0:0:0:
455,148,110701,2,0,L|467:225,1,76.8750029325486,2|8,0:0|3:0,0:0:0:0:
470,325,111035,1,2,0:0:0:0:
358,183,111201,6,0,B|291:181|291:181|283:175|283:175|175:174,1,153.750005865097,8|0,0:3|0:0,0:0:0:0:
331,100,111701,2,0,P|328:63|348:22,1,76.8750029325486,8|0,3:0|0:0,0:0:0:0:
425,84,112035,1,2,0:0:0:0:
358,183,112201,2,0,L|213:178,1,115.312504398823,8|0,3:0|0:0,0:0:0:0:
164,179,112535,5,2,0:0:0:0:
86,104,112701,1,8,3:0:0:0:
138,9,112868,1,0,3:0:0:0:
240,43,113035,1,8,3:0:0:0:
164,179,113201,5,2,0:0:0:0:
248,245,113368,1,8,3:0:0:0:
217,348,113535,1,10,0:0:0:0:
109,351,113701,1,2,0:0:0:0:
374,158,113868,6,0,B|332:171|304:135|304:135|276:163|203:142,1,153.750005865097,8|0,0:3|0:0,0:0:0:0:
362,86,114368,1,8,3:0:0:0:
418,231,114535,2,0,P|448:203|456:138,1,76.8750029325486,2|2,0:0|0:0,0:0:0:0:
295,220,114868,1,8,3:0:0:0:
459,169,115035,1,2,0:0:0:0:
267,18,115201,6,0,P|277:57|275:99,1,76.8750029325486,2|8,0:0|3:0,0:0:0:0:
207,192,115535,1,2,0:0:0:0:
207,192,115701,1,8,3:0:0:0:
114,82,115868,2,0,P|154:70|206:65,1,76.8750029325486,0|8,3:0|3:0,0:0:0:0:
0,64,116201,2,0,B|-13:99|0:123|0:123|18:149|5:183,1,115.312504398823,10|0,0:0|0:0,0:0:0:0:
0,252,116535,6,0,L|82:248,1,76.8750029325486,8|0,0:3|0:0,0:0:0:0:
222,108,116868,1,0,3:0:0:0:
165,307,117035,1,8,0:0:0:0:
100,149,117201,5,2,0:0:0:0:
318,214,117368,1,0,3:0:0:0:
180,28,117535,1,8,0:0:0:0:
82,237,117701,1,0,3:0:0:0:
333,72,117868,5,10,0:0:0:0:
280,324,118035,1,10,0:0:0:0:
178,179,118201,1,10,0:0:0:0:
414,149,118368,1,10,0:0:0:0:
269,16,118535,5,8,0:0:0:0:
269,16,118618,1,8,0:0:0:0:
269,16,118701,1,8,0:0:0:0:
374,281,118868,2,0,L|426:278,1,38.4375014662743,8|8,0:0|0:0,0:0:0:0:
178,179,119035,2,0,L|110:182,1,38.4375014662743,8|8,0:0|0:0,0:0:0:0:
381,16,119201,6,0,B|388:68|348:97|348:97|309:157|369:231,1,205,8|0,3:0|3:0,0:0:0:0:
512,166,119701,2,0,P|445:165|395:133,1,102.5,2|0,0:0|3:0,0:0:0:0:
269,16,120035,1,0,3:0:0:0:
279,257,120201,1,0,3:0:0:0:
473,86,120368,1,0,3:0:0:0:
329,335,120535,6,0,B|223:370|248:298|127:333,1,205,0|0,3:0|3:0,0:0:0:0:
33,230,121035,1,2,0:0:0:0:
279,257,121201,1,0,3:0:0:0:
12,348,121368,1,0,3:0:0:0:
147,89,121535,1,0,3:0:0:0:
329,335,121701,1,0,3:0:0:0:
18,223,121868,6,0,B|-9:193|-5:136|41:115|41:115|42:106|42:106|41:115|41:115|89:147|73:189,1,205,0|0,3:0|3:0,0:0:0:0:
206,269,122368,2,0,P|149:272|76:263,1,102.5,2|0,0:0|3:0,0:0:0:0:
289,135,122701,1,0,3:0:0:0:
262,362,122868,1,0,3:0:0:0:
186,155,123035,1,0,3:0:0:0:
417,42,123201,6,0,B|367:43|344:132|397:97|392:163|365:200|307:221,1,205,0|0,3:0|3:0,0:0:0:0:
179,265,123701,1,2,0:0:0:0:
219,66,123868,1,0,3:0:0:0:
369,300,124035,1,0,3:0:0:0:
461,118,124201,1,0,3:0:0:0:
114,55,124368,1,0,3:0:0:0:
114,55,124451,1,0,3:0:0:0:
114,55,124535,6,0,B|101:83|109:104|109:104|126:137|106:184,1,102.5,0|0,3:0|0:0,0:0:0:0:
219,66,124868,1,0,3:0:0:0:
103,261,125035,2,0,B|63:254|63:254|52:247|52:247|40:251|40:251|-20:243,1,102.5,2|0,0:0|3:0,0:0:0:0:
234,258,125368,2,0,B|274:265|274:265|285:272|285:272|297:268|297:268|357:276,1,102.5,0|0,3:0|3:0,0:0:0:0:
478,200,125701,1,2,0:0:0:0:
478,200,125785,1,2,0:0:0:0:
478,200,125868,6,0,P|450:246|457:312,1,102.5,0|0,3:0|0:0,0:0:0:0:
393,134,126201,2,0,P|421:88|414:22,1,102.5,0|2,3:0|0:0,0:0:0:0:
332,272,126535,1,0,3:0:0:0:
256,80,126701,1,0,3:0:0:0:
420,40,126868,1,0,3:0:0:0:
209,229,127035,1,0,3:0:0:0:
112,5,127201,6,0,B|150:27|150:27|187:28|187:28|215:-9|263:-17|316:12,1,205,0|0,3:0|3:0,0:0:0:0:
437,112,127701,1,2,0:0:0:0:
209,229,127868,1,0,3:0:0:0:
298,3,128035,1,0,3:0:0:0:
348,335,128201,1,0,3:0:0:0:
256,80,128368,1,0,3:0:0:0:
81,331,128535,6,0,B|125:301|172:313|172:313|185:305|185:305|241:315|281:271,1,205,0|0,3:0|3:0,0:0:0:0:
354,152,129035,1,2,0:0:0:0:
434,348,129201,5,0,3:0:0:0:
206,166,129368,2,0,P|233:169|258:166,1,51.25,8|0,0:0|3:0,0:0:0:0:
456,70,129535,1,8,0:0:0:0:
431,51,129618,1,8,0:0:0:0:
400,47,129701,2,0,P|368:50|331:44,1,51.25,0|0,3:0|3:0,0:0:0:0:
113,101,129868,6,0,B|156:96|178:62|178:62|207:98|241:93|241:93|220:67|228:31,1,205,4|0,0:0|3:0,0:0:0:0:
91,195,130368,2,0,P|44:173|21:127,1,102.5,2|0,0:0|3:0,0:0:0:0:
185,168,130701,1,8,3:0:0:0:
84,303,130868,1,0,3:0:0:0:
37,40,131035,1,0,3:0:0:0:
378,190,131201,6,0,B|327:205|297:171|297:171|229:138|158:180,1,205,0|0,3:0|3:0,0:0:0:0:
353,117,131701,1,2,0:0:0:0:
187,296,131868,1,0,3:0:0:0:
119,31,132035,1,0,3:0:0:0:
378,190,132201,1,0,3:0:0:0:
59,121,132368,2,0,L|112:111,1,51.25,0|0,3:0|0:0,0:0:0:0:
289,195,132535,6,0,B|271:161|285:132|285:132|297:98|290:64|290:64|296:108|331:138,1,205,0|0,3:0|3:0,0:0:0:0:
337,323,133035,1,0,3:0:0:0:
337,323,133118,1,0,3:0:0:0:
337,323,133201,1,0,3:0:0:0:
436,100,133368,1,8,0:0:0:0:
456,373,133535,1,0,3:0:0:0:
289,195,133701,1,0,3:0:0:0:
140,356,133868,6,0,B|225:335|225:335|259:348|259:348|345:320,1,205,0|8,3:0|0:0,0:0:0:0:
416,293,134285,1,8,0:0:0:0:
416,293,134368,1,8,0:0:0:0:
289,195,134535,1,0,3:0:0:0:
380,384,134701,1,0,3:0:0:0:
479,219,134868,2,8,L|410:213,1,51.25,8|8,0:0|0:0,0:0:0:0:
272,186,135035,2,8,L|327:178,1,51.25,8|8,0:0|0:0,0:0:0:0:
413,33,135201,6,0,L|398:152,1,102.5,4|0,0:0|0:0,0:0:0:0:
323,285,135535,1,8,0:0:0:0:
183,164,135701,2,0,P|205:120|295:108,1,102.5,0|0,3:0|0:0,0:0:0:0:
413,33,136035,2,0,P|391:77|301:89,1,102.5,0|8,3:0|0:0,0:0:0:0:
198,24,136368,1,0,0:0:0:0:
38,223,136535,6,0,B|82:199|164:213|112:250|190:260|234:230,1,205,0|8,3:0|0:0,0:0:0:0:
344,98,137035,1,2,0:0:0:0:
113,384,137201,2,0,P|85:347|98:272,1,102.5,0|0,0:0|3:0,0:0:0:0:
155,72,137535,2,0,P|183:109|170:184,1,102.5,8|0,0:0|0:0,0:0:0:0:
366,346,137868,6,0,P|256:333|146:320,1,205,0|8,3:0|0:0,0:0:0:0:
376,252,138368,1,2,0:0:0:0:
273,104,138535,1,0,3:0:0:0:
162,322,138701,1,0,3:0:0:0:
444,182,138868,1,8,0:0:0:0:
156,100,139035,1,0,3:0:0:0:
488,273,139201,6,0,B|426:302|376:252|376:252|352:284|299:284,1,205,0|8,3:0|0:0,0:0:0:0:
273,104,139701,2,0,P|273:150|316:201,1,102.5,0|0,0:0|3:0,0:0:0:0:
331,12,140035,1,0,3:0:0:0:
190,206,140201,1,8,0:0:0:0:
148,236,140285,1,8,0:0:0:0:
96,236,140368,1,8,0:0:0:0:
60,199,140451,1,8,0:0:0:0:
66,147,140535,6,0,P|84:66|-9:11,1,205,12|0,0:0|3:0,0:0:0:0:
206,153,141035,1,12,0:0:0:0:
81,345,141201,1,0,3:0:0:0:
0,94,141368,1,0,3:0:0:0:
200,317,141535,2,0,L|311:321,1,102.5,12|0,0:0|3:0,0:0:0:0:
369,173,141868,5,12,0:0:0:0:
0,94,142035,1,8,0:0:0:0:
345,26,142201,5,8,0:0:0:0:
19,221,142368,1,8,0:0:0:0:
302,320,142535,6,0,P|287:272|296:212,1,102.5,0|0,0:0|3:0,0:0:0:0:
329,45,142868,1,8,0:0:0:0:
278,47,142951,1,8,0:0:0:0:
226,52,143035,1,8,0:0:0:0:
175,57,143118,1,8,0:0:0:0:
119,66,143201,6,0,B|45:78|45:78|65:117|58:170|58:170|83:125|111:127,1,225.500006881714,12|8,0:0|0:0,0:0:0:0:
270,203,143701,1,0,0:0:0:0:
122,275,143868,5,0,3:0:0:0:
226,52,144035,1,0,3:0:0:0:
317,296,144201,1,8,0:0:0:0:
119,66,144368,1,0,0:0:0:0:
0,361,144535,6,0,B|48:336|103:351|80:368|141:374|185:338,1,169.125005161286,0|0,3:0|0:0,0:0:0:0:
217,299,144868,1,8,0:0:0:0:
13,231,145035,1,0,3:0:0:0:
211,103,145201,5,0,0:0:0:0:
164,351,145368,1,0,3:0:0:0:
432,198,145535,2,0,P|334:194|301:124,1,169.125005161286,8|0,0:0|0:0,0:0:0:0:
452,164,145868,6,0,P|408:268|497:304,1,225.500006881714,0|8,3:0|0:0,0:0:0:0:
301,139,146368,1,0,0:0:0:0:
474,233,146535,5,0,3:0:0:0:
404,35,146701,1,0,3:0:0:0:
302,339,146868,1,8,0:0:0:0:
317,44,147035,1,0,0:0:0:0:
157,238,147201,6,0,B|266:211|266:211|299:227|339:209,1,169.125005161286,0|0,3:0|0:0,0:0:0:0:
347,208,147535,1,8,0:0:0:0:
203,328,147701,1,0,3:0:0:0:
442,294,147868,5,0,0:0:0:0:
188,144,148035,1,0,3:0:0:0:
302,339,148201,1,8,0:0:0:0:
413,131,148368,1,0,0:0:0:0:
112,81,148535,6,0,B|95:128|95:128|118:214|118:214|100:270,1,169.125005161286,4|0,0:0|0:0,0:0:0:0:
90,282,148868,1,8,0:0:0:0:
188,144,149035,1,0,0:0:0:0:
302,339,149201,6,0,P|241:327|176:322,1,112.750003440857,0|0,3:0|3:0,0:0:0:0:
382,251,149535,1,8,0:0:0:0:
190,322,149701,1,0,0:0:0:0:
360,72,149868,6,0,B|345:124|363:171|363:171|329:178|307:214,1,169.125005161286,0|0,3:0|0:0,0:0:0:0:
298,243,150201,1,8,0:0:0:0:
188,143,150368,1,0,3:0:0:0:
190,322,150535,5,0,0:0:0:0:
271,106,150701,1,0,3:0:0:0:
460,327,150868,2,0,P|390:318|324:317,1,112.750003440857,8|0,0:0|0:0,0:0:0:0:
176,106,151201,6,0,B|175:140|195:165|195:165|178:203|178:203|178:219|178:219|165:230|165:230|147:267|147:267|165:284|164:343,1,225.500006881714,0|8,3:0|0:0,0:0:0:0:
271,106,151701,1,0,0:0:0:0:
74,195,151868,5,0,3:0:0:0:
364,194,152035,1,0,3:0:0:0:
182,23,152201,1,8,0:0:0:0:
181,309,152368,1,0,0:0:0:0:
370,100,152535,5,0,3:0:0:0:
97,32,152701,2,2,L|80:95,1,56.3750017204285,8|0,0:0|3:0,0:0:0:0:
177,106,152868,2,2,L|163:166,1,56.3750017204285,8|0,0:0|0:0,0:0:0:0:
74,195,153035,1,0,3:0:0:0:
260,281,153201,5,8,0:0:0:0:
33,313,153368,1,8,0:0:0:0:
253,194,153535,1,8,0:0:0:0:
297,186,153618,1,8,0:0:0:0:
338,203,153701,1,8,0:0:0:0:
360,241,153785,1,8,0:0:0:0:
360,286,153868,6,0,B|365:328|361:374|361:374|371:357|378:354,1,112.750003440857,4|0,0:0|0:0,0:0:0:0:
423,135,154201,1,8,0:0:0:0:
260,281,154368,1,0,0:0:0:0:
124,109,154535,2,0,P|189:102|227:68,1,112.750003440857,0|0,3:0|3:0,0:0:0:0:
38,70,154868,1,8,0:0:0:0:
217,198,155035,1,0,0:0:0:0:
413,49,155201,6,0,P|335:57|263:2,1,169.125005161286,0|0,3:0|0:0,0:0:0:0:
223,72,155535,2,0,P|170:57|105:58,1,112.750003440857,8|0,0:0|3:0,0:0:0:0:
387,168,155868,2,0,P|440:183|505:182,1,112.750003440857,0|0,0:0|3:0,0:0:0:0:
217,198,156201,2,0,P|164:183|99:184,1,112.750003440857,8|0,0:0|0:0,0:0:0:0:
272,49,156535,6,0,P|192:81|227:203,1,225.500006881714,0|8,3:0|0:0,0:0:0:0:
99,52,157035,1,0,0:0:0:0:
370,138,157201,2,0,L|244:125,1,112.750003440857,0|0,3:0|3:0,0:0:0:0:
82,256,157535,2,0,P|124:199|235:211,1,169.125005161286,8|0,0:0|0:0,0:0:0:0:
260,264,157868,5,0,3:0:0:0:
422,80,158035,1,0,0:0:0:0:
404,325,158201,1,8,0:0:0:0:
257,126,158368,2,0,L|145:117,1,112.750003440857,0|0,3:0|0:0,0:0:0:0:
297,359,158701,5,0,3:0:0:0:
289,35,158868,1,8,0:0:0:0:
459,227,159035,1,0,0:0:0:0:
122,254,159201,6,0,P|221:245|268:186,1,169.125005161286,4|0,0:0|0:0,0:0:0:0:
257,126,159535,1,8,0:0:0:0:
400,321,159701,2,0,L|530:320,1,112.750003440857,0|0,3:0|0:0,0:0:0:0:
213,323,160035,5,0,3:0:0:0:
257,126,160201,1,8,0:0:0:0:
297,359,160368,1,0,0:0:0:0:
121,99,160535,6,0,B|197:136|198:96|252:118|252:118|257:127|257:127|252:118|252:118|264:74|314:44,1,225.500006881714,0|8,3:0|0:0,0:0:0:0:
196,203,161035,1,0,3:0:0:0:
215,14,161201,5,0,0:0:0:0:
293,279,161368,1,0,3:0:0:0:
59,186,161535,1,8,0:0:0:0:
290,60,161701,1,0,0:0:0:0:
255,358,161868,6,0,B|332:352|332:352|352:335|352:335|427:329,1,169.125005161286,0|0,3:0|0:0,0:0:0:0:
493,327,162201,1,8,0:0:0:0:
293,279,162368,2,0,L|180:283,1,112.750003440857,0|0,0:0|3:0,0:0:0:0:
392,236,162701,1,0,3:0:0:0:
392,236,162785,1,0,3:0:0:0:
392,236,162868,1,8,0:0:0:0:
175,120,163035,1,0,3:0:0:0:
456,28,163201,6,0,B|440:79|440:79|463:162,1,112.750003440857,0|0,3:0|3:0,0:0:0:0:
293,279,163535,1,8,0:0:0:0:
359,145,163701,1,0,3:0:0:0:
211,306,163868,5,8,0:0:0:0:
205,296,163951,1,8,0:0:0:0:
199,286,164035,1,8,0:0:0:0:
175,120,164201,1,8,0:0:0:0:
179,130,164285,1,8,0:0:0:0:
183,140,164368,1,8,0:0:0:0:
24,296,164535,5,10,0:0:0:0:
154,12,164701,1,0,3:0:0:0:
211,306,164868,5,10,0:0:0:0:
57,48,165035,1,0,3:0:0:0:
116,303,165201,5,10,0:0:0:0:
250,37,165368,1,0,3:0:0:0:
430,265,165535,5,10,0:0:0:0:
16,139,165701,1,0,3:0:0:0:
388,93,165868,5,10,0:0:0:0:
37,233,166035,1,0,3:0:0:0:
371,14,166201,5,10,0:0:0:0:
116,303,166368,1,0,3:0:0:0:
414,182,166535,5,10,0:0:0:0:
57,48,166701,1,0,3:0:0:0:
247,335,166868,5,10,0:0:0:0:
295,364,166951,1,0,3:0:0:0:
351,360,167035,1,0,3:0:0:0:
395,325,167118,1,0,3:0:0:0:
423,282,167201,6,0,P|426:226|411:175,1,102.5,4|0,0:0|0:0,0:0:0:0:
223,105,167535,2,0,P|220:155|238:203,2,102.5,8|0|0,0:0|0:0|3:0,0:0:0:0:
422,59,168035,1,0,0:0:0:0:
340,228,168201,1,8,0:0:0:0:
256,20,168368,1,2,0:0:0:0:
420,164,168535,5,0,3:0:0:0:
136,166,168701,1,0,0:0:0:0:
339,38,168868,1,8,0:0:0:0:
273,302,169035,2,0,P|221:303|156:299,1,102.5,2|0,0:0|3:0,0:0:0:0:
420,164,169368,5,2,0:0:0:0:
256,20,169535,2,0,L|263:133,1,102.5,8|2,0:0|0:0,0:0:0:0:
462,272,169868,6,0,P|405:256|339:267,1,102.5,0|0,3:0|0:0,0:0:0:0:
170,299,170201,1,8,0:0:0:0:
284,206,170368,2,0,P|263:252|281:314,1,102.5,0|0,0:0|3:0,0:0:0:0:
351,129,170701,1,0,0:0:0:0:
175,170,170868,2,0,P|151:101|206:33,1,153.75,8|0,0:0|0:0,0:0:0:0:
304,48,171201,6,0,B|378:48|378:48|409:37,1,102.5,0|0,3:0|0:0,0:0:0:0:
473,182,171535,1,8,0:0:0:0:
241,108,171701,5,2,0:0:0:0:
458,0,171868,2,0,P|445:52|438:109,1,102.5,0|0,3:0|0:0,0:0:0:0:
410,252,172201,1,8,0:0:0:0:
304,48,172368,1,0,0:0:0:0:
126,249,172535,6,0,B|96:234|94:179|121:148|121:148|124:179|146:200,1,153.75,0|0,3:0|0:0,0:0:0:0:
209,203,172868,2,0,L|320:196,1,102.5,8|0,0:0|0:0,0:0:0:0:
371,147,173118,1,0,3:0:0:0:
371,147,173201,5,0,3:0:0:0:
238,340,173368,1,0,0:0:0:0:
184,97,173535,2,0,L|49:100,1,102.5,8|0,0:0|0:0,0:0:0:0:
466,102,173868,6,0,P|409:45|304:60,1,153.75,0|0,3:0|0:0,0:0:0:0:
287,98,174201,2,0,L|166:97,1,102.5,8|0,0:0|0:0,0:0:0:0:
389,248,174535,5,0,3:0:0:0:
287,98,174701,1,2,0:0:0:0:
177,290,174868,1,8,0:0:0:0:
339,174,175035,1,2,0:0:0:0:
49,64,175201,6,0,B|69:106|69:106|53:183|53:183|74:234,1,153.75,0|0,3:0|0:0,0:0:0:0:
96,281,175535,1,8,0:0:0:0:
255,113,175701,2,0,L|130:103,1,102.5,2|0,0:0|3:0,0:0:0:0:
334,169,176035,1,2,0:0:0:0:
108,5,176201,1,8,0:0:0:0:
90,307,176368,1,2,0:0:0:0:
90,307,176451,1,0,0:0:0:0:
90,308,176535,6,0,L|141:314,1,51.25,10|0,0:0|0:0,0:0:0:0:
417,191,176701,2,0,L|367:186,1,51.25,10|0,0:0|0:0,0:0:0:0:
56,319,176868,2,0,L|108:326,1,51.25,0|0,3:0|0:0,0:0:0:0:
437,172,177035,2,0,L|386:166,1,51.25,0|0,3:0|0:0,0:0:0:0:
109,132,177201,6,0,L|159:137,1,51.25,0|0,3:0|3:0,0:0:0:0:
399,313,177368,2,0,L|348:318,1,51.25,0|0,3:0|3:0,0:0:0:0:
93,124,177535,2,0,L|143:129,1,51.25,10|8,0:0|0:0,0:0:0:0:
220,359,177701,1,10,0:0:0:0:
220,359,177785,1,8,0:0:0:0:
220,359,177868,6,0,B|213:278|213:278|237:252|237:252|227:141,1,205,14|8,0:0|0:0,0:0:0:0:
327,319,178368,1,12,0:0:0:0:
123,213,178535,1,0,3:0:0:0:
316,96,178701,1,0,3:0:0:0:
33,1,178868,2,0,L|49:117,1,102.5,12|0,0:0|3:0,0:0:0:0:
387,17,179201,5,8,0:0:0:0:
201,377,179368,1,8,0:0:0:0:
200,23,179535,5,8,0:0:0:0:
386,383,179701,1,8,0:0:0:0:
387,17,179868,5,0,3:0:0:0:
418,69,179951,1,0,3:0:0:0:
413,130,180035,1,0,3:0:0:0:
375,178,180118,1,0,3:0:0:0:
353,235,180201,1,10,0:0:0:0:
355,296,180285,1,10,0:0:0:0:
390,346,180368,1,8,0:0:0:0:
450,356,180451,1,8,0:0:0:0:
491,309,180535,6,0,B|406:306|406:306|375:287|375:287|267:282,1,225.500006881714,12|8,0:0|0:0,0:0:0:0:
142,280,181035,1,0,0:0:0:0:
290,82,181201,5,0,3:0:0:0:
310,373,181368,1,0,3:0:0:0:
132,196,181535,1,8,0:0:0:0:
442,227,181701,1,0,0:0:0:0:
67,120,181868,6,0,B|39:182|39:182|50:302,1,169.125005161286,0|0,3:0|0:0,0:0:0:0:
50,319,182201,1,8,0:0:0:0:
239,158,182368,1,0,3:0:0:0:
311,372,182535,5,0,0:0:0:0:
132,196,182701,1,0,3:0:0:0:
409,5,182868,2,0,P|350:39|375:136,1,169.125005161286,8|0,0:0|0:0,0:0:0:0:
403,189,183201,6,0,P|354:118|239:157,1,225.500006881714,0|8,3:0|0:0,0:0:0:0:
325,275,183701,1,0,0:0:0:0:
132,196,183868,5,0,3:0:0:0:
255,26,184035,1,0,3:0:0:0:
224,294,184201,1,8,0:0:0:0:
175,31,184368,1,0,0:0:0:0:
436,179,184535,6,0,B|391:195|356:165|356:165|352:161|352:161|348:165|348:165|312:192|235:166,1,169.125005161286,0|0,3:0|0:0,0:0:0:0:
231,160,184868,1,8,0:0:0:0:
304,359,185035,1,0,3:0:0:0:
411,108,185201,5,0,0:0:0:0:
224,294,185368,1,0,3:0:0:0:
460,280,185535,1,8,0:0:0:0:
205,148,185701,1,0,0:0:0:0:
38,344,185868,6,0,B|110:348|110:348|219:316,1,169.125005161286,4|0,0:0|0:0,0:0:0:0:
224,294,186201,1,8,0:0:0:0:
49,195,186368,1,0,0:0:0:0:
281,79,186535,6,0,P|304:133|271:207,1,112.750003440857,0|0,3:0|3:0,0:0:0:0:
181,25,186868,1,8,0:0:0:0:
398,100,187035,1,0,0:0:0:0:
224,294,187201,6,0,B|187:297|171:284|171:284|142:300|106:298|106:298|145:285|167:242,1,169.125005161286,0|0,3:0|0:0,0:0:0:0:
147,236,187535,1,8,0:0:0:0:
267,1,187701,1,0,3:0:0:0:
224,294,187868,5,0,0:0:0:0:
94,55,188035,1,0,3:0:0:0:
326,241,188201,2,0,P|340:301|304:365,1,112.750003440857,8|0,0:0|0:0,0:0:0:0:
394,124,188535,6,0,P|295:144|325:240,1,225.500006881714,0|8,3:0|0:0,0:0:0:0:
213,66,189035,1,0,0:0:0:0:
435,207,189201,5,0,3:0:0:0:
146,203,189368,1,0,3:0:0:0:
352,34,189535,1,8,0:0:0:0:
321,346,189701,1,0,0:0:0:0:
472,89,189868,5,0,3:0:0:0:
213,66,190035,1,8,0:0:0:0:
413,296,190201,2,2,L|480:297,1,56.3750017204285,8|0,0:0|0:0,0:0:0:0:
314,236,190368,2,2,L|248:236,1,56.3750017204285,8|0,0:0|3:0,0:0:0:0:
397,122,190535,5,0,3:0:0:0:
404,384,190701,1,8,3:0:0:0:
258,236,190868,1,8,0:0:0:0:
207,242,190951,1,8,0:0:0:0:
158,231,191035,1,8,0:0:0:0:
110,217,191118,1,8,0:0:0:0:
59,217,191201,6,0,P|29:167|50:77,1,112.750003440857,4|0,0:0|0:0,0:0:0:0:
213,66,191535,1,8,0:0:0:0:
148,323,191701,1,0,0:0:0:0:
323,105,191868,2,0,P|326:41|274:-8,1,112.750003440857,0|0,3:0|3:0,0:0:0:0:
441,146,192201,1,8,0:0:0:0:
203,62,192368,1,0,0:0:0:0:
142,340,192535,6,0,P|234:333|337:311,1,169.125005161286,0|0,3:0|0:0,0:0:0:0:
372,270,192868,2,0,P|312:278|254:231,1,112.750003440857,8|0,0:0|3:0,0:0:0:0:
444,180,193201,2,0,P|480:221|487:278,1,112.750003440857,0|0,0:0|3:0,0:0:0:0:
337,175,193535,2,0,P|346:121|390:89,1,112.750003440857,8|0,0:0|0:0,0:0:0:0:
192,101,193868,6,0,B|93:116|137:85|39:93|39:93|94:90|108:60,1,225.500006881714,0|8,3:0|0:0,0:0:0:0:
75,180,194368,1,0,0:0:0:0:
249,42,194535,2,0,P|278:99|251:160,1,112.750003440857,0|0,3:0|3:0,0:0:0:0:
291,318,194868,2,0,P|264:237|178:227,1,169.125005161286,8|0,0:0|0:0,0:0:0:0:
132,275,195201,5,0,3:0:0:0:
192,101,195368,1,0,0:0:0:0:
390,235,195535,1,8,0:0:0:0:
167,187,195701,1,0,3:0:0:0:
417,65,195868,5,0,0:0:0:0:
291,318,196035,1,0,3:0:0:0:
221,19,196201,1,8,0:0:0:0:
402,149,196368,1,8,0:0:0:0:
402,149,196451,1,8,0:0:0:0:
402,149,196535,6,0,P|386:218|396:324,1,169.125005161286,4|0,0:0|0:0,0:0:0:0:
425,382,196868,1,8,0:0:0:0:
279,214,197035,2,0,P|221:208|177:156,1,112.750003440857,0|0,3:0|3:0,0:0:0:0:
402,149,197368,5,0,3:0:0:0:
257,309,197535,1,8,0:0:0:0:
191,83,197701,1,0,0:0:0:0:
402,149,197868,6,0,B|409:110|394:80|394:80|365:41|393:-6|393:-6|450:-13|463:43,1,225.500006881714,0|8,3:0|0:0,0:0:0:0:
318,126,198368,1,0,3:0:0:0:
485,251,198535,5,0,0:0:0:0:
257,309,198701,1,0,3:0:0:0:
191,83,198868,1,8,0:0:0:0:
381,282,199035,1,0,0:0:0:0:
460,92,199201,6,0,B|393:85|393:85|366:68|366:68|270:63,1,169.125005161286,0|0,3:0|0:0,0:0:0:0:
265,93,199535,2,0,L|400:100,1,112.750003440857,8|0,0:0|0:0,0:0:0:0:
169,7,199868,1,0,3:0:0:0:
287,217,200035,1,0,3:0:0:0:
426,10,200201,1,8,0:0:0:0:
201,152,200368,1,0,0:0:0:0:
479,206,200535,5,0,3:0:0:0:
169,7,200701,1,0,3:0:0:0:
153,269,200868,5,8,0:0:0:0:
470,94,201035,1,0,3:0:0:0:
246,380,201201,6,2,P|246:346|239:325,3,56.3750017204285,0|0|0|0,3:0|3:0|3:0|3:0,0:0:0:0:
37,253,201535,1,8,0:0:0:0:
37,253,201618,1,8,0:0:0:0:
37,253,201701,2,2,P|39:215|58:181,1,56.3750017204285,8|0,0:0|3:0,0:0:0:0:
102,67,201868,5,10,0:0:0:0:
452,312,202035,1,0,3:0:0:0:
359,18,202201,5,10,0:0:0:0:
158,368,202368,1,0,3:0:0:0:
3,137,202535,5,10,0:0:0:0:
452,312,202701,1,0,3:0:0:0:
481,257,202785,1,0,3:0:0:0:
471,195,202868,1,8,0:0:0:0:
419,160,202951,1,8,0:0:0:0:
379,111,203035,1,8,0:0:0:0:
392,50,203118,1,8,0:0:0:0:
433,12,203201,6,0,B|466:20|466:20|440:53|464:94,3,102.5,2|0|0|0,0:0|0:0|0:0|0:0,0:0:0:0:
256,192,204535,12,0,205535,0:0:0:0:
165,124,205868,6,0,L|103:117,1,51.25,0|0,3:0|0:0,0:0:0:0:
268,132,206035,2,0,L|275:70,1,51.25,8|0,0:0|0:0,0:0:0:0:
258,233,206201,2,0,L|320:240,1,51.25,0|0,3:0|0:0,0:0:0:0:
128,231,206368,2,0,L|121:293,1,51.25,8|0,0:0|0:0,0:0:0:0:
114,118,206535,6,0,L|52:111,1,51.25,0|0,3:0|3:0,0:0:0:0:
273,81,206701,2,0,L|280:19,1,51.25,0|0,3:0|3:0,0:0:0:0:
122,281,206868,5,8,0:0:0:0:
145,300,206951,1,8,0:0:0:0:
175,300,207035,1,8,0:0:0:0:
198,280,207118,1,8,0:0:0:0:
213,253,207201,6,0,L|342:233,1,102.5,4|0,0:0|0:0,0:0:0:0:
433,307,207535,2,0,L|304:329,1,102.5,8|2,0:0|0:0,0:0:0:0:
460,149,207868,5,0,3:0:0:0:
331,324,208035,1,0,3:0:0:0:
273,81,208201,2,0,L|102:57,1,153.75,8|0,0:0|0:0,0:0:0:0:
34,22,208535,6,0,P|1:89|30:162,1,153.75,0|0,3:0|0:0,0:0:0:0:
94,212,208868,1,8,0:0:0:0:
257,0,209035,1,0,3:0:0:0:
241,271,209201,5,2,0:0:0:0:
151,5,209368,1,0,3:0:0:0:
349,159,209535,2,0,P|292:150|211:142,1,102.5,8|0,0:0|0:0,0:0:0:0:
451,117,209868,6,0,B|489:235|411:200|449:338,1,205,0|8,3:0|0:0,0:0:0:0:
349,159,210368,1,0,3:0:0:0:
443,316,210535,5,2,0:0:0:0:
181,245,210701,1,0,3:0:0:0:
379,66,210868,2,0,P|347:123|360:185,1,102.5,8|0,0:0|0:0,0:0:0:0:
308,336,211201,5,0,3:0:0:0:
196,65,211368,1,0,3:0:0:0:
125,327,211535,1,8,0:0:0:0:
286,68,211701,1,0,3:0:0:0:
213,361,211868,5,2,0:0:0:0:
105,63,212035,1,0,3:0:0:0:
354,241,212201,2,0,P|301:236|240:230,1,102.5,8|0,0:0|0:0,0:0:0:0:
446,304,212535,6,0,P|464:216|364:131,1,205,0|8,3:0|0:0,0:0:0:0:
308,336,213035,1,0,3:0:0:0:
286,68,213201,5,2,0:0:0:0:
170,253,213368,1,0,3:0:0:0:
356,178,213535,2,0,P|302:168|227:159,1,102.5,8|0,0:0|0:0,0:0:0:0:
79,36,213868,6,0,P|139:87|109:185,1,153.75,0|0,3:0|0:0,0:0:0:0:
80,211,214201,1,8,0:0:0:0:
286,68,214368,1,0,3:0:0:0:
334,272,214535,5,2,0:0:0:0:
55,117,214701,1,0,3:0:0:0:
361,20,214868,2,0,P|375:75|338:139,1,102.5,8|0,0:0|0:0,0:0:0:0:
143,281,215201,5,0,3:0:0:0:
415,202,215368,1,0,3:0:0:0:
173,84,215535,1,8,0:0:0:0:
254,346,215701,1,2,0:0:0:0:
415,202,215868,6,0,L|285:192,1,102.5,0|0,3:0|3:0,0:0:0:0:
465,307,216201,1,8,0:0:0:0:
363,67,216368,1,2,0:0:0:0:
224,250,216535,5,0,3:0:0:0:
480,129,216701,1,0,3:0:0:0:
272,78,216868,1,8,0:0:0:0:
396,313,217035,1,2,0:0:0:0:
132,261,217201,5,0,3:0:0:0:
38,84,217368,1,0,3:0:0:0:
272,78,217535,1,8,0:0:0:0:
46,192,217701,1,2,0:0:0:0:
298,330,217868,6,0,L|311:220,1,102.5,0|8,3:0|0:0,0:0:0:0:
362,159,218118,1,8,0:0:0:0:
362,159,218201,1,8,0:0:0:0:
169,120,218368,1,8,0:0:0:0:
140,130,218451,1,8,0:0:0:0:
111,140,218535,6,0,L|47:158,1,51.25,0|0,3:0|3:0,0:0:0:0:
168,211,218701,2,0,L|104:229,1,51.25,0|0,3:0|3:0,0:0:0:0:
285,95,218868,2,0,L|349:77,1,51.25,8|8,0:0|0:0,0:0:0:0:
228,24,219035,2,0,L|292:6,2,51.25,8|8|0,0:0|0:0|3:0,0:0:0:0:
111,140,219368,5,8,3:0:0:0:
249,246,219535,1,8,3:0:0:0:
423,201,219701,1,8,3:0:0:0:
285,95,219868,1,2,0:0:0:0:
351,341,220035,5,8,0:0:0:0:
391,345,220118,1,8,0:0:0:0:
428,328,220201,1,8,0:0:0:0:
444,289,220285,1,8,0:0:0:0:
432,249,220368,2,0,P|421:225|430:184,1,51.25,8|8,0:0|0:0,0:0:0:0:
431,104,220535,6,0,B|332:98|332:98|274:111|236:54|253:-4|297:-21|343:-15|361:0|383:27|373:79|350:92|332:98|332:98|277:133|286:187|317:161|313:203|295:245|295:245|322:187|358:205|371:176|371:176|380:196|401:210,1,707.249978416443,4|0,0:0|0:0,0:0:0:0:
389,200,222785,6,0,L|453:204,1,51.25,2|2,0:0|0:0,0:0:0:0:
490,298,223167,2,0,L|428:300,1,51.25,2|2,0:0|0:0,0:0:0:0:
249,152,223549,6,0,B|121:170|7:56|7:56|55:204|135:152|192:206|192:206|123:196|109:232|41:216|41:216|81:258|125:236|180:259|180:259|101:286|133:304|51:335|51:335|170:269|277:321,1,1199.24994510269,2|0,0:0|0:0,0:0:0:0:
