osu file format v14

[General]
AudioFilename: vexaria 192.mp3
AudioLeadIn: 0
PreviewTime: 31134
Countdown: 0
SampleSet: Soft
StackLeniency: 0.5
Mode: 0
LetterboxInBreaks: 0
WidescreenStoryboard: 0

[Editor]
DistanceSpacing: 0.9
BeatDivisor: 4
GridSize: 32
TimelineZoom: 1.5

[Metadata]
Title:Vexaria
TitleUnicode:Vexaria
Artist:ak+q
ArtistUnicode:ak+q
Creator:Pentori
Version:sahuang's Normal
Source:Arcaea
Tags:mmc mmc3 modhelp mapping contest artcore miura [_sharuresu_] sharu bor _83 akitoshi corinn sahuang my angel azusa electoz
BeatmapID:1415348
BeatmapSetID:657498

[Difficulty]
HPDrainRate:4
CircleSize:3.5
OverallDifficulty:4
ApproachRate:5
SliderMultiplier:1.1
SliderTickRate:1

[Events]
//Background and Video events
0,0,"piano 1600.jpg",0,0
//Break Periods
2,66465,75931
//Storyboard Layer 0 (Background)
//Storyboard Layer 1 (Fail)
//Storyboard Layer 2 (Pass)
//Storyboard Layer 3 (Foreground)
//Storyboard Sound Samples

[TimingPoints]
802,333.333333333333,4,2,1,45,1,0
16468,-100,4,2,1,60,0,0
17468,333.333333333333,4,2,1,60,1,0
27467,333.333333333333,4,2,1,60,1,0
31133,333.333333333333,4,2,1,70,1,1
41132,333.333333333333,4,2,1,70,1,1
41132,-100,4,2,1,70,0,1
44382,-100,4,2,1,50,0,0
45131,-100,4,2,1,40,0,0
66465,-100,4,2,1,50,0,0
66715,-100,4,2,0,50,0,0
77131,-100,4,2,1,50,0,0
77465,-100,4,2,0,50,0,0
77798,-100,4,2,1,50,0,0
78131,-100,4,2,0,50,0,0
78465,-100,4,2,1,50,0,0
81131,-100,4,2,1,30,0,0
94465,-100,4,2,1,50,0,0
95465,333.333333333333,4,2,1,60,1,0
105464,333.333333333333,4,2,1,60,1,0
109464,-100,4,2,1,70,0,1
119463,333.333333333333,4,2,1,70,1,1
119463,-100,4,2,1,70,0,1
123463,-100,4,2,1,30,0,0
126129,-100,4,2,1,5,0,0

[Colours]
Combo1 : 255,128,0
Combo2 : 191,191,191
Combo3 : 0,183,183
Combo4 : 21,180,255
Combo5 : 255,0,0

[HitObjects]
116,302,802,6,0,P|182:314|245:292,1,110,2|0,1:2|0:0,0:0:0:0:
270,290,1301,2,0,L|268:173,1,110,0|2,0:0|0:0,0:0:0:0:
223,91,1968,2,0,P|157:79|94:101,1,110,0|0,0:0|0:0,0:0:0:0:
83,125,2468,2,0,L|98:247,2,110,0|0|2,0:0|0:0|0:0,0:0:0:0:
182,120,3468,6,0,L|197:242,1,110,2|0,0:0|0:0,0:0:0:0:
208,277,3968,2,0,P|236:307|305:315,1,110,0|2,0:0|0:0,0:0:0:0:
383,254,4635,2,0,P|395:188|304:163,1,165,2|0,0:0|0:0,0:0:0:0:
272,179,5301,1,2,0:0:0:0:
181,138,5635,1,2,0:0:0:0:
50,67,6135,6,0,L|61:185,1,110,2|0,0:0|0:0,0:0:0:0:
40,222,6635,1,0,0:0:0:0:
41,320,6968,1,0,0:0:0:0:
132,356,7301,2,0,P|183:335|298:378,1,165,2|0,0:0|0:0,0:0:0:0:
371,315,8135,1,0,0:0:0:0:
397,219,8468,1,2,0:0:0:0:
350,131,8801,6,0,B|303:163|245:120|245:120|211:150|211:150|168:105|98:124,1,275,2|0,0:0|0:0,0:0:0:0:
141,214,9968,2,0,P|194:116|136:36,1,220,2|0,0:0|0:0,0:0:0:0:
43,68,10968,1,0,0:0:0:0:
23,164,11301,1,2,0:0:0:0:
256,192,11468,12,0,16468,0:0:0:0:
103,265,17135,5,8,0:0:0:0:
186,317,17468,6,0,L|301:311,1,110,6|8,0:0|0:0,0:0:0:0:
337,283,17968,2,0,P|356:223|338:176,1,110,6|0,0:0|0:0,0:0:0:0:
306,144,18468,1,8,0:0:0:0:
226,84,18801,2,0,P|185:74|113:89,1,110,4|8,0:0|0:0,0:0:0:0:
32,133,19467,2,0,L|42:207,1,55,2|4,0:0|0:0,0:0:0:0:
79,217,19801,2,0,L|69:291,1,55,8|6,0:0|0:0,0:0:0:0:
52,317,20134,6,0,L|177:301,1,110,6|8,0:0|0:0,0:0:0:0:
201,274,20634,2,0,L|326:290,1,110,6|0,0:0|0:0,0:0:0:0:
352,313,21134,1,8,0:0:0:0:
428,250,21467,2,0,P|459:253|497:255,2,55,4|0|10,0:0|0:0|0:0,0:0:0:0:
357,180,22134,2,0,P|326:183|288:185,2,55,2|6|12,0:0|0:0|0:0,0:0:0:0:
394,147,22634,1,6,0:0:0:0:
394,147,22801,6,0,L|389:17,1,110,6|8,0:0|0:0,0:0:0:0:
341,24,23301,2,0,P|276:50|222:40,1,110,6|0,0:0|0:0,0:0:0:0:
192,24,23801,1,8,0:0:0:0:
99,59,24134,2,0,B|85:113|85:113|101:188,1,110,4|8,0:0|0:0,0:0:0:0:
135,257,24801,2,0,P|171:259|196:260,1,55,2|4,0:0|0:0,0:0:0:0:
227,227,25134,2,0,P|263:225|288:224,1,55,8|6,0:0|0:0,0:0:0:0:
329,209,25467,6,0,L|338:339,1,110,6|8,0:0|0:0,0:0:0:0:
316,363,25967,1,6,0:0:0:0:
316,363,26134,2,0,B|254:352|254:352|252:361|252:361|146:348,1,165,0|6,0:0|0:0,0:0:0:0:
65,380,26967,1,0,0:0:0:0:
109,238,27467,6,0,P|115:187|92:125,1,110,6|0,0:0|0:0,0:0:0:0:
67,92,27967,1,6,0:0:0:0:
67,92,28133,2,0,L|197:95,1,110,6|8,0:0|0:0,0:0:0:0:
218,67,28633,2,0,P|274:41|294:139,1,165,6|8,0:0|0:0,0:0:0:0:
263,203,29466,2,0,P|230:210|199:207,2,55,4|0|8,0:0|0:0|0:0,0:0:0:0:
346,251,30133,2,0,B|393:234|393:234|394:354|394:354|326:334,1,220,8|8,0:0|0:2,0:0:0:0:
250,349,31133,6,0,P|198:358|137:346,1,110,6|8,0:0|0:0,0:0:0:0:
105,315,31633,2,0,P|96:263|108:202,1,110,6|0,0:0|0:0,0:0:0:0:
142,173,32133,1,8,0:0:0:0:
238,151,32466,2,0,L|220:31,2,110,4|8|2,0:0|0:0|0:0,0:0:0:0:
261,194,33299,2,0,P|314:178|390:198,1,110,4|6,0:0|0:0,0:0:0:0:
396,225,33799,6,0,L|408:363,1,110,6|8,0:0|0:0,0:0:0:0:
370,369,34299,2,0,L|232:381,1,110,6|0,0:0|0:0,0:0:0:0:
219,350,34799,1,8,0:0:0:0:
122,327,35132,2,0,L|51:335,2,55,4|0|10,0:0|0:0|0:0,0:0:0:0:
101,229,35799,2,0,L|30:237,2,55,2|6|12,0:0|0:0|0:0,0:0:0:0:
141,200,36299,1,6,0:0:0:0:
141,200,36466,6,0,L|261:208,1,110,6|8,0:0|0:0,0:0:0:0:
300,205,36966,2,0,P|367:182|387:150,1,110,6|0,0:0|0:0,0:0:0:0:
401,103,37466,1,8,0:0:0:0:
359,13,37799,2,0,L|217:19,1,110,4|8,0:0|0:0,0:0:0:0:
185,93,38466,2,0,L|43:87,1,110,2|8,0:0|0:0,0:0:0:0:
29,107,38966,1,6,0:0:0:0:
29,107,39132,6,0,L|40:218,1,110,6|8,0:0|0:0,0:0:0:0:
68,257,39632,1,6,0:0:0:0:
68,257,39799,2,0,P|95:250|142:252,1,55,0|0,0:0|0:0,0:0:0:0:
208,297,40299,2,0,P|278:303|318:272,2,110,6|0|0,0:0|0:0|0:0,0:0:0:0:
168,266,41132,2,0,L|172:132,1,110,6|0,0:0|0:0,0:0:0:0:
230,76,41798,6,0,L|225:9,2,55,6|8|8,0:0|0:0|0:0,0:0:0:0:
267,108,42298,1,6,0:0:0:0:
359,72,42632,1,0,0:0:0:0:
455,94,42965,2,0,P|472:145|478:203,1,110
468,249,43465,1,8,0:0:0:0:
400,321,43798,2,0,L|412:383,2,55,8|4|0,0:0|0:0|3:0,0:0:0:0:
375,278,44298,2,0,P|327:309|329:199,1,220,0|0,3:0|0:0,0:0:0:0:
334,156,45131,6,0,L|210:160,1,110,6|4,0:0|0:0,0:0:0:0:
196,64,45798,2,0,L|305:60,1,110,4|4,0:0|0:0,0:0:0:0:
403,83,46465,2,0,P|450:130|469:185,1,110,6|4,0:0|0:0,0:0:0:0:
384,226,47131,2,0,P|343:188|320:139,1,110,4|4,0:0|0:0,0:0:0:0:
256,64,47798,6,0,L|118:61,1,110,6|4,0:0|0:0,0:0:0:0:
57,106,48465,1,4,0:0:0:0:
139,160,48798,1,4,0:0:0:0:
50,204,49131,2,0,P|49:252|65:348,1,110,6|4,0:0|0:0,0:0:0:0:
142,363,49798,1,4,0:0:0:0:
226,311,50131,1,4,0:0:0:0:
309,364,50465,6,0,L|433:346,1,110,6|4,0:0|0:0,0:0:0:0:
433,301,50965,2,0,P|424:240|443:181,1,110,2|0,0:0|0:0,0:0:0:0:
471,159,51465,1,6,0:0:0:0:
400,89,51798,2,0,P|307:85|213:99,1,165,6|0,0:0|0:0,0:0:0:0:
190,113,52465,2,0,P|154:99|102:107,2,73.3333333333333,4|6|6,0:0|0:0|0:0,0:0:0:0:
213,174,53131,6,0,L|219:308,1,110,6|4,0:0|0:0,0:0:0:0:
300,338,53798,2,0,L|434:332,1,110,4|6,0:0|0:0,0:0:0:0:
467,252,54465,1,6,0:0:0:0:
454,153,54798,1,8,0:0:0:0:
377,90,55131,2,0,L|388:13,2,55,4|4|8,0:0|0:0|0:0,0:0:0:0:
278,98,55798,6,0,P|220:105|152:89,1,110,6|8,0:0|0:0,0:0:0:0:
131,63,56298,1,6,0:0:0:0:
43,108,56631,2,0,P|52:136|52:174,1,55,6|8,0:0|0:0,0:0:0:0:
7,249,57131,2,0,P|15:306|62:351,1,110,6|8,0:0|0:0,0:0:0:0:
97,354,57631,1,6,0:0:0:0:
186,311,57965,2,0,L|262:303,1,55,6|8,0:0|0:0,0:0:0:0:
286,323,58298,1,4,0:0:0:0:
286,323,58465,6,0,L|414:315,1,110,6|8,0:0|0:0,0:0:0:0:
438,291,58965,2,0,P|445:236|396:167,1,110,6|6,0:0|0:0,0:0:0:0:
388,151,59465,1,8,0:0:0:0:
296,188,59798,2,0,P|234:215|177:197,1,110,6|10,0:0|0:0,0:0:0:0:
112,151,60465,2,0,L|91:67,1,55,2|6,0:0|0:0,0:0:0:0:
111,49,60798,2,0,L|195:28,1,55,8|4,0:0|0:0,0:0:0:0:
213,43,61131,6,0,P|280:56|349:35,1,110,6|8,0:0|0:0,0:0:0:0:
358,17,61631,1,6,0:0:0:0:
440,71,61965,2,0,L|451:147,1,55,0|8,0:0|0:0,0:0:0:0:
407,215,62465,1,6,0:0:0:0:
313,247,62798,2,0,B|290:251|290:251|284:247|284:247|252:248|252:248|246:243|246:243|188:250,1,110,2|6,0:0|0:0,0:0:0:0:
141,317,63465,1,8,0:0:0:0:
46,287,63798,6,0,L|37:158,1,110,6|8,0:0|0:0,0:0:0:0:
65,135,64298,1,6,0:0:0:0:
155,94,64631,1,6,0:0:0:0:
290,154,65131,1,6,0:0:0:0:
39,239,77131,6,0,L|164:243,1,110,4|0,0:0|1:0,0:0:0:0:
229,184,77798,2,0,L|354:188,1,110,4|2,0:0|0:3,0:0:0:0:
432,154,78465,6,0,P|444:120|440:73,2,73.3333333333333,4|4|4,0:0|0:0|0:0,0:0:0:0:
433,219,79131,2,0,P|456:246|499:266,2,73.3333333333333,4|4|4,0:0|0:0|0:0,0:0:0:0:
256,192,79687,12,0,81131,0:0:0:0:
388,238,82298,6,0,P|409:187|388:121,1,110,0|0,0:0|0:0,0:0:0:0:
359,103,82798,2,0,L|213:117,1,110,0|0,0:0|0:0,0:0:0:0:
158,74,83465,1,2,0:0:0:0:
70,120,83798,6,0,P|67:175|76:299,1,165,2|0,0:0|0:0,0:0:0:0:
167,252,84631,1,2,0:0:0:0:
246,310,84965,2,0,P|298:334|260:239,1,220,2|2,0:0|0:0,0:0:0:0:
216,161,85965,1,2,0:0:0:0:
286,30,86465,6,0,B|363:61|381:-3|449:32,1,165,2|0,0:0|0:0,0:0:0:0:
504,110,87298,1,0,0:0:0:0:
470,203,87631,2,0,B|426:233|426:233|289:220,1,165,2|0,0:0|0:0,0:0:0:0:
217,203,88465,1,0,0:0:0:0:
198,300,88798,1,2,0:0:0:0:
295,319,89131,6,0,B|353:324|387:299|387:299|410:332|458:333,1,165,2|0,0:0|0:0,0:0:0:0:
461,233,89965,1,0,0:0:0:0:
416,144,90298,2,0,B|349:151|316:129|316:129|289:154|289:154|256:136|173:149,1,220,2|0,0:0|0:0,0:0:0:0:
122,190,91298,1,0,0:0:0:0:
149,285,91631,1,2,0:0:0:0:
256,192,91798,12,0,94465,0:0:0:0:
120,67,95131,5,8,0:0:0:0:
189,138,95465,6,0,L|172:256,1,110,4|8,0:0|0:0,0:0:0:0:
183,295,95965,2,0,P|236:275|298:292,1,110,4|0,0:0|0:0,0:0:0:0:
327,313,96465,1,8,3:2:0:0:
411,261,96798,2,0,P|423:208|414:150,1,110,4|8,0:0|0:0,0:0:0:0:
305,53,97631,1,4,0:0:0:0:
305,53,97798,2,0,L|211:62,1,55,8|4,0:0|0:0,0:0:0:0:
207,83,98131,6,0,P|139:95|64:64,2,110,4|8|0,0:0|0:0|0:0,0:0:0:0:
278,151,99131,2,0,L|269:220,1,55,8|0,3:2|3:0,0:0:0:0:
303,243,99465,2,0,L|314:359,1,110,4|10,0:0|0:0,0:0:0:0:
218,323,100131,2,0,L|211:251,2,55,2|6|10,0:0|0:0|0:0,0:0:0:0:
178,353,100631,1,6,0:0:0:0:
178,353,100798,6,0,P|112:338|61:355,1,110,4|8,0:0|0:0,0:0:0:0:
28,370,101298,1,4,0:0:0:0:
28,271,101631,2,0,P|33:244|33:197,1,55,0|8,0:0|3:2,0:0:0:0:
94,138,102131,2,0,L|211:142,1,110,4|8,0:0|0:0,0:0:0:0:
288,193,102798,2,0,P|313:193|353:190,1,55,2|4,0:0|0:0,0:0:0:0:
381,160,103131,2,0,P|406:160|446:163,1,55,8|4,0:0|0:0,0:0:0:0:
472,194,103464,6,0,P|479:261|480:321,1,110,4|8,0:0|0:0,0:0:0:0:
460,348,103964,1,4,0:0:0:0:
362,331,104298,2,0,B|334:329|334:329|304:343,2,55,0|8|4,0:0|0:0|0:0,0:0:0:0:
388,289,104798,2,0,P|389:256|384:225,1,55,2|0,0:1|0:0,0:0:0:0:
357,193,105131,2,0,P|330:175|299:164,1,55,8|0,0:2|0:0,0:0:0:0:
260,175,105464,1,4,0:0:0:0:
194,249,105797,2,0,P|161:259|127:261,1,55,8|4,0:0|0:0,0:0:0:0:
91,252,106130,6,0,L|82:116,1,110,4|8,0:0|0:0,0:0:0:0:
100,95,106630,2,0,B|130:96|130:96|134:92|134:92|159:93|159:93|165:90|165:90|185:97|222:88,1,110,2|2,0:0|0:0,0:0:0:0:
240,54,107130,2,0,P|270:45|303:41,1,55,8|0,0:0|0:0,0:0:0:0:
341,56,107464,1,4,0:0:0:0:
420,117,107797,2,0,L|410:194,1,55,8|0,0:0|0:0,0:0:0:0:
384,211,108130,2,0,L|394:288,1,55,8|4,0:0|0:0,0:0:0:0:
382,314,108464,1,8,0:0:0:0:
290,277,108797,6,0,B|277:272|277:272|270:276|270:276|263:273|263:273|259:276|259:276|252:272|252:272|246:278|246:278|241:273|241:273|235:280|235:280|228:275|228:275|221:280|221:280|215:276|215:276|210:282|210:282|204:276|204:276|199:281|199:281|194:276|194:276|189:283|189:283|183:278|183:278|178:283|178:283|173:278|173:278|164:283|164:283|157:277,1,165
112,279,109464,6,0,P|66:243|68:184,1,110,6|8,0:0|0:0,0:0:0:0:
86,150,109964,2,0,L|235:140,1,110,6|0,0:0|0:0,0:0:0:0:
233,174,110464,1,8,0:0:0:0:
308,109,110797,2,0,L|315:0,2,110,4|8|2,0:0|0:0|0:0,0:0:0:0:
349,136,111630,2,0,L|403:127,2,55,4|8|6,0:0|0:0|0:0,0:0:0:0:
336,184,112130,6,0,L|348:332,1,110,6|8,0:0|0:0,0:0:0:0:
370,336,112630,2,0,L|260:327,1,110,6|0,0:0|0:0,0:0:0:0:
220,356,113130,1,8,0:0:0:0:
159,277,113463,2,0,L|170:198,2,55,4|0|10,0:0|0:0|0:0,0:0:0:0:
60,292,114130,2,0,L|52:346,2,55,2|6|10,0:0|0:0|0:0,0:0:0:0:
31,251,114630,1,6,0:0:0:0:
31,251,114797,6,0,P|16:186|21:132,1,110,6|8,0:0|0:0,0:0:0:0:
62,120,115297,2,0,P|127:105|181:110,1,110,6|0,0:0|0:0,0:0:0:0:
215,126,115797,2,0,L|277:117,1,55,8|0,0:0|0:0,0:0:0:0:
305,84,116130,2,0,L|442:97,1,110,4|8,0:0|0:0,0:0:0:0:
467,180,116797,2,0,L|473:244,1,55,2|4,0:0|0:0,0:0:0:0:
427,256,117130,2,0,L|421:320,1,55,8|6,0:0|0:0,0:0:0:0:
393,351,117463,6,0,P|337:325|233:335,1,165,6|6,0:0|0:0,0:0:0:0:
139,354,118297,2,0,L|59:360,1,55,0|8,0:0|0:0,0:0:0:0:
39,335,118630,1,6,0:0:0:0:
98,256,118963,1,0,0:0:0:0:
45,171,119297,1,0,0:0:0:0:
45,171,119463,2,0,P|46:94|65:48,1,110,6|0,0:0|0:0,0:0:0:0:
93,29,119963,1,6,0:0:0:0:
93,29,120129,6,0,B|168:63|182:5|255:42,1,165,6|6,0:0|0:0,0:0:0:0:
332,101,120963,1,0,0:0:0:0:
297,193,121296,2,0,P|283:245|296:298,1,110
333,331,121796,1,8,0:0:0:0:
383,247,122129,2,0,P|447:251|460:246,1,55,8|4,0:0|0:0,0:0:0:0:
480,229,122463,1,0,3:0:0:0:
480,229,122629,6,0,P|490:159|369:114,1,220,0|0,3:0|0:0,0:0:0:0:
328,140,123463,1,4,0:0:0:0:
256,192,123629,12,0,126129,0:0:0:0:
