osu file format v14

[General]
AudioFilename: vexaria 192.mp3
AudioLeadIn: 0
PreviewTime: 31134
Countdown: 0
SampleSet: Soft
StackLeniency: 0.5
Mode: 0
LetterboxInBreaks: 0
WidescreenStoryboard: 1

[Editor]
Bookmarks: 802,17468,41132,45131,53131,55798,66465,77131,81131,95465,109464,123463
DistanceSpacing: 0.9
BeatDivisor: 4
GridSize: 16
TimelineZoom: 2.5

[Metadata]
Title:Vexaria
TitleUnicode:Vexaria
Artist:ak+q
ArtistUnicode:ak+q
Creator:Pentori
Version:_83's Light Insane
Source:Arcaea
Tags:mmc mmc3 modhelp mapping contest artcore miura [_sharuresu_] sharu bor _83 akitoshi corinn sahuang my angel azusa electoz
BeatmapID:1403207
BeatmapSetID:657498

[Difficulty]
HPDrainRate:5
CircleSize:4
OverallDifficulty:8
ApproachRate:9
SliderMultiplier:1.4
SliderTickRate:1

[Events]
//Background and Video events
0,0,"piano 1600.jpg",0,0
//Break Periods
2,81331,88531
//Storyboard Layer 0 (Background)
//Storyboard Layer 1 (Fail)
//Storyboard Layer 2 (Pass)
//Storyboard Layer 3 (Foreground)
//Storyboard Sound Samples

[TimingPoints]
802,333.333333333333,4,2,0,60,1,0
17385,-100,4,2,0,5,0,0
17468,333.333333333333,4,2,0,60,1,0
17468,-76.9230769230769,4,2,0,60,0,0
25467,-71.4285714285714,4,2,0,60,0,0
27467,333.333333333333,4,2,0,60,1,0
27467,-76.9230769230769,4,2,0,60,0,0
31133,333.333333333333,4,2,0,60,1,1
31133,-66.6666666666667,4,2,0,60,0,1
41132,333.333333333333,4,2,0,60,1,1
41132,-66.6666666666667,4,2,0,60,0,1
44132,-80,4,2,0,60,0,1
45131,-80,4,2,0,60,0,0
65131,-100,4,2,0,60,0,0
95465,333.333333333333,4,2,0,60,1,0
95465,-76.9230769230769,4,2,0,60,0,0
105464,333.333333333333,4,2,0,60,1,0
105464,-76.9230769230769,4,2,0,60,0,0
109464,-66.6666666666667,4,2,0,60,0,1
119463,333.333333333333,4,2,0,60,1,1
119463,-66.6666666666667,4,2,0,60,0,1
123463,-133.333333333333,4,2,0,60,0,0
124796,-133.333333333333,4,2,0,5,0,0

[Colours]
Combo1 : 255,128,0
Combo2 : 191,191,191
Combo3 : 0,183,183
Combo4 : 21,180,255
Combo5 : 255,0,0

[HitObjects]
405,230,16468,5,8,3:0:0:0:
394,194,16551,1,8,3:0:0:0:
401,156,16635,1,4,3:0:0:0:
400,118,16718,1,4,3:0:0:0:
413,82,16801,6,0,L|461:98,3,35,2|2|2|2,0:0|0:0|0:0|0:0,0:0:0:0:
374,86,17135,2,0,L|258:47,1,105,0|0,1:0|0:0,0:0:0:0:
230,11,17468,6,0,P|212:78|139:89,1,136.499993751526,4|0,0:3|0:0,0:0:0:0:
119,68,17801,1,0,1:0:0:0:
43,121,17968,2,0,L|12:311,1,181.999991668702,4|0,0:3|0:0,0:0:0:0:
98,384,18468,2,0,P|96:337|135:271,1,90.9999958343508,0|0,1:0|3:0,0:0:0:0:
125,299,18718,1,0,3:0:0:0:
138,301,18801,6,0,P|154:258|151:213,1,90.9999958343508,4|0,3:0|0:0,0:0:0:0:
77,114,19134,2,0,L|183:128,1,90.9999958343508,0|0,1:0|0:0,0:0:0:0:
255,176,19467,1,0,0:0:0:0:
348,170,19634,1,4,3:0:0:0:
395,86,19801,1,0,1:0:0:0:
363,183,19967,1,4,3:0:0:0:
433,264,20134,6,0,L|441:366,2,90.9999958343508,2|0|2,0:0|0:0|1:2,0:0:0:0:
378,196,20634,1,4,3:0:0:0:
343,116,20801,2,0,L|350:25,1,90.9999958343508,2|0,0:0|0:0,0:0:0:0:
214,6,21134,2,0,P|204:57|218:110,1,90.9999958343508,0|0,1:0|3:0,0:0:0:0:
221,104,21384,1,0,3:0:0:0:
231,113,21467,6,0,P|241:164|227:217,1,90.9999958343508,4|0,3:0|0:0,0:0:0:0:
178,284,21801,2,0,P|138:318|85:332,1,90.9999958343508,2|0,1:2|0:0,0:0:0:0:
17,294,22134,1,2,0:0:0:0:
101,318,22301,1,4,3:0:0:0:
185,294,22467,1,2,1:2:0:0:
269,318,22634,1,4,3:0:0:0:
327,384,22801,6,0,P|315:318|384:266,1,136.499993751526,4|0,3:0|0:0,0:0:0:0:
394,293,23134,1,0,1:0:0:0:
491,254,23301,2,0,L|469:61,1,181.999991668702,4|0,3:0|0:0,0:0:0:0:
382,0,23801,2,0,P|383:56|343:107,1,90.9999958343508,0|0,1:0|3:0,0:0:0:0:
354,91,24051,1,0,3:0:0:0:
341,96,24134,6,0,L|242:86,1,90.9999958343508,4|0,3:0|0:0,0:0:0:0:
138,32,24467,2,0,P|148:69|121:149,1,90.9999958343508,0|0,1:0|0:0,0:0:0:0:
70,185,24801,1,0,0:0:0:0:
90,277,24967,1,4,3:0:0:0:
198,384,25134,2,0,P|209:319|195:273,1,90.9999958343508,0|4,1:0|3:0,0:0:0:0:
194,285,25384,1,0,0:0:0:0:
184,275,25467,6,0,B|249:268|249:268|327:291,1,146.999995513916,4|0,3:0|0:0,0:0:0:0:
368,304,25801,1,0,1:0:0:0:
465,261,25967,2,0,L|479:147,1,97.9999970092774,4|2,3:0|0:0,0:0:0:0:
465,71,26301,1,4,3:0:0:0:
465,71,26467,1,2,0:0:0:0:
386,131,26634,6,0,P|306:112|280:-2,1,195.999994018555,4|0,3:0|0:0,0:0:0:0:
374,0,27134,1,2,1:2:0:0:
374,0,27301,1,2,0:0:0:0:
294,42,27467,6,0,L|185:49,2,90.9999958343508,4|0|2,3:0|0:0|0:0,0:0:0:0:
333,126,27967,1,4,3:0:0:0:
283,203,28133,1,4,3:0:0:0:
333,280,28300,1,0,0:0:0:0:
343,120,28467,1,2,1:2:0:0:
276,212,28633,5,4,3:0:0:0:
276,212,28967,1,0,0:0:0:0:
343,120,29133,1,2,1:2:0:0:
276,28,29300,1,0,0:0:0:0:
276,28,29466,2,0,L|146:42,1,90.9999958343508,4|0,3:0|0:0,0:0:0:0:
23,111,29800,2,0,L|153:125,1,90.9999958343508,0|0,1:0|0:0,0:0:0:0:
125,128,30050,1,0,3:0:0:0:
136,135,30133,6,0,L|145:195,1,45.4999979171754,0|0,1:0|1:0,0:0:0:0:
81,245,30300,1,8,3:0:0:0:
81,245,30383,1,8,3:0:0:0:
81,245,30466,2,0,L|20:251,3,45.4999979171754,4|0|0|0,3:0|0:0|0:0|0:0,0:0:0:0:
102,275,30800,6,0,L|94:338,1,45.4999979171754,0|0,1:0|0:0,0:0:0:0:
335,373,31133,6,0,P|306:293|384:234,1,157.500006008148,4|0,1:0|0:0,0:0:0:0:
381,232,31466,2,0,P|416:237|447:267,1,52.5000020027161,0|0,1:0|0:0,0:0:0:0:
505,196,31633,2,0,B|473:148|465:96|465:96|426:137|373:151,1,210.000008010865,4|0,3:0|0:0,0:0:0:0:
255,118,32133,1,0,1:0:0:0:
328,3,32299,1,0,3:0:0:0:
342,8,32383,1,0,3:0:0:0:
355,15,32466,6,0,L|361:141,1,105.000004005432,4|0,3:0|0:0,0:0:0:0:
425,233,32799,2,0,L|419:359,1,105.000004005432,0|0,1:0|0:0,0:0:0:0:
407,347,33049,1,2,0:0:0:0:
394,356,33133,2,0,P|357:362|328:356,1,52.5000020027161,2|2,0:0|0:0,0:0:0:0:
267,320,33299,1,4,3:0:0:0:
341,191,33466,1,0,1:0:0:0:
252,232,33633,1,4,3:0:0:0:
175,318,33799,6,0,L|162:186,1,105.000004005432,4|0,3:0|0:0,0:0:0:0:
80,96,34133,1,2,1:2:0:0:
69,200,34299,1,2,0:0:0:0:
161,89,34466,1,2,0:0:0:0:
195,165,34632,1,2,0:0:0:0:
227,42,34799,1,0,1:0:0:0:
261,66,34882,1,8,3:0:0:0:
295,91,34965,1,8,3:0:0:0:
329,115,35049,1,4,3:0:0:0:
363,140,35132,6,0,P|344:77|347:27,1,105.000004005432,4|2,3:0|0:0,0:0:0:0:
489,10,35466,2,0,P|463:55|453:107,1,105.000004005432,2|0,1:2|0:0,0:0:0:0:
512,231,35799,1,2,0:0:0:0:
482,261,35882,1,4,3:0:0:0:
461,297,35966,1,2,0:0:0:0:
381,378,36132,2,0,P|371:326|345:280,1,105.000004005432,0|4,1:0|3:0,0:0:0:0:
241,236,36466,6,0,L|74:252,1,157.500006008148,4|0,3:0|0:0,0:0:0:0:
49,273,36799,2,0,P|37:306|43:354,1,52.5000020027161,0|0,1:0|0:0,0:0:0:0:
168,340,36966,2,0,B|211:242|211:242|159:119,1,210.000008010865,4|0,3:0|0:0,0:0:0:0:
129,50,37466,1,0,1:0:0:0:
24,119,37632,1,0,3:0:0:0:
32,132,37716,1,0,3:0:0:0:
40,145,37799,6,0,L|165:161,1,105.000004005432,4|0,3:0|0:0,0:0:0:0:
304,99,38132,2,0,L|429:83,1,105.000004005432,0|0,1:0|0:0,0:0:0:0:
421,77,38382,1,2,0:0:0:0:
434,69,38466,2,0,P|418:46|390:29,1,52.5000020027161,2|0,0:0|0:0,0:0:0:0:
313,0,38632,1,4,3:0:0:0:
222,146,38799,2,0,P|254:180|336:189,1,105.000004005432,0|0,1:0|3:0,0:0:0:0:
324,191,39049,1,4,3:0:0:0:
339,188,39132,6,0,L|321:312,1,105.000004005432,4|0,3:0|0:0,0:0:0:0:
227,384,39466,1,2,1:2:0:0:
188,286,39632,1,2,0:0:0:0:
95,342,39799,1,2,0:0:0:0:
107,258,39965,1,2,0:0:0:0:
1,239,40132,1,0,1:0:0:0:
46,103,40299,6,0,L|26:233,1,105.000004005432,4|0,1:3|0:0,0:0:0:0:
157,357,40632,2,0,L|141:253,1,105.000004005432,2|0,0:0|0:0,0:0:0:0:
1,239,40966,1,2,0:0:0:0:
120,282,41132,5,4,3:0:0:0:
143,158,41298,1,2,0:0:0:0:
208,81,41465,1,2,1:2:0:0:
283,53,41632,1,4,3:0:0:0:
345,63,41798,1,4,3:0:0:0:
477,20,41965,6,0,L|351:35,1,105.000004005432,0|0,1:0|0:0,0:0:0:0:
270,148,42298,2,0,L|514:118,1,210.000008010865,4|2,3:0|0:0,0:0:0:0:
512,288,42798,2,0,P|486:241|409:230,1,105.000004005432,0|0,1:0|3:0,0:0:0:0:
415,233,43048,1,0,3:0:0:0:
390,242,43132,2,0,L|262:228,1,105.000004005432,4|0,3:0|0:0,0:0:0:0:
208,287,43465,1,0,1:0:0:0:
249,384,43632,1,4,3:0:0:0:
249,384,43715,1,4,3:0:0:0:
249,384,43798,5,0,1:0:0:0:
202,373,43882,1,8,3:0:0:0:
156,362,43965,1,4,3:0:0:0:
110,351,44048,1,4,3:0:0:0:
97,353,44132,6,0,P|99:326|108:298,3,43.75,2|0|0|0,0:0|3:0|3:0|3:0,0:0:0:0:
116,298,44465,2,0,L|125:277,12,21.875,0|0|0|0|0|0|0|0|0|0|0|0|0,3:0|3:0|3:0|3:0|3:0|3:0|3:0|3:0|3:0|3:0|3:0|3:0|3:0,3:0:0:0:
0,163,45131,6,0,B|81:203|81:203|187:186,1,175,4|4,3:0|3:0,0:0:0:0:
241,142,45631,2,0,L|258:41,1,87.5,2|4,0:0|3:0,0:0:0:0:
348,9,45965,2,0,L|362:95,1,87.5,2|4,0:0|3:0,0:0:0:0:
504,293,46465,6,0,P|480:202|400:178,1,175,4|4,3:0|3:0,0:0:0:0:
342,237,46965,2,0,L|357:342,1,87.5,2|4,0:0|3:0,0:0:0:0:
242,384,47298,2,0,L|254:297,1,87.5,2|4,0:0|3:0,0:0:0:0:
33,358,47798,6,0,B|88:347|88:347|232:373,1,175,4|4,3:0|3:0,0:0:0:0:
295,351,48298,2,0,P|308:279|290:240,1,87.5,2|4,0:0|3:0,0:0:0:0:
402,175,48631,2,0,P|389:247|407:286,1,87.5,2|4,0:0|3:0,0:0:0:0:
512,79,49131,6,0,L|357:97,1,131.25,4|0,3:0|0:0,0:0:0:0:
346,80,49465,2,0,B|321:118|321:118|325:179,1,87.5,2|2,0:0|0:0,0:0:0:0:
445,255,49798,2,0,B|470:217|470:217|466:156,1,87.5,2|2,0:0|0:0,0:0:0:0:
368,291,50131,1,2,3:2:0:0:
290,302,50298,1,2,3:2:0:0:
212,314,50465,6,0,L|32:291,1,175,4|4,3:0|3:0,0:0:0:0:
0,202,50965,2,0,P|84:183|107:94,1,175,2|0,0:0|0:0,0:0:0:0:
191,0,51465,2,0,P|186:58|199:105,1,87.5,4|0,3:0|0:0,0:0:0:0:
235,161,51798,5,4,3:0:0:0:
235,161,52354,1,0,3:0:0:0:
270,184,52465,2,0,P|302:159|395:171,2,116.666666666667,4|4|4,3:0|3:0|3:0,0:0:0:0:
239,165,53020,1,0,3:0:0:0:
208,146,53131,6,0,L|79:157,1,87.5,2|0,0:0|0:0,0:0:0:0:
49,229,53465,1,4,3:0:0:0:
49,229,53631,2,0,L|178:240,1,87.5,2|0,0:0|0:0,0:0:0:0:
240,272,53965,1,0,0:0:0:0:
240,272,54131,2,0,P|253:312|244:355,1,87.5,4|0,3:0|0:0,0:0:0:0:
340,223,54465,5,4,3:0:0:0:
340,223,54798,1,0,1:0:0:0:
491,44,55131,1,8,3:0:0:0:
478,90,55215,1,8,3:0:0:0:
466,136,55298,1,4,3:0:0:0:
454,182,55381,1,4,3:0:0:0:
443,229,55465,2,0,L|426:80,1,131.25,0|0,1:0|0:0,0:0:0:0:
401,64,55798,5,2,0:0:0:0:
378,157,55965,1,2,0:0:0:0:
305,220,56131,1,2,0:0:0:0:
328,313,56298,2,0,P|275:247|211:243,1,131.25,4|0,3:0|0:0,0:0:0:0:
195,246,56631,2,0,P|172:261|147:304,1,43.75,4|0,3:0|0:0,0:0:0:0:
86,372,56798,2,0,L|75:272,1,87.5,2|2,1:2|0:0,0:0:0:0:
0,179,57131,5,2,0:0:0:0:
91,148,57298,1,2,0:0:0:0:
158,79,57465,1,2,1:2:0:0:
249,110,57632,1,2,0:0:0:0:
343,95,57798,1,2,0:0:0:0:
405,21,57965,1,2,0:0:0:0:
499,35,58131,2,0,P|479:89|496:144,1,87.5,2|0,1:2|0:0,0:0:0:0:
506,211,58465,5,4,3:0:0:0:
414,238,58631,1,2,0:0:0:0:
350,310,58798,1,2,1:2:0:0:
258,283,58964,1,2,0:0:0:0:
167,316,59131,1,2,0:0:0:0:
87,261,59298,2,0,P|101:214|77:143,1,87.5,2|0,0:0|1:0,0:0:0:0:
0,383,59631,1,0,3:0:0:0:
48,379,59715,1,0,3:0:0:0:
95,375,59798,6,0,B|137:357|137:357|150:309,1,87.5,4|0,3:0|0:0,0:0:0:0:
44,237,60131,1,2,1:2:0:0:
44,237,60298,1,0,3:0:0:0:
97,140,60465,2,0,L|83:93,2,43.75,2|0|4,0:0|0:0|3:0,0:0:0:0:
183,183,60798,2,0,P|185:141|215:75,1,87.5,0|4,1:0|3:0,0:0:0:0:
224,72,61048,1,4,3:0:0:0:
253,53,61131,6,0,L|406:63,1,131.25,4|0,3:0|0:0,0:0:0:0:
419,64,61465,1,0,1:0:0:0:
454,153,61631,1,2,0:0:0:0:
508,232,61798,1,2,0:0:0:0:
473,321,61964,1,2,0:0:0:0:
379,342,62131,1,2,1:2:0:0:
311,276,62297,1,2,0:0:0:0:
219,308,62465,6,0,L|118:293,1,87.5,4|2,3:0|0:0,0:0:0:0:
42,329,62798,2,2,L|7:323,2,21.875,2|2|2,3:0|3:0|3:0,3:0:0:0:
74,364,62965,1,2,0:0:0:0:
65,247,63131,1,4,3:0:0:0:
65,247,63354,1,4,3:0:0:0:
65,247,63576,2,0,L|80:176,1,58.3333333333333,4|0,3:0|0:0,0:0:0:0:
15,130,63798,6,0,B|53:155|53:155|189:180,1,175,2|0,0:0|1:0,0:0:0:0:
265,133,64298,2,0,P|259:39|184:8,1,175,4|4,3:0|3:0,0:0:0:0:
106,50,64798,2,0,L|91:153,1,87.5,0|0,1:0|0:0,0:0:0:0:
101,175,65048,1,2,0:0:0:0:
108,213,65131,6,0,B|166:212|166:212|221:242|221:242|287:243|287:243|343:275,1,245,2|0,0:0|0:0,0:0:0:0:
367,294,65798,1,4,3:0:0:0:
441,233,65965,1,4,3:0:0:0:
441,233,66048,1,4,3:0:0:0:
441,233,66131,1,0,1:0:0:0:
512,384,66465,5,4,3:1:0:0:
512,384,69131,6,0,L|470:380,3,35,0|0|0|0,3:0|3:0|3:0|3:0,3:0:0:0:
454,355,69465,1,2,3:0:0:0:
358,378,69631,2,0,L|316:382,2,35,0|0|0,3:0|3:0|3:0,3:0:0:0:
386,305,69965,2,0,L|389:270,1,35,0|0,3:0|3:0,3:0:0:0:
458,154,70298,6,0,L|468:246,2,70,0|0|0,3:0|3:0|3:0,3:0:0:0:
499,66,70798,2,0,B|461:71|461:71|405:55,1,70,0|0,3:0|3:0,3:0:0:0:
357,7,71131,2,0,P|311:31|284:84,2,105,0|0|0,3:0|3:0|3:0,3:0:0:0:
321,102,71798,6,0,L|335:179,1,70,0|0,3:0|3:0,3:0:0:0:
282,244,72131,1,2,3:0:0:0:
282,244,72298,1,0,3:0:0:0:
282,244,72465,1,0,3:0:0:0:
282,244,72631,2,2,B|269:281|278:309|280:317|281:324|291:352|280:386,1,140,2|0,3:0|3:0,0:1:0:0:
163,384,73131,6,0,L|174:277,1,93.3333333333333,0|0,3:0|3:0,3:0:0:0:
82,160,73548,2,0,L|79:122,2,35,0|0|2,3:0|3:0|3:0,3:0:0:0:
82,160,73881,2,0,L|103:198,1,35,0|2,3:0|3:0,3:0:0:0:
241,91,74131,2,0,L|225:60,1,35,0|2,3:0|3:0,3:0:0:0:
225,60,74465,6,0,L|311:72,1,70,0|0,3:0|3:0,3:0:0:0:
387,40,74798,2,0,L|410:37,4,17.5,0|0|0|0|0,3:0|3:0|3:0|3:0|3:0,3:0:0:0:
508,224,75298,2,0,L|485:221,4,17.5,0|0|0|0|0,3:0|3:0|3:0|3:0|3:0,3:0:0:0:
405,318,75631,2,0,L|452:311,2,35,0|0|0,3:0|3:0|3:0,3:0:0:0:
209,374,76048,2,0,L|165:367,3,35,0|0|0|0,3:0|3:0|3:0|3:0,3:0:0:0:
225,382,76381,6,0,B|248:330|208:295|208:295|152:340|91:329|91:329|77:289|102:260,1,280,0|0,3:0|0:0,0:0:0:0:
121,245,77131,5,4,3:0:0:0:
25,61,77798,1,4,3:0:0:0:
231,19,78465,2,0,L|190:135,2,93.3333333333333,4|4|4,3:0|3:0|3:0,0:0:0:0:
342,87,79131,2,0,L|310:0,2,93.3333333333333,4|4|4,3:0|3:0|3:0,0:0:0:0:
342,87,80131,6,0,P|395:73|415:27,1,105,0|4,1:0|3:0,0:0:0:0:
400,3,80465,2,0,L|341:7,2,35,0|0|4,1:0|3:0|3:0,0:0:0:0:
495,54,80798,2,0,L|519:51,6,17.5,0|0|0|0|0|0|0,3:0|3:0|3:0|3:0|3:0|3:0|3:0,3:0:0:0:
474,80,81131,5,4,3:0:0:0:
256,192,89131,12,8,94465,3:0:0:0:
46,338,95465,6,0,L|154:348,1,90.9999958343508,4|2,3:0|0:0,0:0:0:0:
222,288,95798,2,0,L|330:278,1,90.9999958343508,0|4,1:2|3:0,0:0:0:0:
398,338,96131,1,2,0:0:0:0:
479,131,96465,2,0,P|475:154|451:188,3,45.4999979171754,0|0|0|0,1:0|0:0|0:0|0:0,0:0:0:0:
426,181,96798,6,0,P|423:123|390:78,1,90.9999958343508,4|0,3:0|0:0,0:0:0:0:
328,54,97131,1,0,1:0:0:0:
237,87,97298,1,0,3:0:0:0:
196,81,97381,1,0,3:0:0:0:
155,75,97465,2,0,P|137:53|130:29,2,45.4999979171754,2|0|4,0:0|0:0|3:0,0:0:0:0:
97,157,97798,1,0,1:0:0:0:
126,253,97965,1,0,0:0:0:0:
65,334,98131,6,0,P|103:336|176:312,1,90.9999958343508,4|2,3:0|0:0,0:0:0:0:
244,276,98465,2,0,P|272:250|306:181,1,90.9999958343508,2|4,1:2|3:0,0:0:0:0:
329,108,98798,1,2,0:0:0:0:
512,0,99131,2,0,P|498:23|488:65,3,45.4999979171754,0|0|0|0,1:0|0:0|0:0|0:0,0:0:0:0:
459,57,99465,6,0,L|472:155,1,90.9999958343508,4|2,3:0|0:0,0:0:0:0:
399,217,99798,2,0,L|386:315,1,90.9999958343508,2|2,1:2|0:0,0:0:0:0:
459,377,100131,1,2,3:0:0:0:
368,321,100298,1,4,3:0:0:0:
277,377,100465,1,0,1:0:0:0:
186,321,100631,1,4,3:0:0:0:
95,377,100798,6,0,P|81:328|77:281,1,90.9999958343508,4|2,3:0|0:0,0:0:0:0:
139,204,101131,2,0,P|153:155|157:108,1,90.9999958343508,0|4,1:0|3:0,0:0:0:0:
95,31,101465,1,2,0:0:0:0:
318,106,101798,2,0,L|259:87,3,45.4999979171754,0|0|0|0,1:0|0:0|0:0|0:0,0:0:0:0:
247,62,102131,6,0,P|297:62|344:41,1,90.9999958343508,4|0,3:0|0:0,0:0:0:0:
446,0,102465,2,0,P|422:37|437:100,1,90.9999958343508,0|0,1:0|0:0,0:0:0:0:
501,174,102798,2,0,P|502:199|492:225,1,45.4999979171754,2|2,0:0|0:0,0:0:0:0:
492,231,102964,2,0,P|480:253|458:270,1,45.4999979171754,4|2,3:0|0:0,0:0:0:0:
455,275,103131,1,0,1:0:0:0:
350,326,103298,1,8,3:0:0:0:
309,332,103381,1,4,3:0:0:0:
268,339,103464,6,0,L|155:329,1,90.9999958343508,4|2,3:0|0:0,0:0:0:0:
76,359,103798,2,0,P|85:313|70:239,1,90.9999958343508,2|4,1:2|3:0,0:0:0:0:
12,197,104131,1,2,0:0:0:0:
131,11,104464,2,0,P|119:43|97:65,1,45.4999979171754,2|0,1:2|0:0,0:0:0:0:
77,53,104631,1,4,3:0:0:0:
105,142,104798,6,0,L|229:138,1,90.9999958343508,0|2,0:0|0:0,0:0:0:0:
291,79,105131,2,0,L|415:83,1,90.9999958343508,2|2,1:2|0:0,0:0:0:0:
504,128,105464,5,4,3:0:0:0:
420,91,105630,1,2,0:0:0:0:
333,120,105797,1,2,1:2:0:0:
296,203,105964,1,4,3:0:0:0:
335,284,106130,2,0,P|328:328|305:380,2,90.9999958343508,4|2|2,3:0|0:0|1:2,0:0:0:0:
280,211,106630,6,0,L|251:215,8,22.7499989585877,2|0|0|0|0|0|0|0|0,3:2|3:0|3:0|3:0|3:0|3:0|3:0|3:0|3:0,3:0:0:0:
353,156,107130,2,0,L|451:165,1,90.9999958343508,0|0,1:0|0:0,0:0:0:0:
507,239,107464,2,0,P|447:257|428:331,1,136.499993751526,4|0,3:0|0:0,0:0:0:0:
463,348,107797,2,0,P|414:316|336:358,1,136.499993751526,0|4,1:0|3:0,0:0:0:0:
333,380,108130,5,8,3:0:0:0:
292,374,108214,1,8,3:0:0:0:
251,368,108297,1,4,3:0:0:0:
210,362,108380,1,4,3:0:0:0:
169,356,108464,1,0,1:0:0:0:
45,254,108630,2,0,L|49:191,1,45.4999979171754,4|4,3:0|3:0,0:0:0:0:
34,168,108797,2,0,B|86:182|86:182|196:155,1,136.499993751526,4|0,3:0|0:0,0:0:0:0:
193,139,109130,2,0,P|183:74|105:41,1,136.499993751526,2|0,0:1|0:0,0:0:0:0:
85,47,109464,6,0,B|55:124|55:124|93:232,1,157.500006008148,2|0,0:0|0:0,0:0:0:0:
96,243,109797,2,0,L|113:293,1,52.5000020027161,0|0,1:0|0:0,0:0:0:0:
205,358,109964,2,0,B|236:319|234:260|234:260|269:310|333:332,1,210.000008010865,4|0,3:0|0:0,0:0:0:0:
448,356,110464,1,0,1:0:0:0:
495,282,110630,1,2,0:0:0:0:
448,201,110797,6,0,P|434:145|464:97,1,105.000004005432,4|0,3:0|0:0,0:0:0:0:
512,21,111130,2,0,L|380:36,1,105.000004005432,0|0,1:0|3:0,0:0:0:0:
379,47,111380,1,0,3:0:0:0:
350,61,111464,2,0,L|288:55,2,52.5000020027161,2|0|4,0:0|0:0|3:0,0:0:0:0:
390,158,111797,1,0,1:0:0:0:
328,243,111964,1,8,3:0:0:0:
397,362,112130,6,0,P|393:301|265:293,1,210.000008010865,4|0,3:0|1:0,0:0:0:0:
200,362,112630,2,0,L|72:368,1,105.000004005432,4|0,3:0|0:0,0:0:0:0:
20,258,112963,1,2,0:0:0:0:
39,232,113047,1,2,0:0:0:0:
57,207,113130,2,0,P|68:183|72:143,1,52.5000020027161,2|0,0:0|0:0,0:0:0:0:
78,126,113297,2,0,P|76:99|58:63,1,52.5000020027161,2|0,0:0|0:0,0:0:0:0:
48,48,113463,5,4,3:0:0:0:
203,15,113630,1,2,3:2:0:0:
194,45,113713,1,2,3:2:0:0:
187,76,113797,2,0,L|225:197,1,105.000004005432,0|0,1:0|0:0,0:0:0:0:
363,203,114130,1,2,0:0:0:0:
363,203,114213,1,4,3:0:0:0:
363,203,114297,1,2,0:0:0:0:
497,192,114463,2,0,L|361:172,1,105.000004005432,0|4,1:0|3:0,0:0:0:0:
267,252,114797,6,0,P|261:328|371:366,1,210.000008010865,4|0,3:0|1:0,0:0:0:0:
430,256,115297,2,0,L|401:44,1,210.000008010865,4|0,3:0|0:0,0:0:0:0:
283,0,115797,1,2,1:2:0:0:
178,49,115963,1,0,3:0:0:0:
146,44,116047,1,0,3:0:0:0:
114,39,116130,6,0,P|108:135|-1:125,1,210.000008010865,4|0,3:0|1:0,0:0:0:0:
5,255,116630,2,0,L|143:234,1,105.000004005432,2|0,0:0|0:0,0:0:0:0:
138,249,116880,1,2,0:0:0:0:
167,259,116963,1,4,3:0:0:0:
284,312,117130,2,0,P|306:263|287:196,1,105.000004005432,0|0,1:0|3:0,0:0:0:0:
276,190,117380,1,4,3:0:0:0:
254,166,117463,6,0,P|232:117|251:50,1,105.000004005432,4|0,3:0|0:0,0:0:0:0:
383,0,117797,1,2,1:2:0:0:
407,80,117963,1,2,0:0:0:0:
459,147,118130,1,2,0:0:0:0:
435,227,118297,1,2,0:0:0:0:
339,268,118463,1,0,1:0:0:0:
415,378,118630,6,0,P|385:305|248:316,1,210.000008010865,4|0,3:0|0:0,0:0:0:0:
227,370,119130,1,0,1:0:0:0:
227,370,119297,1,2,0:0:0:0:
147,309,119463,5,2,0:0:0:0:
43,320,119629,1,2,0:0:0:0:
0,223,119796,1,2,0:0:0:0:
52,131,119963,1,2,0:0:0:0:
18,31,120129,2,0,L|128:46,1,105.000004005432,4|0,3:0|0:0,0:0:0:0:
225,21,120463,1,0,1:0:0:0:
347,47,120629,6,0,P|280:31|255:173,1,210.000008010865,4|0,3:0|0:0,0:0:0:0:
298,243,121129,2,0,L|281:356,1,105.000004005432,0|0,1:0|0:0,0:0:0:0:
157,349,121463,2,0,P|208:336|260:367,1,105.000004005432,4|0,3:0|0:0,0:0:0:0:
357,376,121796,2,0,P|408:389|460:358,1,105.000004005432,0|0,1:0|0:0,0:0:0:0:
453,324,122046,1,4,3:0:0:0:
427,290,122129,5,0,1:0:0:0:
438,249,122213,1,8,3:0:0:0:
450,208,122296,1,4,3:0:0:0:
462,168,122379,1,4,3:0:0:0:
474,127,122463,2,0,P|469:98|478:73,3,52.5000020027161,2|0|0|0,0:0|0:0|0:0|0:0,0:0:0:0:
256,192,123463,6,0,B|204:188|159:153|159:153|192:255|165:349|99:370|59:343|63:313|57:274|105:254,1,420.000016021729,4|0,0:1|0:0,0:0:0:0:
