osu file format v14

[General]
AudioFilename: vexaria 192.mp3
AudioLeadIn: 0
PreviewTime: 31134
Countdown: 0
SampleSet: Soft
StackLeniency: 0.3
Mode: 0
LetterboxInBreaks: 0
WidescreenStoryboard: 0

[Editor]
Bookmarks: 802,17468,31133,45131,55798,66465,81131,95465,109464,123463
DistanceSpacing: 0.4
BeatDivisor: 4
GridSize: 32
TimelineZoom: 2.400005

[Metadata]
Title:Vexaria
TitleUnicode:Vexaria
Artist:ak+q
ArtistUnicode:ak+q
Creator:Pentori
Version:Miura's Another
Source:Arcaea
Tags:mmc mmc3 modhelp mapping contest artcore miura [_sharuresu_] sharu bor _83 akitoshi corinn sahuang my angel azusa electoz
BeatmapID:1392666
BeatmapSetID:657498

[Difficulty]
HPDrainRate:6.3
CircleSize:4
OverallDifficulty:8.3
ApproachRate:9.3
SliderMultiplier:1.97
SliderTickRate:1

[Events]
//Background and Video events
0,0,"piano 1600.jpg",0,0
//Break Periods
//Storyboard Layer 0 (Background)
//Storyboard Layer 1 (Fail)
//Storyboard Layer 2 (Pass)
//Storyboard Layer 3 (Foreground)
//Storyboard Sound Samples

[TimingPoints]
802,333.333333333333,4,2,1,40,1,0
802,-200,4,2,1,40,0,0
16468,-100,4,2,1,70,0,0
16968,-76.9230769230769,4,2,1,70,0,0
17135,-232.558139534884,4,2,1,70,0,0
17468,333.333333333333,4,2,1,70,1,0
17468,-100,4,2,1,70,0,0
19134,-76.9230769230769,4,2,1,70,0,0
19467,-57.1428571428571,4,2,1,70,0,0
20134,-100,4,2,1,70,0,0
20509,-100,4,2,1,5,0,0
20634,-100,4,2,1,70,0,0
20676,-100,4,2,1,5,0,0
20801,-100,4,2,1,70,0,0
24467,-76.9230769230769,4,2,1,70,0,0
24801,-57.1428571428571,4,2,1,70,0,0
25301,-100,4,2,1,70,0,0
25634,-76.9230769230769,4,2,1,70,0,0
26634,-100,4,2,1,70,0,0
27134,-76.9230769230769,4,2,1,70,0,0
27467,333.333333333333,4,2,1,70,1,0
27467,-100,4,2,1,70,0,0
30716,-100,4,2,1,70,0,0
30800,-100,4,2,1,70,0,0
31133,333.333333333333,4,2,1,70,1,1
31133,-76.9230769230769,4,2,1,70,0,1
31633,-100,4,2,1,70,0,1
32799,-76.9230769230769,4,2,1,70,0,1
33133,-57.1428571428571,4,2,1,70,0,1
33799,-76.9230769230769,4,2,1,70,0,1
34174,-76.9230769230769,4,2,1,5,0,1
34299,-76.9230769230769,4,2,1,70,0,1
34341,-76.9230769230769,4,2,1,5,0,1
34466,-100,4,2,1,70,0,1
36466,-76.9230769230769,4,2,1,70,0,1
37132,-100,4,2,1,70,0,1
38132,-76.9230769230769,4,2,1,70,0,1
38466,-57.1428571428571,4,2,1,70,0,1
39132,-76.9230769230769,4,2,1,70,0,1
41132,333.333333333333,4,2,1,70,1,1
41132,-76.9230769230769,4,2,1,70,0,1
42632,-100,4,2,1,70,0,1
43632,-76.9230769230769,4,2,1,70,0,1
43798,-100,4,2,1,70,0,1
44132,-133.333333333333,4,2,1,70,0,1
44215,-133.333333333333,4,2,1,50,0,1
44298,-133.333333333333,4,2,1,30,0,1
44382,-133.333333333333,4,2,1,10,0,1
44465,-200,4,2,1,10,0,0
45131,-100,4,2,1,70,0,0
46131,-133.333333333333,4,2,1,70,0,0
46465,-100,4,2,1,70,0,0
47465,-133.333333333333,4,2,1,70,0,0
48298,-100,4,2,1,70,0,0
48631,-133.333333333333,4,2,1,70,0,0
49298,-100,4,2,1,70,0,0
49631,-80,4,2,1,70,0,0
49965,-66.6666666666667,4,2,1,70,0,0
50465,-100,4,2,1,70,0,0
50965,-133.333333333333,4,2,1,70,0,0
51465,-100,4,2,1,70,0,0
52465,-133.333333333333,4,2,1,70,0,0
53131,-100,4,2,1,70,0,0
54965,-76.9230769230769,4,2,1,70,0,0
55465,-133.333333333333,4,2,1,70,0,0
55798,-76.9230769230769,4,2,1,70,0,1
60131,-66.6666666666667,4,2,1,70,0,1
61131,-76.9230769230769,4,2,1,70,0,1
63131,-57.1428571428571,4,2,1,70,0,0
63354,-76.9230769230769,4,2,1,70,0,0
63576,-133.333333333333,4,2,1,70,0,0
63798,-76.9230769230769,4,2,1,70,0,1
65131,-100,4,2,1,70,0,0
65465,-133.333333333333,4,2,1,70,0,0
66465,-100,4,2,1,70,0,0
66631,-100,4,2,1,50,0,0
68798,-151.515151515152,4,2,1,50,0,0
69131,-100,4,2,1,50,0,0
72631,-76.9230769230769,4,2,1,70,0,0
73131,-100,4,2,1,50,0,0
77131,-200,4,2,1,70,0,0
77465,-100,4,2,1,70,0,0
77798,-200,4,2,1,70,0,0
78131,-112.612612612613,4,2,1,70,0,0
78465,-133.333333333333,4,2,1,70,0,0
79576,-100,4,2,1,70,0,0
81131,-200,4,2,1,30,0,0
95131,-200,4,2,1,70,0,0
95465,333.333333333333,4,2,1,70,1,0
95465,-66.6666666666667,4,2,1,70,0,0
96465,-100,4,2,1,70,0,0
96798,-66.6666666666667,4,2,1,70,0,0
97965,-76.9230769230769,4,2,1,70,0,0
98340,-76.9230769230769,4,2,1,5,0,0
98465,-76.9230769230769,4,2,1,70,0,0
98506,-76.9230769230769,4,2,1,5,0,0
98631,-76.9230769230769,4,2,1,70,0,0
98673,-76.9230769230769,4,2,1,5,0,0
98798,-76.9230769230769,4,2,1,70,0,0
99131,-100,4,2,1,70,0,0
99465,-66.6666666666667,4,2,1,70,0,0
101798,-100,4,2,1,70,0,0
102131,-66.6666666666667,4,2,1,70,0,0
103298,-76.9230769230769,4,2,1,70,0,0
103673,-76.9230769230769,4,2,1,5,0,0
103798,-76.9230769230769,4,2,1,70,0,0
103839,-76.9230769230769,4,2,1,5,0,0
103964,-76.9230769230769,4,2,1,70,0,0
104006,-76.9230769230769,4,2,1,5,0,0
104131,-76.9230769230769,4,2,1,70,0,0
104173,-76.9230769230769,4,2,1,5,0,0
104298,-57.1428571428571,4,2,1,70,0,0
105298,-76.9230769230769,4,2,1,70,0,0
105464,333.333333333333,4,2,1,70,1,0
105464,-76.9230769230769,4,2,1,70,0,0
108130,-100,4,2,1,70,0,0
108797,-200,4,2,1,20,0,0
109464,-76.9230769230769,4,2,1,70,0,1
109964,-100,4,2,1,70,0,1
111130,-76.9230769230769,4,2,1,70,0,1
111464,-57.1428571428571,4,2,1,70,0,1
112130,-76.9230769230769,4,2,1,70,0,1
112505,-76.9230769230769,4,2,1,5,0,1
112630,-76.9230769230769,4,2,1,70,0,1
112672,-76.9230769230769,4,2,1,5,0,1
112797,-76.9230769230769,4,2,1,70,0,1
113047,-100,4,2,1,70,0,1
113463,-76.9230769230769,4,2,1,70,0,1
115297,-100,4,2,1,70,0,1
116463,-76.9230769230769,4,2,1,70,0,1
116797,-57.1428571428571,4,2,1,70,0,1
117463,-76.9230769230769,4,2,1,70,0,1
119463,333.333333333333,4,2,1,70,1,1
119463,-76.9230769230769,4,2,1,70,0,1
120963,-100,4,2,1,70,0,1
121963,-76.9230769230769,4,2,1,70,0,1
122463,-100,4,2,1,70,0,1
122546,-100,4,2,1,50,0,1
122629,-100,4,2,1,30,0,1
122713,-100,4,2,1,10,0,1
122796,-200,4,2,1,10,0,0
123463,-100,4,2,1,70,0,0
123546,-100,4,2,1,20,0,0

[Colours]
Combo1 : 192,192,192
Combo2 : 190,0,0
Combo3 : 48,62,132
Combo4 : 128,128,128
Combo5 : 255,129,144
Combo6 : 135,212,217

[HitObjects]
36,200,802,54,0,P|97:185|143:211,1,98.5,6|0,2:2|0:0,1:1:0:0:
188,255,1301,5,0,0:0:0:0:
228,84,1635,1,0,0:0:0:0:
355,204,1968,1,0,0:0:0:0:
337,200,2301,69,2,0:0:0:0:
234,103,2468,1,0,0:0:0:0:
201,241,2635,1,0,0:0:0:0:
260,187,2801,5,2,0:0:0:0:
260,187,2884,1,0,0:0:0:0:
260,187,2968,1,0,0:0:0:0:
370,77,3135,70,0,L|375:127,1,49.25
448,29,3468,6,0,L|457:128,1,98.5,2|0,0:0|0:0,0:0:0:0:
465,210,3968,69,0,0:0:0:0:
301,196,4301,1,2,0:0:0:0:
301,196,4385,1,0,0:0:0:0:
301,196,4468,1,0,0:0:0:0:
383,203,4635,6,0,L|374:301,1,98.5,2|0,0:0|0:0,0:0:0:0:
239,111,5301,69,0,0:0:0:0:
253,275,5635,1,0,0:0:0:0:
252,275,6135,6,0,P|207:291|160:277,1,98.5,2|0,0:0|0:0,0:0:0:0:
206,208,6634,69,0,0:0:0:0:
192,372,6968,1,0,0:0:0:0:
56,277,7301,1,2,0:0:0:0:
56,277,8135,5,0,0:0:0:0:
132,243,8468,1,0,0:0:0:0:
206,208,8801,2,0,L|214:109,1,98.5,2|0,0:0|0:0,0:0:0:0:
129,152,9301,69,0,0:0:0:0:
291,166,9634,1,0,0:0:0:0:
222,28,9967,1,2,0:0:0:0:
129,152,10635,5,2,0:0:0:0:
210,159,10968,1,0,0:0:0:0:
291,166,11301,1,0,0:0:0:0:
256,192,11468,12,8,16468,0:0:0:0:
192,52,16635,21,2,1:2:0:0:
194,71,16718,1,2,1:2:0:0:
197,91,16801,2,0,L|204:140,1,49.25,2|2,1:2|1:2,0:0:0:0:
82,171,16968,2,0,P|113:175|141:192,1,64.0249970691682,2|0,1:2|1:2,0:0:0:0:
329,140,17135,70,0,P|299:151|277:174,1,64.0249970691682,8|0,0:0|0:0,0:0:0:0:
352,356,17468,22,0,B|328:332|328:332|344:220,1,147.75,6|0,1:1|0:0,0:0:0:0:
344,220,17801,1,8,0:0:0:0:
118,273,17968,70,0,B|256:253|256:253|229:265|209:285,1,197,2|0,1:2|0:0,0:0:0:0:
98,275,18468,1,8,0:0:0:0:
199,116,18634,5,0,0:0:0:0:
199,116,18718,1,0,0:0:0:0:
199,116,18801,2,0,P|179:161|138:187,1,98.5,2|0,1:2|0:0,0:0:0:0:
291,71,19134,70,0,L|301:142,1,64.0249970691682,10|0,0:0|0:0,0:0:0:0:
458,205,19301,2,0,L|467:141,1,64.0249970691682,2|0,0:0|0:0,0:0:0:0:
277,89,19467,6,0,L|302:260,1,172.375001643896,2|0,0:0|1:2,0:0:0:0:
373,172,19801,69,8,0:0:0:0:
207,194,19967,1,0,1:2:0:0:
313,341,20134,6,0,P|337:300|381:279,1,98.5,2|0,1:2|0:0,0:0:0:0:
234,367,20467,70,0,B|231:343,1,24.625,10|0,0:0|0:0,0:0:0:0:
164,266,20634,2,0,B|167:290,1,24.625,2|0,1:2|0:0,0:0:0:0:
41,348,20801,6,0,B|72:332|72:332|88:220,1,147.75,2|0,0:0|0:0,0:0:0:0:
92,201,21134,2,0,P|51:226|2:223,1,98.5,8|0,0:0|0:0,0:0:0:0:
29,128,21384,1,0,0:0:0:0:
31,147,21467,1,0,1:2:0:0:
87,69,21634,69,2,0:0:0:0:
169,233,21801,1,10,0:0:0:0:
270,80,21967,1,0,0:0:0:0:
170,214,22134,5,2,0:0:0:0:
102,79,22301,1,2,1:2:0:0:
253,88,22467,1,8,0:0:0:0:
175,127,22634,69,2,1:2:0:0:
360,130,22801,6,0,B|345:23|345:23|309:7,1,147.75,6|0,1:1|0:0,0:0:0:0:
309,6,23134,1,8,0:0:0:0:
502,192,23301,70,0,B|458:164|410:196|410:196|362:228|318:200,1,197,2|0,1:2|0:0,0:0:0:0:
459,262,23801,1,8,0:0:0:0:
241,227,23967,5,0,0:0:0:0:
241,227,24051,1,0,0:0:0:0:
241,227,24134,2,0,P|240:175|275:130,1,98.5,2|0,1:2|0:0,0:0:0:0:
262,328,24467,70,0,B|198:318,1,64.0249970691682,10|0,0:0|0:0,0:0:0:0:
94,172,24634,2,0,B|158:163,1,64.0249970691682,2|0,0:0|0:0,0:0:0:0:
270,347,24801,6,0,B|77:316,1,172.375001643896,2|0,0:0|1:2,0:0:0:0:
241,227,25134,1,8,0:0:0:0:
220,77,25301,1,0,1:2:0:0:
217,57,25384,1,0,1:2:0:0:
215,38,25467,1,6,1:1:0:0:
104,104,25634,70,0,P|134:113|159:133,1,64.0249970691682,2|0,0:0|0:0,0:0:0:0:
338,70,25801,2,0,P|312:87|294:114,1,64.0249970691682,10|0,0:0|0:0,0:0:0:0:
243,246,25967,1,0,1:2:0:0:
308,195,26134,6,0,L|371:186,1,64.0249970691682,2|0,0:0|0:0,0:0:0:0:
168,213,26301,2,0,L|104:221,1,64.0249970691682,2|0,0:0|0:0,0:0:0:0:
246,266,26467,1,8,0:0:0:0:
215,38,26634,70,0,L|227:135,1,98.5,2|0,1:1|0:0,0:0:0:0:
249,286,26967,1,0,0:0:0:0:
336,243,27134,6,0,B|352:271|352:271|345:303,1,64.0249970691682,10|0,0:0|0:0,0:0:0:0:
161,328,27301,2,0,B|146:301|146:301|153:269,1,64.0249970691682,2|0,0:0|0:0,0:0:0:0:
262,383,27467,70,0,L|248:285,1,98.5,6|0,1:1|0:0,0:0:0:0:
246,266,27800,1,0,0:0:0:0:
447,220,27967,1,0,1:2:0:0:
431,337,28133,6,0,L|444:239,1,98.5,0|0,1:2|0:0,0:0:0:0:
463,103,28467,1,8,0:0:0:0:
226,137,28633,70,0,P|293:112|354:148,1,147.75,2|0,1:2|0:0,0:0:0:0:
286,194,28967,1,2,1:2:0:0:
156,96,29133,2,0,P|145:143|164:189,1,98.5,8|0,0:0|0:0,0:0:0:0:
431,120,29466,2,0,P|433:168|406:210,1,98.5,0|0,1:2|0:0,0:0:0:0:
293,112,29800,6,0,L|297:62,2,49.25,10|0|0,0:0|0:0|0:0,0:0:0:0:
286,194,30050,1,0,1:2:0:0:
284,213,30133,53,10,0:0:0:0:
282,233,30216,1,0,1:2:0:0:
280,252,30300,1,0,1:2:0:0:
278,272,30383,2,0,B|217:276|155:245|155:245|189:265|210:292,1,197,0|0,1:2|0:0,0:0:0:0:
83,206,30800,5,8,0:0:0:0:
83,206,31133,6,0,B|64:64|64:64|33:144,1,192.074991207505,6|0,1:1|0:0,0:0:0:0:
39,129,31466,1,8,0:0:0:0:
241,155,31633,70,0,L|338:168,2,98.5,2|0|0,1:2|0:0|0:0,0:0:0:0:
159,144,32049,1,0,0:0:0:0:
159,144,32133,1,8,0:0:0:0:
307,247,32299,1,0,0:0:0:0:
302,45,32466,2,0,P|336:79|383:89,1,98.5,2|0,1:2|0:0,0:0:0:0:
198,13,32799,6,0,L|207:77,1,64.0249970691682,10|0,0:0|0:0,0:0:0:0:
60,168,32966,2,0,L|68:104,1,64.0249970691682,2|0,0:0|0:0,0:0:0:0:
217,26,33133,70,0,L|241:196,1,172.375001643896,2|0,0:0|1:2,0:0:0:0:
146,130,33466,5,8,0:0:0:0:
312,108,33633,1,0,1:2:0:0:
254,284,33799,70,0,P|206:224|132:225,1,128.049994138336,6|0,1:1|0:0,0:0:0:0:
321,190,34133,6,0,L|317:221,1,32.0124985345841,10|0,0:0|0:0,0:0:0:0:
333,332,34299,2,0,L|339:301,1,32.0124985345841,2|0,1:2|0:0,0:0:0:0:
469,159,34466,70,0,B|432:180|432:180|419:285,1,147.75,2|0,0:0|0:0,0:0:0:0:
419,284,34799,1,8,0:0:0:0:
410,98,34966,1,0,0:0:0:0:
390,101,35049,1,0,0:0:0:0:
370,103,35132,1,2,1:2:0:0:
325,33,35299,5,2,0:0:0:0:
201,182,35466,1,10,0:0:0:0:
134,0,35632,1,0,0:0:0:0:
204,163,35799,69,2,0:0:0:0:
307,39,35966,1,2,1:2:0:0:
148,12,36132,1,8,0:0:0:0:
220,72,36299,5,2,1:2:0:0:
55,0,36466,70,0,B|73:143|73:143|107:82,1,192.074991207505,6|0,1:1|0:0,0:0:0:0:
107,84,36799,1,8,0:0:0:0:
0,217,36966,6,0,B|63:225,1,64.0249970691682,2|0,1:2|0:0,0:0:0:0:
6,235,37132,2,0,B|103:247,1,98.5,2|0,0:0|0:0,0:0:0:0:
265,268,37466,1,8,0:0:0:0:
165,192,37632,69,0,0:0:0:0:
165,192,37716,1,0,0:0:0:0:
165,192,37799,2,0,P|184:246|171:293,1,98.5,2|0,1:2|0:0,0:0:0:0:
127,92,38132,6,0,B|190:84,1,64.0249970691682,10|0,0:0|0:0,0:0:0:0:
333,192,38299,2,0,B|270:185,1,64.0249970691682,2|0,0:0|0:0,0:0:0:0:
117,74,38466,70,0,B|288:52,1,172.375001643896,2|0,0:0|1:2,0:0:0:0:
338,211,38799,1,8,0:0:0:0:
368,24,38966,1,0,1:2:0:0:
370,43,39049,1,0,1:2:0:0:
372,63,39132,6,0,B|380:133|380:133|415:163|415:163|423:238,1,192.074991207505,6|0,1:1|0:0,0:0:0:0:
426,257,39466,1,8,0:0:0:0:
458,90,39632,1,2,1:2:0:0:
338,211,39799,1,2,0:0:0:0:
162,118,39966,70,0,P|224:123|264:171,1,128.049994138336,2|8,0:0|0:0,0:0:0:0:
169,343,40299,6,0,B|176:279,1,64.0249970691682,2|0,1:2|0:0,0:0:0:0:
187,197,40466,1,8,0:0:0:0:
346,275,40632,2,0,B|338:211,1,64.0249970691682,2|0,1:2|0:0,0:0:0:0:
328,129,40799,1,8,0:0:0:0:
495,124,40966,70,0,P|432:119|392:71,1,128.049994138336,2|0,0:0|1:2,0:0:0:0:
348,294,41298,5,8,0:0:0:0:
493,143,41465,1,10,0:0:0:0:
287,239,41632,69,0,1:2:0:0:
490,289,41799,1,2,1:2:0:0:
256,369,41965,6,0,B|272:241,1,128.049994138336,10|8,0:0|0:0,0:0:0:0:
393,72,42298,70,0,B|249:90|249:90|325:111,1,192.074991207505,6|0,1:1|0:0,0:0:0:0:
368,252,42632,6,0,P|348:208|354:160,1,98.5,2|8,1:2|0:0,0:0:0:0:
465,12,42965,2,0,P|437:52|393:72,1,98.5,2|0,0:0|1:2,0:0:0:0:
210,49,43298,2,0,P|258:53|297:82,2,98.5,2|10|0,0:0|0:0|0:0,0:0:0:0:
142,96,43715,1,0,1:2:0:0:
122,93,43798,5,10,0:0:0:0:
102,90,43881,1,8,0:0:0:0:
82,88,43964,1,0,1:2:0:0:
63,85,44048,1,0,1:2:0:0:
43,83,44132,2,8,B|6:78,3,36.9375014090539,10|8|8|8,0:0|0:0|0:0|0:0,0:0:0:0:
77,171,44465,38,2,B|150:180|150:180|113:193|83:218,1,147.75
173,364,45131,70,0,B|159:266,1,98.5,6|0,1:1|0:0,0:0:0:0:
266,217,45465,1,0,1:2:0:0:
252,335,45631,2,0,B|263:236,1,98.5,2|0,0:0|1:2,0:0:0:0:
178,261,45965,1,0,0:0:0:0:
321,382,46131,2,0,B|348:313,1,73.8750028181077,0|0,1:2|0:0,0:0:0:0:
503,243,46465,70,0,P|474:282|429:300,1,98.5,2|0,1:2|0:0,0:0:0:0:
317,192,46798,1,0,1:2:0:0:
425,217,46965,2,0,P|377:225|332:205,1,98.5,2|0,0:0|1:2,0:0:0:0:
413,64,47298,1,0,0:0:0:0:
388,143,47465,2,0,P|348:114|330:69,1,73.8750028181077,0|0,1:2|0:0,0:0:0:0:
313,15,47798,5,2,1:2:0:0:
313,15,48131,1,0,1:2:0:0:
245,133,48298,2,0,B|233:34,1,98.5,2|0,0:0|1:2,0:0:0:0:
158,97,48631,2,0,B|149:23,1,73.8750028181077,2|0,0:0|1:2,0:0:0:0:
71,61,48965,1,0,0:0:0:0:
161,116,49131,1,2,1:2:0:0:
29,189,49298,70,0,B|33:156|10:121|10:121|35:137,1,98.5,2|0,0:0|1:2,0:0:0:0:
76,255,49631,6,0,B|112:239|135:194|135:194|133:229,1,123.125,2|0,0:0|1:2,0:0:0:0:
42,328,49965,70,0,B|80:356|140:353|140:353|102:372,1,147.750005636215,2|0,0:0|1:2,0:0:0:0:
29,189,50298,1,2,0:0:0:0:
221,142,50465,6,0,L|215:241,1,98.5,2|0,1:2|0:0,0:0:0:0:
318,210,50798,1,0,1:2:0:0:
299,119,50965,2,0,L|314:191,1,73.8750028181077,2|0,0:0|1:2,0:0:0:0:
335,291,51298,1,0,0:0:0:0:
382,111,51465,2,0,L|426:198,1,98.5,2|0,1:2|0:0,0:0:0:0:
468,270,51798,69,2,1:2:0:0:
468,270,52465,2,0,P|429:300|412:348,2,98.500003757477,2|2|2,1:2|1:2|1:2,0:0:0:0:
511,184,53020,1,0,1:2:0:0:
511,184,53131,6,0,L|400:190,1,98.5,2|0,1:2|0:0,0:0:0:0:
331,195,53465,1,0,1:2:0:0:
458,104,53631,2,0,P|415:79|393:32,1,98.5,2|0,0:0|1:2,0:0:0:0:
311,196,53965,1,0,0:0:0:0:
468,269,54131,2,0,P|429:298|412:348,1,98.5,2|0,1:2|0:0,0:0:0:0:
291,198,54465,1,0,1:2:0:0:
271,200,54798,21,8,0:0:0:0:
209,127,54965,2,0,L|206:148,3,21.3416656897227,0|0|0|0,1:2|1:2|1:2|1:2,1:2:0:0:
187,293,55131,2,0,L|195:230,1,64.0249970691682,10|0,0:0|0:0,0:0:0:0:
72,174,55298,5,0,1:2:0:0:
97,171,55381,1,0,1:2:0:0:
122,167,55465,2,0,L|131:91,1,73.8750028181077,10|0,0:0|0:0,0:0:0:0:
382,290,55798,70,0,P|322:274|268:304,1,128.049994138336,6|0,1:1|0:0,0:0:0:0:
332,356,56131,1,8,0:0:0:0:
434,225,56298,1,2,1:2:0:0:
204,254,56465,1,0,0:0:0:0:
305,123,56631,6,0,P|274:128|244:119,1,64.0249970691682,2|0,1:2|0:0,0:0:0:0:
134,82,56798,2,0,P|154:106|162:137,1,64.0249970691682,10|0,0:0|0:0,0:0:0:0:
185,251,56965,2,0,P|196:221|218:198,1,64.0249970691682,2|0,0:0|0:0,0:0:0:0:
380,61,57131,70,0,L|399:220,1,128.049994138336,2|0,1:2|0:0,0:0:0:0:
476,119,57465,1,8,0:0:0:0:
405,270,57631,1,2,1:2:0:0:
300,141,57798,1,0,0:0:0:0:
338,320,57965,6,0,L|274:312,1,64.0249970691682,2|0,1:2|0:0,0:0:0:0:
218,150,58131,2,0,L|154:156,1,64.0249970691682,10|0,0:0|0:0,0:0:0:0:
102,220,58298,1,0,1:2:0:0:
300,141,58465,70,0,P|282:201|215:233,1,128.049994138336,6|0,1:1|0:0,0:0:0:0:
100,93,58798,1,8,0:0:0:0:
160,279,58965,1,2,1:2:0:0:
217,53,59131,1,0,0:0:0:0:
361,136,59298,6,0,P|330:131|300:141,1,64.0249970691682,2|0,1:2|0:0,0:0:0:0:
218,135,59465,2,0,P|226:104|246:80,1,64.0249970691682,10|0,0:0|0:0,0:0:0:0:
371,266,59631,2,0,P|360:236|337:215,1,64.0249970691682,2|0,0:0|0:0,0:0:0:0:
164,299,59798,70,0,L|292:284,1,128.049994138336,2|0,1:2|0:0,0:0:0:0:
106,373,60131,6,0,P|85:329|48:295,1,73.8750028181077,10|0,0:0|0:0,0:0:0:0:
0,266,60298,1,0,0:0:0:0:
270,353,60465,2,0,P|276:317|292:284,1,73.8750028181077,2|0,1:2|0:0,0:0:0:0:
347,224,60632,1,0,1:2:0:0:
191,384,60798,69,10,0:0:0:0:
162,141,60965,1,0,1:2:0:0:
159,121,61048,1,0,1:2:0:0:
156,101,61131,2,0,L|283:116,1,128.049994138336,6|0,1:1|0:0,0:0:0:0:
408,131,61465,1,8,0:0:0:0:
313,194,61631,5,2,1:2:0:0:
401,17,61798,1,0,0:0:0:0:
510,181,61965,1,0,0:0:0:0:
408,131,62131,70,0,L|412:194,1,64.0249970691682,10|0,0:0|0:0,0:0:0:0:
307,276,62298,2,0,L|312:213,1,64.0249970691682,2|0,0:0|0:0,0:0:0:0:
320,96,62465,1,0,1:2:0:0:
147,224,62631,6,0,P|177:214|209:220,1,64.0249970691682,2|0,0:0|0:0,0:0:0:0:
307,296,62798,54,0,L|362:292,2,32.0124985345841
306,315,62965,22,0,P|275:324|244:319,1,64.0249970691682,2|0,0:0|0:0,0:0:0:0:
61,196,63131,70,0,L|74:310,1,114.916667762597,2|0,1:2|0:0,0:0:0:0:
42,214,63354,6,0,L|53:299,1,85.366662758891,2|0,1:2|0:0,0:0:0:0:
26,237,63576,70,0,L|32:285,1,49.2500018787385,2|0,1:2|1:2,0:0:0:0:
0,94,63798,6,0,P|65:112|126:69,1,128.049994138336,6|0,1:1|0:0,0:0:0:0:
162,16,64132,1,8,0:0:0:0:
219,232,64298,70,0,B|202:89|202:89|219:121|244:145,1,192.074991207505,2|0,1:2|0:0,0:0:0:0:
243,141,64631,1,0,1:2:0:0:
153,280,64798,1,8,0:0:0:0:
408,220,64965,1,0,0:0:0:0:
408,220,65048,1,0,0:0:0:0:
408,220,65131,6,0,B|395:325,1,98.5,6|0,1:1|0:0,0:0:0:0:
323,240,65465,70,0,B|314:313,1,73.8750028181077,8|0,2:1|0:0,0:0:0:0:
238,260,65798,5,0,0:0:0:0:
493,200,65965,69,0,1:2:0:0:
491,214,66048,1,0,1:2:0:0:
489,229,66131,2,0,B|483:274,3,36.9375014090539,10|8|8|8,2:1|2:1|2:1|2:1,0:0:0:0:
512,115,66465,22,0,B|414:127,1,98.5,2|0,2:1|2:1,2:1:0:0:
345,21,66798,2,0,B|332:118,1,98.5,8|0,2:1|2:1,2:1:0:0:
330,137,67048,2,0,B|281:143,2,49.25,8|8|8,2:1|2:1|2:1,2:1:0:0:
215,254,67298,38,0,P|209:182|150:142,1,147.75,0|0,2:1|2:1,2:1:0:0:
131,142,67631,2,0,B|121:214,1,49.25,8|8,2:1|2:1,2:1:0:0:
115,273,67798,1,0,2:1:0:0:
22,230,67965,1,0,2:1:0:0:
215,254,68131,37,8,2:1:0:0:
217,273,68215,1,0,2:1:0:0:
219,293,68298,2,0,B|267:299,1,49.25,8|8,2:1|2:1,2:1:0:0:
343,241,68465,2,0,B|355:338,1,98.5,8|0,2:1|2:1,2:1:0:0:
476,261,68798,38,0,B|430:279,2,48.7574998512039,2|0|0,2:1|2:1|2:1,2:1:0:0:
512,186,69131,38,0,P|488:180|463:181,1,49.25,2|0,2:1|2:1,2:1:0:0:
353,224,69298,2,0,P|370:206|381:184,1,49.25,0|0,2:1|2:1,2:1:0:0:
399,67,69465,38,0,P|405:90|418:111,2,49.25,8|8|0,2:1|2:1|2:1,2:1:0:0:
322,21,69798,1,8,2:1:0:0:
319,40,69881,1,0,2:1:0:0:
316,59,69965,1,0,2:1:0:0:
313,78,70048,2,0,B|215:90,1,98.5,8|0,2:1|2:1,2:1:0:0:
216,109,70298,2,0,B|147:117,1,49.25,8|0,2:1|2:1,2:1:0:0:
85,125,70465,37,8,2:1:0:0:
161,197,70631,1,8,2:1:0:0:
141,37,70798,1,8,2:1:0:0:
163,216,70965,1,8,2:1:0:0:
21,259,71132,37,8,2:1:0:0:
40,261,71215,1,8,2:1:0:0:
60,263,71298,1,8,2:1:0:0:
79,266,71381,1,8,2:1:0:0:
99,268,71465,2,8,B|104:308,2,24.625,8|8|8,2:1|2:1|2:1,2:1:0:0:
190,343,71631,2,8,B|184:295,1,49.25,8|8,2:1|2:1,2:1:0:0:
249,169,71798,38,0,B|261:266,1,98.5,2|0,2:1|2:1,2:1:0:0:
280,269,72048,1,8,2:1:0:0:
299,271,72132,1,8,2:1:0:0:
318,273,72215,1,0,2:1:0:0:
337,275,72298,2,0,B|408:283,1,49.25,0|8,2:1|2:1,2:1:0:0:
482,220,72465,2,0,B|434:214,1,49.25,0|0,2:1|2:1,2:1:0:0:
396,103,72631,38,0,B|364:140|355:194|355:194|341:109|265:54,1,256.099988276673,10|0,2:1|2:1,2:1:0:0:
273,209,73131,38,0,P|257:162|224:125,1,98.5,2|0,2:1|2:1,2:1:0:0:
193,225,73381,38,0,P|185:202|168:184,1,49.25,2|0,2:1|2:1,2:1:0:0:
113,243,73548,37,10,2:1:0:0:
110,262,73631,1,8,2:1:0:0:
108,282,73715,2,0,B|101:330,1,49.25,10|0,2:1|2:1,2:1:0:0:
71,172,73881,1,0,2:1:0:0:
51,174,73965,2,0,B|2:180,1,49.25,10|0,2:1|2:1,2:1:0:0:
95,93,74131,1,0,2:1:0:0:
87,74,74215,2,0,B|69:28,2,49.25,10|8|8,2:1|2:1|2:1,2:1:0:0:
153,161,74465,38,0,L|250:148,1,98.5,2|0,2:1|2:1,2:1:0:0:
270,146,74715,2,8,B|306:141,4,24.625,8|8|8|8|8,2:1|2:1|2:1|2:1|2:1,2:1:0:0:
335,71,74965,37,0,2:1:0:0:
441,123,75131,2,0,B|393:130,1,49.25,8|0,2:1|2:1,2:1:0:0:
355,226,75298,2,0,B|352:202,2,24.625,0|0|0,2:1|2:1|2:1,2:1:0:0:
358,246,75465,2,8,B|364:294,1,49.25,8|8,2:1|2:1,2:1:0:0:
232,353,75631,37,8,2:1:0:0:
251,355,75714,1,8,2:1:0:0:
271,357,75798,2,0,B|320:364,1,49.25,2|0,2:1|2:1,2:1:0:0:
239,204,75964,37,8,2:1:0:0:
241,223,76048,2,0,B|248:272,1,49.25,10|0,2:1|2:1,2:1:0:0:
95,299,76214,1,8,2:1:0:0:
115,301,76298,2,0,B|164:308,1,49.25,10|0,2:1|2:1,2:1:0:0:
78,118,76465,38,0,B|91:215,1,98.5,0|8,2:1|2:1,2:1:0:0:
23,260,76798,1,8,2:1:0:0:
167,242,76965,1,8,2:1:0:0:
77,99,77131,22,0,B|66:15,1,73.875,2|0,1:2|2:1,2:1:0:0:
257,179,77465,5,8,2:1:0:0:
254,199,77548,1,8,2:1:0:0:
252,218,77631,2,0,B|242:291,1,49.25,8|8,2:1|2:1,2:1:0:0:
163,90,77798,54,0,B|153:16,1,73.875,2|0,1:2|2:1,2:1:0:0:
340,207,78131,70,0,B|330:280,2,65.6666666666667,2|0|0,2:1|2:1|2:1,2:1:0:0:
249,81,78465,22,0,B|237:-14,1,49.2500018787385,2|0,1:2|2:1,2:1:0:0:
422,234,78687,70,0,B|412:307,1,49.2500018787385,2|0,1:2|2:1,2:1:0:0:
335,72,78909,6,0,B|323:-23,1,49.2500018787385,2|0,1:2|2:1,2:1:0:0:
504,261,79131,70,0,B|494:334,1,49.2500018787385,2|0,1:2|2:1,2:1:0:0:
421,63,79354,6,0,B|409:-32,1,49.2500018787385,2|0,1:2|2:1,2:1:0:0:
512,151,79576,70,0,B|465:156|432:190|432:190|394:156|394:156|362:186|314:189,1,229.833333333333,2|0,1:2|2:1,2:1:0:0:
370,354,80131,6,0,B|383:257,1,98.5,8|0,1:2|0:0,2:1:0:0:
241,154,80464,69,8,0:0:0:0:
235,173,80548,1,8,1:2:0:0:
233,193,80631,1,0,1:2:0:0:
235,213,80714,1,0,1:2:0:0:
244,232,80797,1,8,2:1:0:0:
256,247,80881,2,8,P|275:262|299:271,2,49.25,8|8|8,2:1|2:1|2:1,2:1:0:0:
315,190,81131,54,0,P|377:194|418:160,1,98.5,2|0,0:0|0:0,0:0:0:0:
351,117,81631,69,0,0:0:0:0:
311,288,81965,1,0,0:0:0:0:
184,168,82298,1,0,0:0:0:0:
202,172,82631,5,2,0:0:0:0:
305,269,82798,1,0,0:0:0:0:
338,131,82965,1,0,0:0:0:0:
287,192,83131,69,2,0:0:0:0:
287,192,83214,1,0,0:0:0:0:
287,192,83298,1,0,0:0:0:0:
215,42,83465,2,0,L|210:92,1,49.25
121,164,83798,6,0,L|130:65,1,98.5,2|0,0:0|0:0,0:0:0:0:
192,229,84298,69,0,0:0:0:0:
34,263,84632,1,2,0:0:0:0:
34,263,84715,1,0,0:0:0:0:
34,263,84799,1,0,0:0:0:0:
113,246,84965,6,0,P|105:303|60:341,1,98.5,2|0,0:0|0:0,0:0:0:0:
229,138,85631,69,0,0:0:0:0:
263,296,85965,1,0,0:0:0:0:
263,296,86465,6,0,L|362:305,1,98.5,2|0,0:0|0:0,0:0:0:0:
408,238,86965,69,0,0:0:0:0:
305,383,87298,1,0,0:0:0:0:
230,221,87631,1,2,0:0:0:0:
230,221,88465,5,0,0:0:0:0:
320,230,88798,1,0,0:0:0:0:
408,238,89131,2,0,L|399:139,1,98.5,2|0,0:0|0:0,0:0:0:0:
462,87,89631,69,0,0:0:0:0:
322,196,89965,1,0,0:0:0:0:
297,20,90298,1,2,0:0:0:0:
322,196,90965,5,2,0:0:0:0:
309,107,91298,1,0,0:0:0:0:
297,20,91631,1,0,0:0:0:0:
256,192,91798,12,8,95131,0:0:0:0:
182,173,95465,37,6,1:1:0:0:
371,150,95631,1,2,0:0:0:0:
117,118,95798,70,0,B|86:184|86:184|131:242,1,147.750005636215,10|0,0:0|1:2,0:0:0:0:
244,349,96131,2,0,B|249:266|296:214|296:214|265:243|235:252,1,221.625008454323,2|0,0:0|0:0,0:0:0:0:
214,256,96465,6,0,L|206:192,1,49.25,8|0,0:0|0:0,0:0:0:0:
367,290,96631,2,0,L|373:241,1,49.25
141,334,96798,70,0,B|121:175|121:175|83:250,1,221.625008454323,2|0,1:2|0:0,0:0:0:0:
50,299,97131,1,8,0:0:0:0:
81,104,97298,5,2,0:0:0:0:
146,96,97381,1,0,0:0:0:0:
192,132,97465,1,2,0:0:0:0:
215,178,97548,1,0,0:0:0:0:
250,204,97631,1,2,1:2:0:0:
286,208,97715,1,0,0:0:0:0:
314,201,97798,1,10,0:0:0:0:
301,68,97965,70,0,P|283:94|278:125,1,64.0249970691682,0|0,1:2|0:0,0:0:0:0:
331,187,98131,1,0,1:2:0:0:
186,39,98298,6,0,L|218:43,1,32.0124985345841,2|0,0:0|0:0,0:0:0:0:
375,108,98465,2,0,L|406:104,1,32.0124985345841,10|0,0:0|0:0,0:0:0:0:
176,55,98631,70,0,L|208:59,1,32.0124985345841,2|0,1:2|0:0,0:0:0:0:
385,124,98798,2,0,B|512:108|512:108|473:124|452:147,1,192.074991207505,2|0,0:0|0:0,0:0:0:0:
396,253,99131,6,0,L|403:205,1,49.25,8|0,0:0|0:0,0:0:0:0:
231,138,99298,2,0,L|237:186,1,49.25
230,298,99465,70,0,L|211:151,1,147.750005636215,2|0,1:2|0:0,0:0:0:0:
51,210,99798,5,10,0:0:0:0:
178,76,99965,1,2,0:0:0:0:
0,35,100132,1,0,0:0:0:0:
56,191,100298,69,2,1:2:0:0:
12,47,100465,1,10,0:0:0:0:
159,82,100631,1,0,1:2:0:0:
76,106,100798,5,6,1:1:0:0:
233,14,100965,70,0,B|245:117|245:117|212:146,1,147.750005636215,2|8,0:0|0:0,0:0:0:0:
146,193,101298,1,0,1:2:0:0:
333,85,101465,6,0,B|313:252|313:252|351:208,1,221.625008454323,2|0,0:0|0:0,0:0:0:0:
367,208,101798,70,0,L|415:202,1,49.25,8|0,0:0|0:0,0:0:0:0:
407,47,101965,2,0,L|455:41,1,49.25
472,277,102131,6,0,B|392:287|392:287|364:322|364:322|267:333,1,221.625008454323,2|0,1:2|0:0,0:0:0:0:
249,336,102465,1,8,0:0:0:0:
177,114,102631,69,2,0:0:0:0:
169,180,102714,1,0,0:0:0:0:
162,240,102798,1,2,0:0:0:0:
156,292,102881,1,0,0:0:0:0:
196,272,102964,1,2,1:2:0:0:
230,257,103048,1,0,0:0:0:0:
257,245,103131,1,10,0:0:0:0:
260,94,103298,6,0,L|253:158,1,64.0249970691682,0|0,1:2|1:2,1:2:0:0:
278,237,103464,1,0,1:2:0:0:
146,103,103631,70,0,L|177:114,1,32.0124985345841,2|0,0:0|0:0,0:0:0:0:
369,130,103798,2,0,L|337:133,1,32.0124985345841,10|0,0:0|0:0,0:0:0:0:
135,118,103964,6,0,L|165:128,1,32.0124985345841,2|0,1:2|0:0,0:0:0:0:
376,147,104131,2,0,L|344:150,1,32.0124985345841,2|0,0:0|0:0,0:0:0:0:
269,6,104298,70,0,L|251:178,1,172.375001643896,2|8,0:0|0:0,0:0:0:0:
458,139,104631,1,0,1:2:0:0:
279,272,104798,6,0,B|306:238|306:238|391:229|391:229|441:267,1,172.375001643896,2|0,0:0|0:0,0:0:0:0:
423,274,105048,1,2,0:0:0:0:
421,294,105131,1,8,0:0:0:0:
233,366,105298,70,0,P|225:335|206:310,1,64.0249970691682,2|0,0:0|0:0,0:0:0:0:
242,176,105464,2,0,P|220:198|208:228,1,64.0249970691682,2|0,1:2|0:0,0:0:0:0:
74,263,105630,2,0,P|104:271|136:267,1,64.0249970691682,2|0,0:0|0:0,0:0:0:0:
287,246,105797,5,8,0:0:0:0:
111,189,105964,1,0,1:2:0:0:
228,48,106130,70,0,L|242:176,1,128.049994138336,2|0,1:2|0:0,0:0:0:0:
321,116,106464,1,8,0:0:0:0:
130,96,106630,70,0,L|98:92,6,32.0124985345841,2|0|0|0|0|0|0,0:0|0:0|0:0|0:0|0:0|0:0|0:0,0:0:0:0:
149,98,106964,21,0,0:0:0:0:
379,58,107130,2,0,P|402:115|380:174,1,128.049994138336,10|0,0:0|0:0,0:0:0:0:
312,289,107464,70,0,B|296:146|296:146|267:192,1,192.074991207505,2|0,1:2|0:0,0:0:0:0:
260,203,107797,1,8,0:0:0:0:
392,311,107964,1,0,1:2:0:0:
173,244,108130,5,10,0:0:0:0:
170,263,108213,1,8,0:0:0:0:
168,283,108297,2,0,L|160:354,1,49.25,0|0,1:2|1:2,1:2:0:0:
11,202,108464,70,0,L|109:192,1,98.5,10|0,0:0|0:0,0:0:0:0:
115,16,108797,22,2,P|101:86|37:117,1,147.75
225,35,109464,70,0,B|209:174|209:174|205:137|178:98,1,192.074991207505,6|0,1:1|0:0,0:0:0:0:
183,109,109797,1,8,0:0:0:0:
401,159,109964,70,0,L|411:256,2,98.5,2|0|0,1:2|0:0|0:0,0:0:0:0:
393,78,110380,1,0,0:0:0:0:
393,78,110464,1,8,0:0:0:0:
492,238,110630,1,0,0:0:0:0:
288,234,110797,2,0,P|325:264|339:311,1,98.5,2|0,1:2|0:0,0:0:0:0:
316,140,111130,6,0,L|218:129,1,64.0249970691682,10|0,0:0|0:0,0:0:0:0:
133,277,111297,2,0,L|197:270,1,64.0249970691682,2|0,0:0|0:0,0:0:0:0:
322,119,111464,70,0,L|150:99,1,172.375001643896,2|0,0:0|1:2,0:0:0:0:
190,187,111797,5,8,0:0:0:0:
282,31,111964,1,0,1:2:0:0:
70,87,112130,70,0,P|130:72|162:18,1,128.049994138336,6|0,1:1|0:0,0:0:0:0:
25,167,112464,6,0,L|58:170,1,32.0124985345841,10|0,0:0|0:0,0:0:0:0:
169,182,112630,2,0,L|138:180,1,32.0124985345841,2|0,1:2|0:0,0:0:0:0:
55,255,112797,70,0,P|111:281|132:340,1,128.049994138336,2|0,0:0|0:0,0:0:0:0:
131,340,113047,1,0,0:0:0:0:
131,340,113130,1,10,0:0:0:0:
261,182,113297,2,0,B|273:279,1,98.5,2|0,0:0|1:2,0:0:0:0:
374,238,113630,5,2,0:0:0:0:
191,103,113797,1,10,0:0:0:0:
400,13,113963,1,0,0:0:0:0:
210,105,114130,69,2,0:0:0:0:
407,162,114297,1,2,1:2:0:0:
229,107,114463,5,8,0:0:0:0:
367,89,114630,1,2,1:2:0:0:
140,4,114797,70,0,B|124:138|124:138|167:176,1,192.074991207505,6|0,1:1|0:0,0:0:0:0:
182,187,115130,1,8,0:0:0:0:
81,280,115297,6,0,L|178:269,2,98.5,2|0|0,1:2|0:0|0:0,0:0:0:0:
0,290,115713,1,0,0:0:0:0:
0,290,115796,1,8,0:0:0:0:
182,187,115963,1,0,0:0:0:0:
210,383,116130,2,0,P|227:338|266:310,1,98.5,2|0,1:2|0:0,0:0:0:0:
375,364,116463,70,0,L|368:300,1,64.0249970691682,10|0,0:0|0:0,0:0:0:0:
490,188,116630,2,0,L|483:251,1,64.0249970691682,2|0,0:0|0:0,0:0:0:0:
356,377,116797,6,0,L|338:205,1,172.375001643896,2|0,0:0|1:2,0:0:0:0:
510,178,117130,1,8,0:0:0:0:
334,80,117297,1,0,1:2:0:0:
353,82,117380,1,0,1:2:0:0:
372,84,117463,70,0,B|499:97|499:97|464:101|429:130,1,192.074991207505,6|0,1:1|0:0,0:0:0:0:
427,135,117797,1,8,0:0:0:0:
314,0,117963,1,0,1:2:0:0:
254,166,118130,1,2,0:0:0:0:
135,8,118297,6,0,P|180:51|183:114,1,128.049994138336,2|8,0:0|0:0,0:0:0:0:
0,171,118630,70,0,P|30:167|59:153,1,64.0249970691682,2|0,1:2|0:0,0:0:0:0:
107,86,118797,1,8,0:0:0:0:
62,244,118963,2,0,P|93:248|121:262,1,64.0249970691682,2|0,1:2|0:0,0:0:0:0:
169,329,119130,1,8,0:0:0:0:
264,161,119297,6,0,L|137:177,1,128.049994138336,2|0,0:0|1:2,0:0:0:0:
198,61,119629,69,8,0:0:0:0:
330,261,119796,1,10,0:0:0:0:
278,80,119963,5,0,1:2:0:0:
250,242,120130,1,2,1:2:0:0:
457,124,120296,70,0,P|401:152|342:133,1,128.049994138336,10|8,0:0|0:0,0:0:0:0:
426,367,120629,6,0,B|444:223|444:223|387:290,1,192.074991207505,6|0,1:1|0:0,0:0:0:0:
284,255,120963,70,0,P|327:278|349:322,1,98.5,2|8,1:2|0:0,0:0:0:0:
225,197,121296,2,0,P|223:149|250:109,1,98.5,2|0,0:0|1:2,0:0:0:0:
205,279,121629,2,0,P|163:304|115:301,2,98.5,2|10|0,0:0|0:0|0:0,0:0:0:0:
143,225,122046,1,0,1:2:0:0:
140,205,122129,21,10,0:0:0:0:
137,185,122212,1,10,0:0:0:0:
135,165,122295,1,2,1:2:0:0:
132,145,122379,1,2,1:2:0:0:
128,124,122463,2,8,L|120:64,3,49.25,10|8|8|8,0:0|0:0|0:0|0:0,0:0:0:0:
210,129,122796,38,2,B|197:23|197:23|236:71,1,147.75
292,134,123463,5,6,1:1:0:0:
256,192,123546,12,0,124796,0:0:0:0:
