osu file format v14

[General]
AudioFilename: vexaria 192.mp3
AudioLeadIn: 0
PreviewTime: 31134
Countdown: 0
SampleSet: Soft
StackLeniency: 0.5
Mode: 0
LetterboxInBreaks: 0
WidescreenStoryboard: 1

[Editor]
Bookmarks: 31133,84715,109464
DistanceSpacing: 0.3
BeatDivisor: 4
GridSize: 32
TimelineZoom: 1.5

[Metadata]
Title:Vexaria
TitleUnicode:Vexaria
Artist:ak+q
ArtistUnicode:ak+q
Creator:Pentori
Version:Insane
Source:Arcaea
Tags:mmc mmc3 modhelp mapping contest artcore miura [_sharuresu_] sharu bor _83 akitoshi corinn sahuang my angel azusa electoz
BeatmapID:1392665
BeatmapSetID:657498

[Difficulty]
HPDrainRate:6
CircleSize:4.4
OverallDifficulty:8
ApproachRate:9
SliderMultiplier:1.7
SliderTickRate:1

[Events]
//Background and Video events
0,0,"piano 1600.jpg",0,0
//Break Periods
//Storyboard Layer 0 (Background)
//Storyboard Layer 1 (Fail)
//Storyboard Layer 2 (Pass)
//Storyboard Layer 3 (Foreground)
//Storyboard Sound Samples

[TimingPoints]
802,333.333333333333,4,2,1,30,1,0
802,-166.666666666667,4,2,1,30,0,0
1968,-333.333333333333,4,2,1,30,0,0
3468,-166.666666666667,4,2,1,30,0,0
4635,-200,4,2,1,30,0,0
6135,-166.666666666667,4,2,1,30,0,0
7301,-200,4,2,1,30,0,0
8801,-166.666666666667,4,2,1,30,0,0
9968,-200,4,2,1,30,0,0
11301,-166.666666666667,4,2,1,30,0,0
16468,-83.3333333333334,4,2,1,60,0,0
17468,333.333333333333,4,2,1,60,1,0
17468,-83.3333333333333,4,2,1,60,0,0
26301,-71.4285714285714,4,2,1,60,0,0
26634,-83.3333333333333,4,2,1,60,0,0
27467,333.333333333333,4,2,1,60,1,0
27467,-83.3333333333333,4,2,1,60,0,0
30383,-125,4,2,1,60,0,0
30800,-50,4,2,1,60,0,0
31133,333.333333333333,4,2,1,70,1,1
31133,-66.6666666666667,4,2,1,70,0,1
31633,-88.8888888888889,4,2,1,70,0,1
32133,-66.6666666666667,4,2,1,70,0,1
34299,-88.8888888888889,4,2,1,70,0,1
34799,-66.6666666666667,4,2,1,70,0,1
36966,-88.8888888888889,4,2,1,70,0,1
37466,-66.6666666666667,4,2,1,70,0,1
39966,-58.8235294117647,4,2,1,70,0,1
40299,-66.6666666666667,4,2,1,70,0,1
41132,333.333333333333,4,2,1,70,1,1
41132,-66.6666666666667,4,2,1,70,0,1
44382,-66.6666666666667,4,2,1,40,0,0
45131,-111.111111111111,4,2,1,40,0,0
52465,-74.0740740740741,4,2,1,40,0,0
53131,-111.111111111111,4,2,1,40,0,0
54798,-83.3333333333333,4,2,1,40,0,0
66465,-83.3333333333333,4,2,1,50,0,0
66715,-83.3333333333333,4,2,0,50,0,0
68798,-166.666666666667,4,2,0,50,0,0
69131,-83.3333333333333,4,2,0,50,0,0
71354,-111.111111111111,4,2,0,50,0,0
71798,-83.3333333333333,4,2,0,50,0,0
77131,-83.3333333333333,4,2,1,50,0,0
77465,-83.3333333333333,4,2,0,50,0,0
77798,-83.3333333333333,4,2,1,50,0,0
78131,-83.3333333333333,4,2,0,50,0,0
78465,-71.4285714285714,4,2,1,50,0,0
80965,-71.4285714285714,4,2,1,5,0,0
81131,-166.666666666667,4,2,1,30,0,0
82298,-333.333333333333,4,2,1,30,0,0
83798,-166.666666666667,4,2,1,30,0,0
84965,-200,4,2,1,30,0,0
86465,-166.666666666667,4,2,1,30,0,0
87631,-200,4,2,1,30,0,0
89131,-166.666666666667,4,2,1,30,0,0
90298,-200,4,2,1,30,0,0
94298,-200,4,2,1,5,0,0
94465,-83.3333333333333,4,2,1,60,0,0
95465,333.333333333333,4,2,1,60,1,0
95465,-83.3333333333333,4,2,1,60,0,0
104298,-71.4285714285714,4,2,1,60,0,0
105464,333.333333333333,4,2,1,60,1,0
105464,-83.3333333333333,4,2,1,60,0,0
109464,-66.6666666666667,4,2,1,70,0,1
109964,-88.8888888888889,4,2,1,70,0,1
110464,-66.6666666666667,4,2,1,70,0,1
112630,-88.8888888888889,4,2,1,70,0,1
113130,-66.6666666666667,4,2,1,70,0,1
115297,-88.8888888888889,4,2,1,70,0,1
115797,-66.6666666666667,4,2,1,70,0,1
118297,-58.8235294117647,4,2,1,70,0,1
118630,-66.6666666666667,4,2,1,70,0,1
119463,333.333333333333,4,2,1,70,1,1
119463,-66.6666666666667,4,2,1,70,0,1
123463,-66.6666666666667,4,2,1,70,0,0
128796,-66.6666666666667,4,2,1,5,0,0

[Colours]
Combo1 : 255,128,0
Combo2 : 191,191,191
Combo3 : 0,183,183
Combo4 : 21,180,255
Combo5 : 255,0,0

[HitObjects]
258,87,802,5,2,1:2:0:0:
258,87,1301,2,0,B|213:65|213:65|152:79,1,101.999996887207,0|2,0:0|0:0,0:0:0:0:
184,319,1968,2,0,B|191:258|191:258|207:236|207:236|197:208|197:208|205:138,1,178.499994552612,0|2,0:0|0:0,0:0:0:0:
118,225,3468,5,2,0:0:0:0:
118,225,3968,2,0,L|11:212,1,101.999996887207,0|2,0:0|0:0,0:0:0:0:
184,319,4635,2,0,B|251:310|251:310|285:325|285:325|358:315,1,170,2|2,0:0|0:0,0:0:0:0:
442,303,5635,1,2,0:0:0:0:
317,99,6135,5,2,0:0:0:0:
317,99,6635,2,0,B|294:146|294:146|309:205,1,101.999996887207
496,26,7301,2,0,B|346:4|346:4|396:44,1,212.5,2|0,0:0|0:0,0:0:0:0:
465,101,8468,1,2,0:0:0:0:
306,194,8801,37,2,0:0:0:0:
306,194,9301,2,0,B|356:205|356:205|401:183,1,101.999996887207
230,309,9968,2,0,B|237:242|237:242|222:210|222:210|229:135,1,170,2|0,0:0|0:0,0:0:0:0:
238,49,10968,1,0,0:0:0:0:
106,169,11301,5,2,0:0:0:0:
106,169,12135,1,0,0:0:0:0:
103,148,12301,1,0,0:0:0:0:
100,127,12468,2,0,L|92:61,1,50.9999984436036,2|0,0:0|0:0,0:0:0:0:
25,221,12801,5,2,0:0:0:0:
14,191,12968,1,0,0:0:0:0:
193,203,13135,37,2,0:0:0:0:
198,171,13302,1,0,0:0:0:0:
52,321,13468,5,2,0:0:0:0:
115,271,13634,1,0,0:0:0:0:
188,304,13801,2,0,L|254:296,1,50.9999984436036
392,266,14135,1,2,0:0:0:0:
321,380,14301,1,0,0:0:0:0:
324,359,14385,1,0,0:0:0:0:
327,338,14468,1,2,0:0:0:0:
249,201,14635,5,2,0:0:0:0:
239,298,14801,1,2,0:0:0:0:
327,338,14968,1,2,0:0:0:0:
392,266,15135,1,2,0:0:0:0:
344,182,15301,1,2,0:0:0:0:
249,201,15468,37,2,0:0:0:0:
201,117,15635,1,2,0:0:0:0:
266,45,15802,1,2,0:0:0:0:
354,85,15969,1,2,0:0:0:0:
344,182,16135,1,2,0:0:0:0:
249,201,16301,1,2,0:0:0:0:
0,120,16468,38,8,L|73:110,1,50.9999984436036
249,201,16635,2,4,L|176:191,1,50.9999984436036
132,88,16801,5,0,3:0:0:0:
129,117,16884,1,0,3:0:0:0:
125,147,16967,1,0,3:0:0:0:
123,179,17050,1,0,3:0:0:0:
120,210,17134,1,8,0:0:0:0:
13,356,17468,22,0,P|76:308|155:332,1,152.999995330811,6|0,0:0|0:0,0:0:0:0:
253,237,17801,2,0,P|231:250|206:253,1,50.9999984436036,8|0,0:0|0:0,0:0:0:0:
90,115,17968,2,0,B|135:70|135:70|120:211,1,203.999993774414,6|0,0:0|0:0,0:0:0:0:
233,36,18468,2,0,L|288:30,1,50.9999984436036,8|0,0:0|0:0,0:0:0:0:
448,105,18634,1,0,0:0:0:0:
428,108,18717,1,2,0:0:0:0:
407,111,18801,6,0,B|321:85|341:143|247:120,1,152.999995330811,4|0,0:0|0:0,0:0:0:0:
283,30,19134,1,8,0:0:0:0:
355,257,19301,1,2,0:0:0:0:
361,248,19384,1,2,0:0:0:0:
367,239,19467,2,0,P|376:205|364:175,1,50.9999984436036,2|0,0:0|0:0,0:0:0:0:
258,122,19634,1,4,0:0:0:0:
191,278,19801,2,0,P|224:268|244:243,1,50.9999984436036,8|0,0:0|0:0,0:0:0:0:
264,105,19967,1,6,0:0:0:0:
25,201,20134,38,0,B|85:192|85:192|115:206|115:206|174:198,1,152.999995330811,6|0,0:0|0:0,0:0:0:0:
72,276,20467,2,0,L|12:286,1,50.9999984436036,8|0,0:0|0:0,0:0:0:0:
136,122,20634,2,0,P|227:132|247:240,1,203.999993774414,6|0,0:0|0:0,0:0:0:0:
148,380,21134,2,0,L|156:329,1,50.9999984436036,8|0,0:0|0:0,0:0:0:0:
132,204,21301,1,0,0:0:0:0:
153,201,21384,1,2,0:0:0:0:
173,198,21467,6,0,P|219:145|203:68,1,152.999995330811,4|0,0:0|0:0,0:0:0:0:
130,12,21801,1,10,0:0:0:0:
291,47,21967,1,2,0:0:0:0:
301,45,22050,1,0,0:0:0:0:
311,44,22134,2,0,L|369:36,1,50.9999984436036,2|0,0:0|0:0,0:0:0:0:
441,88,22301,2,0,L|499:80,1,50.9999984436036,6|0,0:0|0:0,0:0:0:0:
292,138,22467,2,0,L|350:130,1,50.9999984436036,12|0,0:0|0:0,0:0:0:0:
422,182,22634,2,0,L|480:174,1,50.9999984436036,6|0,0:0|0:0,0:0:0:0:
275,253,22801,6,0,B|311:260|347:234|347:234|373:268|411:272,1,152.999995330811,6|0,0:0|0:0,0:0:0:0:
408,135,23134,2,0,P|423:168|414:198,1,50.9999984436036,8|0,0:0|0:0,0:0:0:0:
289,166,23301,2,0,B|241:161|241:161|214:147|214:147|180:168|180:168|153:154|153:154|73:147,1,203.999993774414,6|0,0:0|0:0,0:0:0:0:
224,289,23801,2,0,L|219:238,1,50.9999984436036,8|0,0:0|0:0,0:0:0:0:
47,354,23967,1,0,0:0:0:0:
67,357,24050,1,2,0:0:0:0:
88,360,24134,38,0,B|122:336|164:347|164:347|201:383|254:368,1,152.999995330811,4|0,0:0|0:0,0:0:0:0:
314,336,24467,1,8,0:0:0:0:
237,171,24634,1,2,0:0:0:0:
231,180,24717,1,2,0:0:0:0:
225,189,24800,2,0,P|216:223|228:253,1,50.9999984436036,2|0,0:0|0:0,0:0:0:0:
320,319,24967,1,4,0:0:0:0:
383,132,25134,2,0,P|350:142|330:167,1,50.9999984436036,8|0,0:0|0:0,0:0:0:0:
411,344,25301,1,6,0:0:0:0:
403,354,25384,1,4,0:0:0:0:
395,364,25467,6,0,B|404:304|404:304|390:274|390:274|398:215,1,152.999995330811,6|0,0:0|0:0,0:0:0:0:
464,161,25801,2,0,P|482:189|482:221,1,50.9999984436036,8|0,0:0|0:0,0:0:0:0:
320,319,25967,2,0,B|207:301|207:301|246:343,1,152.999995330811,6|0,0:0|0:0,0:0:0:0:
233,329,26301,22,0,B|226:285|226:285|236:263|236:263|229:212,1,118.999996368408,0|10,0:0|0:0,0:0:0:0:
89,92,26634,54,0,B|212:65|170:144|298:116,1,203.999993774414,6|0,0:0|0:0,0:0:0:0:
452,8,27134,2,0,B|477:56|477:56|451:118,1,101.999996887207,8|0,0:0|0:0,0:0:0:0:
366,189,27467,2,0,L|376:76,1,101.999996887207,6|0,0:0|0:0,0:0:0:0:
374,87,27800,1,0,0:0:0:0:
459,191,27967,1,6,0:0:0:0:
270,255,28133,2,0,B|363:228|363:228|419:265,1,152.999995330811,6|0,0:0|0:0,0:0:0:0:
491,322,28467,2,0,L|501:246,1,50.9999984436036,8|0,0:0|0:0,0:0:0:0:
349,313,28633,38,0,P|301:276|269:379,1,203.999993774414,6|0,0:0|0:0,0:0:0:0:
114,256,29133,2,0,L|190:246,1,50.9999984436036,8|0,0:0|0:0,0:0:0:0:
264,237,29300,1,0,0:0:0:0:
267,246,29383,1,2,0:0:0:0:
270,255,29466,2,0,B|300:204|300:204|279:98,1,152.999995330811,4|0,0:0|0:0,0:0:0:0:
260,19,29800,2,0,L|310:25,2,50.9999984436036,8|0|0,0:0|0:0|0:0,0:0:0:0:
215,31,30050,1,4,0:0:0:0:
215,31,30134,37,8,0:0:0:0:
164,37,30216,1,8,0:0:0:0:
120,49,30300,1,4,0:0:0:0:
120,49,30383,6,0,P|161:95|143:178,1,136,4|0,0:0|0:0,0:0:0:0:
134,187,30800,54,0,L|218:175,1,85,8|0,0:2|0:0,0:0:0:0:
475,334,31133,38,0,B|397:322|397:322|359:340|359:340|283:330,1,191.250007295609,6|0,0:0|0:0,0:0:0:0:
201,367,31466,2,0,B|191:339|191:339|204:286,1,63.7500024318696,8|0,0:0|0:0,0:0:0:0:
475,334,31633,22,0,B|404:341|404:341|366:321|366:321|283:332,1,191.250007295609,6|0,0:0|0:0,0:0:0:0:
397,95,32133,2,0,B|408:128|408:128|399:156,1,63.7500024318696,8|0,0:0|0:0,0:0:0:0:
214,202,32299,1,0,0:0:0:0:
234,210,32383,1,2,0:0:0:0:
254,218,32466,54,0,B|358:190|336:266|444:239,1,191.250007295609,4|0,0:0|0:0,0:0:0:0:
400,156,32799,1,8,0:0:0:0:
295,301,32966,1,2,0:0:0:0:
284,304,33049,1,2,0:0:0:0:
274,308,33132,2,0,P|238:310|206:295,1,63.7500024318696,2|0,0:0|0:0,0:0:0:0:
152,145,33299,1,4,0:0:0:0:
1,243,33466,2,0,P|36:245|68:230,1,63.7500024318696,8|0,0:0|0:0,0:0:0:0:
158,128,33632,1,6,0:0:0:0:
132,328,33799,38,0,B|139:262|139:262|156:239|156:239|145:210|145:210|153:136,1,191.250007295609,6|0,0:0|0:0,0:0:0:0:
69,92,34133,2,0,P|52:119|53:152,1,63.7500024318696,8|0,0:0|0:0,0:0:0:0:
132,328,34299,38,0,B|139:262|139:262|128:233|128:233|145:210|145:210|152:144,1,191.250007295609,6|0,0:0|0:0,0:0:0:0:
320,14,34799,2,0,P|337:41|336:74,1,63.7500024318696,8|0,0:0|0:0,0:0:0:0:
130,141,34966,1,0,0:0:0:0:
151,145,35050,1,2,0:0:0:0:
172,148,35132,38,0,B|213:119|263:132|263:132|310:176|369:160,1,191.250007295609,4|0,0:0|0:0,0:0:0:0:
422,110,35466,1,10,0:0:0:0:
512,318,35632,1,2,0:0:0:0:
502,311,35715,1,0,0:0:0:0:
494,303,35798,2,0,P|461:288|425:290,1,63.7500024318696,2|0,0:0|0:0,0:0:0:0:
337,259,35966,2,0,P|307:280|292:311,1,63.7500024318696,6|0,0:0|0:0,0:0:0:0:
204,353,36132,2,0,P|200:316|180:286,1,63.7500024318696,12|0,0:0|0:0,0:0:0:0:
161,194,36299,2,0,P|127:178|93:181,1,63.7500024318696,6|0,0:0|0:0,0:0:0:0:
18,319,36466,6,0,B|66:312|97:270|97:270|141:303|187:293,1,191.250007295609,6|0,0:0|0:0,0:0:0:0:
249,216,36799,2,0,L|242:152,1,63.7500024318696,8|0,0:0|0:0,0:0:0:0:
18,319,36966,6,0,B|64:308|108:342|108:342|139:299|187:293,1,191.250007295609,6|0,0:0|0:0,0:0:0:0:
249,90,37466,2,0,L|242:155,1,63.7500024318696,8|0,0:0|0:0,0:0:0:0:
348,314,37632,1,0,0:0:0:0:
350,291,37715,1,2,0:0:0:0:
352,269,37799,22,0,B|337:138|337:138|383:187,1,191.250007295609,4|0,0:0|0:0,0:0:0:0:
494,109,38132,2,0,L|429:102,1,63.7500024318696,8|0,0:0|0:0,0:0:0:0:
262,72,38299,1,2,0:0:0:0:
256,81,38382,1,2,0:0:0:0:
249,90,38465,2,0,P|237:124|243:159,1,63.7500024318696,2|0,0:0|0:0,0:0:0:0:
377,181,38632,1,4,0:0:0:0:
397,2,38799,2,0,P|361:9|334:32,1,63.7500024318696,8|0,0:0|0:0,0:0:0:0:
458,206,38966,1,6,0:0:0:0:
468,212,39049,1,4,0:0:0:0:
478,219,39132,6,0,B|400:207|400:207|362:225|362:225|286:215,1,191.250007295609,6|0,0:0|0:0,0:0:0:0:
194,204,39466,2,0,L|200:267,1,63.7500024318696,8|0,0:0|0:0,0:0:0:0:
271,354,39632,2,0,P|214:298|102:319,1,191.250007295609,6|0,0:0|0:0,0:0:0:0:
110,312,39966,22,0,B|131:244|84:244|108:170,1,144.500002756119,0|8,0:0|0:0,0:0:0:0:
317,83,40299,54,0,B|256:76|256:76|222:59|222:59|180:85|180:85|146:67|146:67|45:59,1,255.000009727478,6|0,0:0|0:0,0:0:0:0:
383,20,40799,2,0,B|410:69|410:69|391:142,1,127.500004863739,8|0,0:0|0:0,0:0:0:0:
354,263,41132,2,0,L|490:247,1,127.500004863739,6|0,0:0|0:0,0:0:0:0:
480,248,41465,1,0,0:0:0:0:
276,181,41632,1,6,0:0:0:0:
367,355,41798,1,6,0:0:0:0:
131,256,41965,6,0,P|148:292|137:338,1,63.7500024318696,8|0,0:0|0:0,0:0:0:0:
389,282,42132,2,0,P|364:313|366:360,1,63.7500024318696,8|0,0:0|0:0,0:0:0:0:
258,356,42298,6,0,B|276:181|276:181|220:237,1,255.000009727478,6|0,0:0|0:0,0:0:0:0:
246,94,42798,6,0,L|309:87,1,63.7500024318696,8|0,0:0|0:0,0:0:0:0:
486,167,42965,1,0,0:0:0:0:
473,163,43048,1,2,0:0:0:0:
460,159,43132,2,0,B|356:131|378:207|270:180,1,191.250007295609,4|0,0:0|0:0,0:0:0:0:
178,163,43465,2,0,L|185:226,2,63.7500024318696,8|0|0,0:0|0:0|0:0,0:0:0:0:
128,196,43715,1,4,0:0:0:0:
128,196,43798,37,8,0:0:0:0:
64,176,43881,1,8,0:0:0:0:
39,130,43965,1,4,0:0:0:0:
39,130,44048,1,4,0:0:0:0:
39,130,44132,6,0,L|46:67,3,63.7500024318696,0|0|0|0,3:0|3:0|3:0|3:0,3:0:0:0:
365,198,45131,6,0,L|378:37,1,152.999995330811,6|4,0:0|0:0,0:0:0:0:
289,255,45631,2,0,P|252:273|205:265,1,76.4999976654053,2|4,0:0|0:0,0:0:0:0:
376,292,45965,2,0,P|410:315|426:359,1,76.4999976654053,2|4,0:0|0:0,0:0:0:0:
152,123,46465,6,0,B|212:114|212:114|242:128|242:128|301:120,1,152.999995330811,6|4,0:0|0:0,0:0:0:0:
67,78,46965,2,0,L|5:2,1,76.4999976654053,2|4,0:0|0:0,0:0:0:0:
70,174,47298,2,0,L|35:265,1,76.4999976654053,2|4,0:0|0:0,0:0:0:0:
355,262,47798,6,0,B|269:236|289:294|195:271,1,152.999995330811,6|4,0:0|0:0,0:0:0:0:
436,311,48298,2,0,P|456:346|451:394,1,76.4999976654053,2|4,0:0|0:0,0:0:0:0:
437,216,48631,2,0,P|457:180|501:160,1,76.4999976654053,2|4,0:0|0:0,0:0:0:0:
216,39,49131,38,0,L|228:191,2,152.999995330811,6|4|4,0:0|0:0|0:0,0:0:0:0:
386,123,50131,2,0,L|309:117,1,76.4999976654053,4|0,0:0|0:0,0:0:0:0:
146,241,50465,6,0,B|223:223|223:223|285:264,1,152.999995330811,6|4,0:0|0:0,0:0:0:0:
54,214,50965,2,0,L|-14:140,1,76.4999976654053,2|4,0:0|0:0,0:0:0:0:
76,307,51298,1,0,0:0:0:0:
76,307,51465,2,0,L|46:403,1,76.4999976654053,6|0,0:0|0:0,0:0:0:0:
207,306,51798,5,6,0:0:0:0:
207,306,52465,6,0,P|244:324|291:316,1,76.4999976654053,4|0,0:0|0:0,0:0:0:0:
331,261,52687,2,0,P|328:219|297:183,1,76.4999976654053,6|0,0:0|0:0,0:0:0:0:
231,177,52909,2,0,P|196:200|180:244,1,76.4999976654053,6|4,0:0|0:0,0:0:0:0:
257,249,53131,38,0,L|269:97,1,152.999995330811,6|4,0:0|0:0,0:0:0:0:
175,299,53631,2,0,L|84:343,1,76.4999976654053,2|4,0:0|0:0,0:0:0:0:
330,310,53965,1,0,0:0:0:0:
330,310,54131,2,0,L|412:368,1,76.4999976654053,6|0,0:0|0:0,0:0:0:0:
248,360,54465,5,6,0:0:0:0:
248,360,54798,6,0,L|260:208,1,152.999995330811,8|0,0:0|0:0,0:0:0:0:
296,135,55131,5,4,0:0:0:0:
274,169,55214,1,4,0:0:0:0:
239,188,55297,1,4,0:0:0:0:
198,189,55381,1,4,0:0:0:0:
162,170,55464,1,8,0:0:0:0:
344,265,55798,6,0,B|430:239|410:297|504:274,1,152.999995330811,6|0,0:0|0:0,0:0:0:0:
492,276,56131,1,8,0:0:0:0:
382,339,56298,2,0,P|329:292|247:305,1,152.999995330811,6|0,0:0|0:0,0:0:0:0:
252,301,56631,1,6,0:0:0:0:
330,124,56798,2,0,B|364:179|364:179|338:288,1,152.999995330811,8|0,0:0|0:0,0:0:0:0:
256,304,57131,6,0,B|196:295|196:295|166:309|166:309|107:301,1,152.999995330811,6|0,0:0|0:0,0:0:0:0:
107,301,57465,1,8,0:0:0:0:
13,152,57631,2,0,P|76:200|155:176,1,152.999995330811,6|0,0:0|0:0,0:0:0:0:
143,185,57965,1,6,0:0:0:0:
131,21,58131,1,8,0:0:0:0:
93,111,58298,1,4,0:0:0:0:
231,143,58465,6,0,L|384:125,1,152.999995330811,6|0,0:0|0:0,0:0:0:0:
382,125,58798,1,8,0:0:0:0:
512,239,58965,2,0,B|474:235|448:201|448:201|412:227|376:220,1,152.999995330811,6|0,0:0|0:0,0:0:0:0:
376,220,59298,1,6,0:0:0:0:
484,24,59465,2,0,P|535:82|511:167,1,152.999995330811,8|0,0:0|0:0,0:0:0:0:
448,201,59798,38,0,L|461:368,1,152.999995330811,6|0,0:0|0:0,0:0:0:0:
459,353,60131,1,10,0:0:0:0:
376,320,60298,1,2,0:0:0:0:
308,375,60465,1,2,0:0:0:0:
224,341,60631,1,6,0:0:0:0:
271,193,60798,2,0,P|302:239|286:298,1,101.999996887207,8|4,0:0|0:0,0:0:0:0:
228,344,61048,1,4,0:0:0:0:
228,344,61131,6,0,B|135:317|135:317|79:354,1,152.999995330811,6|0,0:0|0:0,0:0:0:0:
88,347,61465,1,8,0:0:0:0:
108,186,61631,2,0,B|153:141|153:141|138:282,1,203.999993774414,6|0,0:0|0:0,0:0:0:0:
29,227,62131,2,0,B|15:182|15:182|35:130,1,101.999996887207,8|0,0:0|0:0,0:0:0:0:
234,100,62465,6,0,P|171:52|92:76,1,152.999995330811,6|0,0:0|0:0,0:0:0:0:
114,77,62798,2,0,L|119:116,4,25.4999992218018,2|0|2|0|2,0:0|0:0|0:0|0:0|0:0,0:0:0:0:
225,249,63131,6,0,L|292:257,1,67.9999979248048,6|0,0:0|0:0,0:0:0:0:
77,181,63354,2,0,L|9:189,1,67.9999979248048,6|0,0:0|0:0,0:0:0:0:
159,358,63576,5,6,0:0:0:0:
155,324,63687,1,4,0:0:0:0:
150,289,63798,6,0,B|144:231|144:231|158:202|158:202|152:139,1,152.999995330811,6|0,0:0|0:0,0:0:0:0:
152,139,64131,1,8,0:0:0:0:
328,78,64298,2,0,P|255:92|197:45,1,152.999995330811,6|0,0:0|0:0,0:0:0:0:
197,45,64631,1,6,0:0:0:0:
417,0,64798,2,0,L|404:167,1,152.999995330811,8|0,0:0|0:0,0:0:0:0:
453,234,65131,6,0,B|367:208|387:266|293:243,1,152.999995330811,6|0,0:0|0:0,0:0:0:0:
292,237,65465,2,0,B|312:289|312:289|298:334,1,101.999996887207,2|0,0:0|0:0,0:0:0:0:
122,207,65798,1,4,0:0:0:0:
208,320,65965,1,4,0:0:0:0:
212,309,66048,1,4,0:0:0:0:
215,297,66131,2,0,L|203:144,1,152.999995330811,8|0,0:0|0:0,0:0:0:0:
198,58,66465,22,0,B|249:69|249:69|294:48,1,101.999996887207,4|0,0:0|0:0,0:0:0:0:
314,37,66715,2,0,L|308:100,1,50.9999984436036,8|0,0:0|0:0,0:0:0:0:
397,152,66965,1,2,0:3:0:0:
396,146,67048,1,2,0:3:0:0:
396,141,67131,1,2,0:3:0:0:
395,136,67214,1,2,0:3:0:0:
395,131,67298,1,2,0:3:0:0:
309,248,67465,2,0,B|354:227|354:227|405:238,1,101.999996887207,2|2,0:3|0:3,0:0:0:0:
367,348,67798,5,2,0:3:0:0:
289,333,67965,1,2,0:3:0:0:
211,319,68131,2,0,L|103:300,1,101.999996887207,0|0,1:0|0:0,0:0:0:0:
93,316,68381,2,0,L|88:265,1,50.9999984436036,0|2,0:0|0:3,0:0:0:0:
80,167,68631,1,2,0:3:0:0:
177,132,68798,54,0,L|181:86,2,38.2499988327027,2|2|2,0:3|0:3|0:3,0:0:0:0:
233,191,69131,5,2,0:3:0:0:
234,196,69215,1,2,0:3:0:0:
235,201,69298,1,2,0:3:0:0:
236,206,69381,1,2,0:3:0:0:
236,211,69465,1,0,1:0:0:0:
324,275,69631,1,2,0:3:0:0:
324,270,69715,1,2,0:3:0:0:
325,265,69798,1,2,0:3:0:0:
419,229,69965,1,2,0:3:0:0:
422,225,70048,2,0,B|433:176|433:176|412:129,1,101.999996887207,2|0,0:3|0:0,0:0:0:0:
397,117,70298,1,2,0:3:0:0:
437,23,70465,53,2,0:3:0:0:
359,38,70631,1,2,0:3:0:0:
281,53,70798,2,0,L|180:36,1,101.999996887207,0|0,1:0|0:0,0:0:0:0:
162,21,71048,6,0,L|167:72,2,50.9999984436036,0|2|0,0:0|0:0|0:0,0:0:0:0:
173,170,71354,2,0,L|126:148,1,50.9999984436036,2|0,0:0|0:0,0:0:0:0:
39,106,71576,2,0,L|80:76,1,50.9999984436036,2|0,0:0|0:0,0:0:0:0:
173,170,71798,53,2,0:3:0:0:
251,155,71964,1,2,0:3:0:0:
329,140,72131,2,0,L|324:210,1,50.9999984436036,0|0,1:0|0:0,0:0:0:0:
319,271,72298,1,2,0:3:0:0:
324,270,72381,1,2,0:3:0:0:
329,270,72464,1,2,0:3:0:0:
334,269,72547,1,2,0:3:0:0:
339,269,72631,1,0,1:0:0:0:
434,259,72798,2,0,P|461:314|437:378,1,101.999996887207,2|0,0:3|0:0,0:0:0:0:
293,383,73131,6,0,B|237:347|237:347|140:374,1,135.99999584961,2|2,0:3|0:3,0:0:0:0:
244,310,73548,53,2,0:3:0:0:
244,305,73632,1,2,0:3:0:0:
245,300,73715,2,0,L|240:232,1,50.9999984436036,0|0,1:0|0:0,0:0:0:0:
173,206,73881,1,4,0:3:0:0:
172,201,73964,2,0,L|177:133,1,50.9999984436036,0|0,1:0|0:0,0:0:0:0:
224,86,74131,1,2,0:3:0:0:
224,81,74215,1,0,1:0:0:0:
225,76,74298,2,0,L|222:40,2,25.4999992218018,0|0|0,1:0|0:0|0:0,0:0:0:0:
223,50,74465,6,0,B|274:61|274:61|319:40,1,101.999996887207,2|0,0:3|0:0,0:0:0:0:
336,51,74715,2,2,B|330:105|330:105|340:127|340:127|327:146|327:146|323:197,1,152.999995330811,2|0,1:0|0:0,1:0:0:0:
440,292,75298,54,0,L|443:256,2,25.4999992218018,2|0|0,0:0|0:0|0:0,0:0:0:0:
450,311,75465,2,0,B|405:290|405:290|354:301,1,101.999996887207,2|0,0:3|1:0,0:0:0:0:
339,318,75715,1,0,1:0:0:0:
324,334,75798,5,0,1:0:0:0:
319,333,75881,1,2,0:3:0:0:
314,333,75964,1,2,0:3:0:0:
309,332,76047,1,2,0:3:0:0:
304,332,76131,1,2,0:3:0:0:
207,276,76298,1,0,1:0:0:0:
212,275,76381,1,2,0:3:0:0:
217,275,76464,1,2,0:3:0:0:
222,274,76547,1,2,0:3:0:0:
227,274,76631,1,2,0:3:0:0:
298,211,76798,2,0,B|313:164|313:164|292:113,1,101.999996887207,0|0,1:0|0:0,0:0:0:0:
65,167,77131,6,0,B|151:141|131:199|225:176,1,152.999995330811,4|0,0:0|0:0,0:0:0:0:
213,178,77465,1,0,1:0:0:0:
322,28,77631,1,2,0:3:0:0:
313,22,77715,1,2,0:3:0:0:
304,16,77798,2,0,P|229:31|216:127,1,152.999995330811,4|0,0:0|0:0,0:0:0:0:
292,159,78131,38,0,L|283:88,2,67.9999979248048,2|2|2,0:3|0:3|0:3,0:0:0:0:
129,92,78465,6,0,P|183:87|222:111,1,79.3333309122722,4|0,0:0|0:0,0:0:0:0:
433,54,78687,2,0,P|379:62|347:94,1,79.3333309122722,4|0,0:0|0:0,0:0:0:0:
187,178,78909,2,0,P|231:208|246:252,1,79.3333309122722,4|0,0:0|0:0,0:0:0:0:
397,151,79131,2,0,P|361:191|357:237,1,79.3333309122722,4|0,0:0|0:0,0:0:0:0:
306,285,79354,2,0,L|315:364,1,79.3333309122722,4|0,0:0|0:0,0:0:0:0:
315,364,79576,1,4,0:0:0:0:
256,192,79687,12,0,80965,0:0:0:0:
254,87,81131,5,2,1:2:0:0:
254,87,81631,2,0,B|299:65|299:65|360:79,1,101.999996887207,0|2,0:0|0:0,0:0:0:0:
328,319,82298,2,0,B|321:258|321:258|305:236|305:236|315:208|315:208|307:138,1,178.499994552612,0|2,0:0|0:0,0:0:0:0:
394,225,83798,5,2,0:0:0:0:
394,225,84298,2,0,L|501:212,1,101.999996887207,0|2,0:0|0:0,0:0:0:0:
328,319,84965,2,0,B|261:310|261:310|227:325|227:325|154:315,1,170,2|2,0:0|0:0,0:0:0:0:
70,303,85965,1,2,0:0:0:0:
195,99,86465,5,2,0:0:0:0:
195,99,86965,2,0,B|218:146|218:146|203:205,1,101.999996887207
16,26,87631,2,0,B|166:4|166:4|116:44,1,212.5,2|0,0:0|0:0,0:0:0:0:
47,101,88798,1,2,0:0:0:0:
206,194,89131,37,2,0:0:0:0:
206,194,89631,2,0,B|156:205|156:205|111:183,1,101.999996887207
282,309,90298,2,0,B|275:242|275:242|290:210|290:210|283:135,1,170,2|0,0:0|0:0,0:0:0:0:
274,49,91298,1,0,0:0:0:0:
406,169,91631,5,2,0:0:0:0:
256,192,91715,12,0,94298,0:0:0:0:
292,266,94465,22,0,B|318:220|318:220|299:117,1,152.999995330811,8|4,0:0|0:0,0:0:0:0:
279,100,94965,6,0,L|212:93,1,50.9999984436036,4|4,0:0|0:0,0:0:0:0:
97,80,95131,1,8,0:0:0:0:
399,344,95465,38,0,B|339:335|339:335|309:349|309:349|250:341,1,152.999995330811,4|0,0:0|0:0,0:0:0:0:
153,315,95798,2,0,L|160:396,1,50.9999984436036,8|0,0:0|0:0,0:0:0:0:
292,266,95965,2,0,P|301:195|212:240,1,203.999993774414,4|0,0:0|0:0,0:0:0:0:
408,221,96465,1,8,3:2:0:0:
405,195,96549,1,0,3:0:0:0:
402,170,96631,1,0,3:0:0:0:
399,144,96715,1,0,3:0:0:0:
397,119,96798,38,0,B|311:93|331:151|237:128,1,152.999995330811,4|0,0:0|0:0,0:0:0:0:
267,4,97131,2,0,P|280:48|271:72,1,50.9999984436036,8|0,0:0|0:0,0:0:0:0:
156,170,97298,1,2,0:0:0:0:
158,160,97381,1,2,0:0:0:0:
159,150,97465,2,0,L|167:92,1,50.9999984436036,2|0,0:0|0:0,0:0:0:0:
82,17,97631,1,4,0:0:0:0:
29,187,97798,2,0,L|21:129,1,50.9999984436036,8|0,0:0|0:0,0:0:0:0:
88,0,97965,1,4,0:0:0:0:
173,250,98131,6,0,B|137:257|101:231|101:231|75:265|37:269,1,152.999995330811,4|0,0:0|0:0,0:0:0:0:
124,374,98465,2,0,L|113:310,1,50.9999984436036,8|0,0:0|0:0,0:0:0:0:
29,187,98631,2,0,P|56:124|156:172,1,203.999993774414,4|0,0:0|0:0,0:0:0:0:
220,322,99131,1,8,3:2:0:0:
249,333,99215,1,0,3:0:0:0:
279,333,99298,1,0,3:0:0:0:
307,321,99381,1,0,3:0:0:0:
329,300,99465,6,0,B|320:240|320:240|333:210|333:210|326:152,1,152.999995330811,4|0,0:0|0:0,0:0:0:0:
310,55,99798,1,10,0:0:0:0:
485,193,99965,1,2,0:0:0:0:
476,187,100048,1,0,0:0:0:0:
467,181,100131,2,0,P|433:172|403:184,1,50.9999984436036,2|0,0:0|0:0,0:0:0:0:
325,151,100298,2,0,P|300:175|295:207,1,50.9999984436036,6|0,0:0|0:0,0:0:0:0:
500,290,100465,2,0,P|466:281|436:293,1,50.9999984436036,10|0,0:0|0:0,0:0:0:0:
358,260,100632,2,0,P|333:284|328:316,1,50.9999984436036,6|0,0:0|0:0,0:0:0:0:
463,371,100798,38,0,B|429:347|387:358|387:358|350:394|297:379,1,152.999995330811,4|0,0:0|0:0,0:0:0:0:
310,253,101131,2,0,P|327:282|323:315,1,50.9999984436036,8|0,0:0|0:0,0:0:0:0:
183,231,101298,2,0,B|228:186|228:186|214:326,1,203.999993774414,4|0,0:0|0:0,0:0:0:0:
193,111,101798,1,8,3:2:0:0:
222,102,101882,1,0,3:0:0:0:
252,105,101965,1,0,3:0:0:0:
279,119,102048,1,0,3:0:0:0:
299,142,102131,6,0,B|392:115|392:115|448:152,1,152.999995330811,4|0,0:0|0:0,0:0:0:0:
379,216,102465,1,8,0:0:0:0:
494,12,102631,1,2,0:0:0:0:
500,21,102714,1,2,0:0:0:0:
506,30,102797,2,0,P|515:64|503:94,1,50.9999984436036,2|0,0:0|0:0,0:0:0:0:
373,233,102964,1,4,0:0:0:0:
322,23,103131,2,0,P|355:32|375:57,1,50.9999984436036,8|0,0:0|0:0,0:0:0:0:
463,258,103298,1,4,0:0:0:0:
455,268,103381,1,4,0:0:0:0:
447,278,103464,6,0,B|454:217|454:217|440:188|440:188|447:128,1,152.999995330811,4|0,0:0|0:0,0:0:0:0:
373,233,103798,2,0,P|342:243|299:229,1,50.9999984436036,8|0,0:0|0:0,0:0:0:0:
177,127,103964,2,0,B|263:101|243:159|337:136,1,152.999995330811,4|0,0:0|0:0,0:0:0:0:
325,138,104298,6,0,B|318:94|318:94|328:72|328:72|321:21,1,118.999996368408,0|8,0:0|0:0,0:0:0:0:
215,205,104631,1,4,0:0:0:0:
373,233,104798,6,0,P|337:249|281:237,1,79.3333309122722,2|0,0:1|0:0,0:0:0:0:
160,54,105020,2,0,P|191:77|209:131,1,79.3333309122722,2|8,0:1|0:2,0:0:0:0:
112,328,105242,2,0,P|116:288|154:246,1,79.3333309122722,2|0,0:1|0:3,0:3:0:0:
215,205,105464,6,0,L|222:309,1,101.999996887207,4|0,0:0|0:0,0:0:0:0:
324,169,105797,1,8,0:0:0:0:
497,334,105964,1,4,0:0:0:0:
477,337,106047,1,2,0:0:0:0:
456,340,106131,2,0,B|370:314|390:372|296:349,1,152.999995330811,4|0,0:0|0:0,0:0:0:0:
221,306,106464,1,8,0:0:0:0:
339,246,106630,2,0,L|333:287,8,25.4999992218018,2|0|2|0|2|0|2|0|2,0:0|0:0|0:0|0:0|0:0|0:0|0:0|0:0|0:0,0:0:0:0:
257,174,107130,6,0,L|333:164,1,50.9999984436036,8|0,0:0|0:0,0:0:0:0:
422,215,107297,1,0,0:0:0:0:
425,224,107380,1,2,0:0:0:0:
428,233,107463,2,0,B|458:182|458:182|437:76,1,152.999995330811,4|0,0:0|0:0,0:0:0:0:
419,2,107797,2,0,L|469:8,2,50.9999984436036,8|0|0,0:0|0:0|0:0,0:0:0:0:
375,14,108047,1,4,0:0:0:0:
375,14,108130,21,8,0:0:0:0:
323,20,108213,1,8,0:0:0:0:
282,36,108297,1,4,0:0:0:0:
282,36,108380,1,4,0:0:0:0:
282,36,108464,6,0,L|288:86,3,50.9999984436036,8|0|0|0,0:0|3:0|3:0|3:0,0:0:0:0:
67,229,109464,6,0,B|112:224|112:224|138:210|138:210|170:230|170:230|196:217|196:217|272:210,1,191.250007295609,6|0,0:0|0:0,0:0:0:0:
339,251,109797,2,0,L|347:183,1,63.7500024318696,8|0,0:0|0:0,0:0:0:0:
67,229,109964,38,0,B|112:225|112:225|140:234|140:234|168:209|168:209|196:217|196:217|272:211,1,191.250007295609,6|0,0:0|0:0,0:0:0:0:
400,124,110464,2,0,P|371:106|336:108,1,63.7500024318696,8|0,0:0|0:0,0:0:0:0:
201,63,110630,1,0,0:0:0:0:
216,47,110714,1,2,0:0:0:0:
232,33,110797,22,0,B|272:-10|272:-10|257:120,1,191.250007295609,4|0,0:0|0:0,0:0:0:0:
245,213,111130,1,8,0:0:0:0:
65,144,111297,1,2,0:0:0:0:
75,142,111380,1,2,0:0:0:0:
85,141,111464,2,0,L|148:132,1,63.7500024318696,2|0,0:0|0:0,0:0:0:0:
259,223,111630,1,4,0:0:0:0:
102,304,111797,2,0,L|165:295,1,63.7500024318696,8|0,0:0|0:0,0:0:0:0:
273,233,111964,1,6,0:0:0:0:
362,376,112130,6,0,B|373:302|373:302|356:266|356:266|366:190,1,191.250007295609,6|0,0:0|0:0,0:0:0:0:
329,102,112463,2,0,B|357:92|357:92|410:105,1,63.7500024318696,8|0,0:0|0:0,0:0:0:0:
362,376,112630,22,0,B|354:301|354:301|373:266|373:266|365:189,1,191.250007295609,6|0,0:0|0:0,0:0:0:0:
277,236,113047,1,2,0:0:0:0:
277,236,113130,2,0,L|214:224,1,63.7500024318696,8|0,0:0|0:0,0:0:0:0:
448,327,113297,2,0,L|510:315,1,63.7500024318696,2|0,0:0|0:0,0:0:0:0:
214,224,113464,54,0,B|110:196|132:272|24:245,1,191.250007295609,4|0,0:0|0:0,0:0:0:0:
66,159,113797,1,10,0:0:0:0:
181,314,113964,1,2,0:0:0:0:
192,317,114047,1,0,0:0:0:0:
202,321,114130,2,0,P|238:323|270:308,1,63.7500024318696,2|0,0:0|0:0,0:0:0:0:
358,334,114297,2,0,P|377:303|380:268,1,63.7500024318696,6|0,0:0|0:0,0:0:0:0:
306,142,114463,2,0,P|311:173|329:199,1,63.7500024318696,10|0,0:0|0:0,0:0:0:0:
423,193,114630,2,0,P|452:203|484:201,1,63.7500024318696,6|0,0:0|0:0,0:0:0:0:
500,32,114797,38,0,B|360:17|360:17|405:62,1,191.250007295609,6|0,0:0|0:0,0:0:0:0:
306,142,115130,2,0,P|295:107|301:77,1,63.7500024318696,8|0,0:0|0:0,0:0:0:0:
500,32,115297,38,0,B|377:100|377:100|401:41,1,191.250007295609,6|0,0:0|0:0,0:0:0:0:
202,6,115797,2,0,P|213:41|207:71,1,63.7500024318696,8|0,0:0|0:0,0:0:0:0:
6,131,115963,1,0,0:0:0:0:
27,135,116047,1,2,0:0:0:0:
48,138,116129,38,0,B|89:109|139:122|139:122|186:166|245:150,1,191.250007295609,4|0,0:0|0:0,0:0:0:0:
298,100,116463,1,8,0:0:0:0:
212,324,116630,1,2,0:0:0:0:
206,315,116713,1,2,0:0:0:0:
199,306,116796,2,0,P|187:272|193:237,1,63.7500024318696,2|0,0:0|0:0,0:0:0:0:
329,213,116963,1,4,0:0:0:0:
368,368,117130,2,0,P|332:361|305:338,1,63.7500024318696,8|0,0:0|0:0,0:0:0:0:
390,147,117297,1,6,0:0:0:0:
380,141,117380,1,4,0:0:0:0:
370,135,117463,54,0,B|266:107|288:183|180:156,1,191.250007295609,6|0,0:0|0:0,0:0:0:0:
83,116,117797,2,0,L|95:202,1,63.7500024318696,8|0,0:0|0:0,0:0:0:0:
2,322,117963,2,0,B|50:315|81:273|81:273|125:306|171:296,1,191.250007295609,6|0,0:0|0:0,0:0:0:0:
170,296,118297,38,0,B|175:251|175:251|187:230|187:230|180:205|180:205|186:153,1,144.500002756119,0|8,0:0|0:0,0:0:0:0:
407,83,118630,54,0,B|225:59|225:59|285:116,1,255.000009727478,6|0,0:0|0:0,0:0:0:0:
67,164,119130,2,0,B|123:137|123:137|201:161,1,127.500004863739,8|0,0:0|0:0,0:0:0:0:
341,286,119463,2,0,B|364:245|364:245|348:157,1,127.500004863739,6|0,0:0|0:0,0:0:0:0:
349,165,119796,1,0,0:0:0:0:
449,315,119963,1,6,0:0:0:0:
272,230,120129,2,0,B|168:202|190:278|82:251,1,191.250007295609,6|0,0:0|0:0,0:0:0:0:
106,109,120463,2,0,P|124:146|117:189,1,63.7500024318696,8|0,0:0|0:0,0:0:0:0:
234,305,120629,38,0,P|279:252|286:365,1,255.000009727478,6|0,0:0|0:0,0:0:0:0:
80,315,121129,2,0,L|90:234,1,63.7500024318696,8|0,0:0|0:0,0:0:0:0:
64,102,121296,1,0,0:0:0:0:
85,106,121380,1,2,0:0:0:0:
106,109,121462,2,0,B|147:80|197:93|197:93|244:137|303:121,1,191.250007295609,4|0,0:0|0:0,0:0:0:0:
373,150,121796,2,0,L|366:87,2,63.7500024318696,8|0|0,0:0|0:0|0:0,0:0:0:0:
431,123,122046,1,4,0:0:0:0:
431,123,122129,37,8,0:0:0:0:
487,137,122212,1,8,0:0:0:0:
512,201,122296,1,4,0:0:0:0:
512,201,122379,1,4,0:0:0:0:
512,201,122463,6,0,L|505:264,3,63.7500024318696,0|0|0|0,3:0|3:0|3:0|3:0,0:0:0:0:
256,192,123463,53,4,0:0:0:0:
256,192,123546,12,0,128796,0:0:0:0:
