osu file format v14

[General]
AudioFilename: audio.mp3
AudioLeadIn: 0
PreviewTime: 77550
Countdown: 0
SampleSet: Normal
StackLeniency: 0
Mode: 1
LetterboxInBreaks: 0
WidescreenStoryboard: 1

[Editor]
Bookmarks: 1130,8708,16287,31445,71866,79444,90813,94602,109760,117339,124918
DistanceSpacing: 0.4
BeatDivisor: 4
GridSize: 32
TimelineZoom: 3.449999

[Metadata]
Title:neo kosmo
TitleUnicode:nέο κόsmo
Artist:ak+q x Street
ArtistUnicode:ak+q × Street
Creator:Shinsekai-
Version:yen's Beyond
Source:Arcaea
Tags:[_Chichinya_] PhoeNiiXZ chichinya yenmaster Peaceful Ph0eNiiXZ davidminh0111 Faputa nintendo switch lowiro shirahime divided heart new world electronic instrumental neurofunk artcore video game videogame
BeatmapID:3144486
BeatmapSetID:1492497

[Difficulty]
HPDrainRate:6
CircleSize:9.7
OverallDifficulty:5.6
ApproachRate:10
SliderMultiplier:1.4
SliderTickRate:1

[Events]
//Background and Video events
0,0,"Arcaea.full.2811174.jpg",0,90
//Break Periods
//Storyboard Layer 0 (Background)
//Storyboard Layer 1 (Fail)
//Storyboard Layer 2 (Pass)
//Storyboard Layer 3 (Foreground)
//Storyboard Layer 4 (Overlay)
//Storyboard Sound Samples

[TimingPoints]
1130,315.789473684211,6,1,2,100,1,0
1287,-111.111111111111,6,1,0,35,0,0
8630,-100,6,1,2,50,0,0
8945,-105.263157894737,6,1,0,50,0,0
16208,-100,6,1,2,50,0,0
16366,-100,6,1,0,50,0,0
17156,-100,6,1,2,50,0,0
17314,-100,6,1,0,50,0,0
18103,-100,6,1,2,50,0,0
18261,-100,6,1,0,50,0,0
19051,-100,6,1,2,50,0,0
19208,-100,6,1,0,50,0,0
19998,-100,6,1,2,50,0,0
20156,-100,6,1,0,50,0,0
20955,-100,6,1,2,50,0,0
21103,-100,6,1,0,50,0,0
21893,-100,6,1,2,50,0,0
22051,-100,6,1,0,50,0,0
22840,-100,6,1,2,50,0,0
22998,-100,6,1,0,50,0,0
23787,-100,6,1,2,50,0,0
23945,-100,6,1,0,50,0,0
24735,-100,6,1,2,50,0,0
24893,-100,6,1,0,50,0,0
25682,-100,6,1,2,50,0,0
25840,-100,6,1,0,50,0,0
25998,-100,6,1,0,50,0,0
26630,-100,6,1,0,30,0,0
27577,-100,6,1,0,50,0,0
30320,-100,6,1,0,15,0,0
30360,-100,6,1,0,20,0,0
30478,-100,6,1,0,25,0,0
30616,-100,6,1,0,35,0,0
30695,-100,6,1,0,40,0,0
30774,-100,6,1,0,45,0,0
30932,-100,6,1,0,55,0,0
31011,-100,6,1,0,65,0,0
31090,-100,6,1,0,70,0,0
31445,315.789473684211,4,1,0,100,1,0
71866,315.789473684211,6,1,0,100,1,0
72102,-100,6,1,0,54,0,0
77471,-100,6,1,3,70,0,0
77629,-100,6,1,0,50,0,0
79366,-100,6,1,2,75,0,0
79523,-111.111111111111,6,1,0,75,0,0
90735,-100,6,1,2,100,0,0
90893,-105.263157894737,6,1,0,75,0,0
93655,-90.0900900900901,6,1,0,75,0,0
93892,-98.0392156862745,6,1,0,80,0,0
94050,-96.1538461538461,6,1,0,85,0,0
94208,-94.3396226415094,6,1,0,90,0,0
94366,-92.5925925925926,6,1,0,95,0,0
94602,-88.4955752212389,6,1,0,100,0,1
107866,-88.4955752212389,6,1,0,100,0,0
108260,-90.0900900900901,6,1,0,100,0,0
108654,-92.5925925925926,6,1,0,100,0,0
108959,-94.3396226415094,6,1,0,100,0,0
109204,-96.1538461538461,6,1,0,100,0,0
109499,-98.0392156862745,6,1,0,100,0,0
116550,-96.6183574879227,6,1,0,100,0,0
116787,-93.4579439252336,6,1,0,100,0,0
117023,-90.9090909090909,6,1,0,100,0,0
117339,-88.4955752212389,6,1,0,100,0,1
124839,-88.4955752212389,6,1,2,100,0,1
124918,-88.4955752212389,6,1,2,100,0,0
124997,-100,6,1,0,100,0,0
125787,-90.0900900900901,6,1,2,100,0,0
125945,-90.0900900900901,6,1,0,100,0,0
126735,-91.743119266055,6,1,2,100,0,0
126893,-100,6,1,0,100,0,0
127682,-93.4579439252336,6,1,2,100,0,0
127840,-100,6,1,0,100,0,0
128630,-95.2380952380952,6,1,2,100,0,0
128788,-100,6,1,0,100,0,0
129577,-97.5609756097561,6,1,2,100,0,0
129735,-100,6,1,0,100,0,0
130524,-100,6,1,2,100,0,0
130682,-100,6,1,0,100,0,0

[HitObjects]
256,512,1130,5,12,0:0:0:0:
256,512,1445,1,0,0:0:0:0:
256,512,1761,1,0,0:0:0:0:
256,512,2235,1,8,0:0:0:0:
256,512,2393,1,8,0:0:0:0:
256,512,2708,1,0,0:0:0:0:
256,512,2866,1,0,0:0:0:0:
256,512,3024,1,8,0:0:0:0:
256,512,3498,1,8,0:0:0:0:
256,512,3814,1,0,0:0:0:0:
256,512,3972,1,8,0:0:0:0:
256,512,4130,1,8,0:0:0:0:
256,512,4603,1,0,0:0:0:0:
256,512,4761,1,0,0:0:0:0:
256,512,4919,5,8,0:0:0:0:
256,512,5235,1,0,0:0:0:0:
256,512,5551,1,8,0:0:0:0:
256,512,6024,1,8,0:0:0:0:
256,512,6182,1,0,0:0:0:0:
256,512,6498,1,0,0:0:0:0:
256,512,6656,1,8,0:0:0:0:
256,512,6972,1,0,0:0:0:0:
256,512,7445,1,0,0:0:0:0:
256,512,7603,1,0,0:0:0:0:
256,512,7761,1,8,0:0:0:0:
256,512,8077,1,0,0:0:0:0:
256,512,8708,5,12,0:0:0:0:
256,512,9024,1,0,0:0:0:0:
256,512,9340,1,0,0:0:0:0:
256,512,9498,1,0,0:0:0:0:
256,512,9656,1,8,0:0:0:0:
256,512,9814,1,8,0:0:0:0:
256,512,9972,1,0,0:0:0:0:
256,512,10287,1,8,0:0:0:0:
256,512,10603,5,0,0:0:0:0:
256,512,10919,1,0,0:0:0:0:
256,512,11235,1,8,0:0:0:0:
256,512,11393,1,0,0:0:0:0:
256,512,11551,1,8,0:0:0:0:
256,512,11708,1,8,0:0:0:0:
256,512,11866,1,0,0:0:0:0:
256,512,12182,1,8,0:0:0:0:
256,512,12340,1,8,0:0:0:0:
256,512,12498,5,0,0:0:0:0:
256,512,12814,1,8,0:0:0:0:
256,512,13130,1,0,0:0:0:0:
256,512,13287,1,8,0:0:0:0:
256,512,13445,1,8,0:0:0:0:
256,512,13603,1,8,0:0:0:0:
256,512,13761,1,0,0:0:0:0:
256,512,14077,1,8,0:0:0:0:
256,512,14393,5,0,0:0:0:0:
256,512,14708,1,8,0:0:0:0:
256,512,14866,1,0,0:0:0:0:
256,512,15024,1,8,0:0:0:0:
256,512,15182,1,0,0:0:0:0:
256,512,15261,1,0,0:0:0:0:
256,512,15340,1,0,0:0:0:0:
256,512,15814,1,8,0:0:0:0:
256,512,16051,1,8,0:0:0:0:
256,512,16287,5,4,0:0:0:0:
256,512,17235,5,8,0:0:0:0:
256,512,18182,5,8,0:0:0:0:
256,512,18340,1,0,0:0:0:0:
256,512,18419,1,0,0:0:0:0:
256,512,18498,1,0,0:0:0:0:
256,512,19130,5,8,0:0:0:0:
256,512,19761,1,0,0:0:0:0:
256,512,20077,5,8,0:0:0:0:
256,512,20235,1,0,0:0:0:0:
256,512,20551,1,0,0:0:0:0:
256,512,20708,1,0,0:0:0:0:
256,512,21024,5,8,0:0:0:0:
256,512,21182,1,0,0:0:0:0:
256,512,21340,1,0,0:0:0:0:
256,512,21498,1,8,0:0:0:0:
256,512,21656,1,0,0:0:0:0:
256,512,21972,5,8,0:0:0:0:
256,512,22919,5,8,0:0:0:0:
256,512,23866,5,8,0:0:0:0:
256,512,24182,1,0,0:0:0:0:
256,512,24340,1,8,0:0:0:0:
256,512,24498,1,0,0:0:0:0:
256,512,24814,5,8,0:0:0:0:
256,512,25130,1,8,0:0:0:0:
256,512,25287,1,8,0:0:0:0:
256,512,25445,1,0,0:0:0:0:
256,512,25761,5,8,0:0:0:0:
256,512,26077,1,0,0:0:0:0:
256,512,26235,1,8,0:0:0:0:
256,512,26393,1,0,0:0:0:0:
256,512,26708,5,4,0:0:0:0:
256,512,27656,5,4,0:0:0:0:
256,512,27972,5,0,0:0:0:0:
256,512,28130,1,0,0:0:0:0:
256,512,28287,1,8,0:0:0:0:
256,512,28445,1,0,0:0:0:0:
256,512,28603,1,8,0:0:0:0:
256,512,28919,5,0,0:0:0:0:
256,512,29077,1,0,0:0:0:0:
256,512,29235,1,8,0:0:0:0:
256,512,29393,1,8,0:0:0:0:
256,512,29551,1,0,0:0:0:0:
256,512,30340,5,0,0:0:0:0:
256,512,30419,1,0,0:0:0:0:
256,512,30498,1,8,0:0:0:0:
256,512,30656,5,0,0:0:0:0:
256,512,30735,1,0,0:0:0:0:
256,512,30814,1,8,0:0:0:0:
256,512,30972,5,0,0:0:0:0:
256,512,31051,1,0,0:0:0:0:
256,512,31130,1,8,0:0:0:0:
256,512,31445,5,4,0:0:0:0:
256,512,31760,1,8,0:0:0:0:
256,512,31918,1,0,0:0:0:0:
256,512,32155,1,0,0:0:0:0:
256,512,32392,1,8,0:0:0:0:
256,512,33023,1,8,0:0:0:0:
256,512,33181,1,0,0:0:0:0:
256,512,33497,1,0,0:0:0:0:
256,512,33655,1,8,0:0:0:0:
256,512,33734,1,8,0:0:0:0:
256,512,33813,1,0,0:0:0:0:
256,512,33892,1,0,0:0:0:0:
256,512,33971,1,8,0:0:0:0:
256,512,34129,1,0,0:0:0:0:
256,512,34287,1,8,0:0:0:0:
256,512,34445,1,0,0:0:0:0:
256,512,34602,1,8,0:0:0:0:
256,512,34681,1,0,0:0:0:0:
256,512,34760,1,8,0:0:0:0:
256,512,34918,1,8,0:0:0:0:
256,512,35392,1,0,0:0:0:0:
256,512,35550,1,8,0:0:0:0:
256,512,35708,1,0,0:0:0:0:
256,512,36023,1,0,0:0:0:0:
256,512,36181,1,8,0:0:0:0:
256,512,36339,1,0,0:0:0:0:
256,512,36418,1,0,0:0:0:0:
256,512,36497,5,0,0:0:0:0:
256,512,36655,1,0,0:0:0:0:
256,512,36734,1,0,0:0:0:0:
256,512,36813,1,8,0:0:0:0:
256,512,36971,1,0,0:0:0:0:
256,512,37208,1,0,0:0:0:0:
256,512,37445,1,8,0:0:0:0:
256,512,38076,1,8,0:0:0:0:
256,512,38234,1,0,0:0:0:0:
256,512,38550,1,0,0:0:0:0:
256,512,38708,1,8,0:0:0:0:
256,512,38787,1,8,0:0:0:0:
256,512,38866,1,0,0:0:0:0:
256,512,38945,1,0,0:0:0:0:
256,512,39023,1,8,0:0:0:0:
256,512,39181,1,0,0:0:0:0:
256,512,39339,1,8,0:0:0:0:
256,512,39497,1,0,0:0:0:0:
256,512,39576,1,0,0:0:0:0:
256,512,39655,1,0,0:0:0:0:
256,512,39813,1,8,0:0:0:0:
256,512,39892,1,8,0:0:0:0:
256,512,39971,1,0,0:0:0:0:
256,512,40208,1,0,0:0:0:0:
256,512,40445,1,0,0:0:0:0:
256,512,40602,1,8,0:0:0:0:
256,512,40681,1,0,0:0:0:0:
256,512,40918,1,8,0:0:0:0:
256,512,41076,1,0,0:0:0:0:
256,512,41155,1,0,0:0:0:0:
256,512,41234,1,8,0:0:0:0:
256,512,41392,1,0,0:0:0:0:
256,512,41550,5,8,0:0:0:0:
256,512,41708,1,0,0:0:0:0:
256,512,41787,1,0,0:0:0:0:
256,512,41866,1,8,0:0:0:0:
256,512,42023,1,0,0:0:0:0:
256,512,42181,1,8,0:0:0:0:
256,512,42260,1,0,0:0:0:0:
256,512,42339,1,8,0:0:0:0:
256,512,42497,1,8,0:0:0:0:
256,512,43129,1,8,0:0:0:0:
256,512,43287,1,0,0:0:0:0:
256,512,43445,1,0,0:0:0:0:
256,512,43523,1,0,0:0:0:0:
256,512,43602,1,0,0:0:0:0:
256,512,43760,1,8,0:0:0:0:
256,512,43839,1,8,0:0:0:0:
256,512,43918,1,0,0:0:0:0:
256,512,43997,1,0,0:0:0:0:
256,512,44076,1,8,0:0:0:0:
256,512,44234,1,0,0:0:0:0:
256,512,44392,1,8,0:0:0:0:
256,512,44708,1,8,0:0:0:0:
256,512,44866,1,0,0:0:0:0:
256,512,45023,1,8,0:0:0:0:
256,512,45102,1,8,0:0:0:0:
256,512,45181,1,0,0:0:0:0:
256,512,45260,1,0,0:0:0:0:
256,512,45339,1,8,0:0:0:0:
256,512,45497,1,0,0:0:0:0:
256,512,45655,1,8,0:0:0:0:
256,512,45734,1,8,0:0:0:0:
256,512,45813,1,0,0:0:0:0:
256,512,45892,1,8,0:0:0:0:
256,512,45971,1,0,0:0:0:0:
256,512,46129,1,0,0:0:0:0:
256,512,46208,1,0,0:0:0:0:
256,512,46287,1,8,0:0:0:0:
256,512,46602,5,0,0:0:0:0:
256,512,46760,1,8,0:0:0:0:
256,512,46839,1,0,0:0:0:0:
256,512,46918,1,8,0:0:0:0:
256,512,47076,1,0,0:0:0:0:
256,512,47234,1,8,0:0:0:0:
256,512,47313,1,8,0:0:0:0:
256,512,47392,1,0,0:0:0:0:
256,512,47550,1,8,0:0:0:0:
256,512,48181,1,8,0:0:0:0:
256,512,48339,1,0,0:0:0:0:
256,512,48497,1,0,0:0:0:0:
256,512,48576,1,0,0:0:0:0:
256,512,48655,1,0,0:0:0:0:
256,512,48813,1,8,0:0:0:0:
256,512,48892,1,8,0:0:0:0:
256,512,48971,1,0,0:0:0:0:
256,512,49050,1,0,0:0:0:0:
256,512,49129,1,8,0:0:0:0:
256,512,49287,1,0,0:0:0:0:
256,512,49445,1,8,0:0:0:0:
256,512,49602,1,0,0:0:0:0:
256,512,49839,1,8,0:0:0:0:
256,512,50076,1,0,0:0:0:0:
256,512,50313,1,0,0:0:0:0:
256,512,50550,1,0,0:0:0:0:
256,512,50708,1,8,0:0:0:0:
256,512,50787,1,0,0:0:0:0:
256,512,51023,1,8,0:0:0:0:
256,512,51181,1,0,0:0:0:0:
256,512,51260,1,0,0:0:0:0:
256,512,51339,1,8,0:0:0:0:
256,512,51655,5,0,0:0:0:0:
256,512,51813,1,8,0:0:0:0:
256,512,51971,1,0,0:0:0:0:
256,512,52129,1,8,0:0:0:0:
256,512,52287,1,0,0:0:0:0:
256,512,52366,1,0,0:0:0:0:
256,512,52445,1,8,0:0:0:0:
256,512,52602,1,0,0:0:0:0:
256,512,52918,1,8,0:0:0:0:
256,512,52997,1,8,0:0:0:0:
256,512,53076,1,0,0:0:0:0:
256,512,53234,1,0,0:0:0:0:
256,512,53392,1,0,0:0:0:0:
256,512,53471,1,0,0:0:0:0:
256,512,53550,1,8,0:0:0:0:
256,512,53708,1,0,0:0:0:0:
256,512,53787,1,8,0:0:0:0:
256,512,53945,1,0,0:0:0:0:
256,512,54023,1,0,0:0:0:0:
256,512,54181,1,8,0:0:0:0:
256,512,54339,1,0,0:0:0:0:
256,512,54497,1,8,0:0:0:0:
256,512,54655,1,8,0:0:0:0:
256,512,54813,1,0,0:0:0:0:
256,512,55129,1,8,0:0:0:0:
256,512,55287,1,0,0:0:0:0:
256,512,55366,1,0,0:0:0:0:
256,512,55445,1,8,0:0:0:0:
256,512,55523,1,8,0:0:0:0:
256,512,55602,1,0,0:0:0:0:
256,512,55760,1,0,0:0:0:0:
256,512,55918,1,8,0:0:0:0:
256,512,56076,1,0,0:0:0:0:
256,512,56234,1,8,0:0:0:0:
256,512,56550,1,0,0:0:0:0:
256,512,56629,1,0,0:0:0:0:
256,512,56708,5,8,0:0:0:0:
256,512,56866,1,0,0:0:0:0:
256,512,57181,1,0,0:0:0:0:
256,512,57339,1,8,0:0:0:0:
256,512,57497,1,0,0:0:0:0:
256,512,57655,1,8,0:0:0:0:
256,512,57734,1,8,0:0:0:0:
256,512,57813,1,8,0:0:0:0:
256,512,57892,1,8,0:0:0:0:
256,512,57971,1,0,0:0:0:0:
256,512,58208,1,0,0:0:0:0:
256,512,58287,1,8,0:0:0:0:
256,512,58445,1,0,0:0:0:0:
256,512,58602,1,8,0:0:0:0:
256,512,58760,1,0,0:0:0:0:
256,512,58918,1,0,0:0:0:0:
256,512,58997,1,0,0:0:0:0:
256,512,59076,1,8,0:0:0:0:
256,512,59234,1,0,0:0:0:0:
256,512,59392,1,8,0:0:0:0:
256,512,59550,1,0,0:0:0:0:
256,512,59629,1,0,0:0:0:0:
256,512,59708,1,0,0:0:0:0:
256,512,59866,1,8,0:0:0:0:
256,512,60023,1,0,0:0:0:0:
256,512,60102,1,0,0:0:0:0:
256,512,60181,1,8,0:0:0:0:
256,512,60339,1,8,0:0:0:0:
256,512,60497,1,0,0:0:0:0:
256,512,60655,1,8,0:0:0:0:
256,512,60813,1,0,0:0:0:0:
256,512,60892,1,0,0:0:0:0:
256,512,60971,1,8,0:0:0:0:
256,512,61129,1,0,0:0:0:0:
256,512,61287,1,8,0:0:0:0:
256,512,61366,1,8,0:0:0:0:
256,512,61523,1,0,0:0:0:0:
256,512,61760,5,0,0:0:0:0:
256,512,61997,1,0,0:0:0:0:
256,512,62076,1,8,0:0:0:0:
256,512,62234,1,0,0:0:0:0:
256,512,62392,1,8,0:0:0:0:
256,512,62550,1,8,0:0:0:0:
256,512,62708,1,0,0:0:0:0:
256,512,62787,1,8,0:0:0:0:
256,512,62866,1,0,0:0:0:0:
256,512,62945,1,0,0:0:0:0:
256,512,63023,1,8,0:0:0:0:
256,512,63181,1,0,0:0:0:0:
256,512,63339,1,0,0:0:0:0:
256,512,63418,1,0,0:0:0:0:
256,512,63497,1,8,0:0:0:0:
256,512,63655,1,0,0:0:0:0:
256,512,63813,1,8,0:0:0:0:
256,512,63971,1,8,0:0:0:0:
256,512,64050,1,8,0:0:0:0:
256,512,64129,1,8,0:0:0:0:
256,512,64208,1,8,0:0:0:0:
256,512,64287,1,0,0:0:0:0:
256,512,64760,1,0,0:0:0:0:
256,512,64839,1,0,0:0:0:0:
256,512,64918,1,0,0:0:0:0:
256,512,65234,1,0,0:0:0:0:
256,512,65313,1,0,0:0:0:0:
256,512,65392,1,8,0:0:0:0:
256,512,65708,1,0,0:0:0:0:
256,512,66023,1,8,0:0:0:0:
256,512,66181,1,0,0:0:0:0:
256,512,66339,1,8,0:0:0:0:
256,512,66418,1,0,0:0:0:0:
256,512,66497,1,8,0:0:0:0:
256,512,66655,1,0,0:0:0:0:
256,512,66813,5,0,0:0:0:0:
256,512,66892,1,0,0:0:0:0:
256,512,66971,1,8,0:0:0:0:
256,512,67129,1,0,0:0:0:0:
256,512,67445,1,0,0:0:0:0:
256,512,67523,1,0,0:0:0:0:
256,512,67602,1,8,0:0:0:0:
256,512,67760,1,0,0:0:0:0:
256,512,67918,1,8,0:0:0:0:
256,512,68076,1,0,0:0:0:0:
256,512,68234,1,8,0:0:0:0:
256,512,68313,1,8,0:0:0:0:
256,512,68392,1,8,0:0:0:0:
256,512,68550,1,0,0:0:0:0:
256,512,68708,1,0,0:0:0:0:
256,512,68787,1,0,0:0:0:0:
256,512,68866,1,8,0:0:0:0:
256,512,69023,1,0,0:0:0:0:
256,512,69181,1,0,0:0:0:0:
256,512,69339,1,8,0:0:0:0:
256,512,69418,1,0,0:0:0:0:
256,512,69576,1,0,0:0:0:0:
256,512,69734,1,0,0:0:0:0:
256,512,69813,1,8,0:0:0:0:
256,512,69971,1,0,0:0:0:0:
256,512,70287,1,8,0:0:0:0:
256,512,70445,1,0,0:0:0:0:
256,512,70602,1,0,0:0:0:0:
256,512,70760,1,8,0:0:0:0:
256,512,70918,1,0,0:0:0:0:
256,512,71076,1,0,0:0:0:0:
256,512,71234,1,8,0:0:0:0:
256,512,71392,1,0,0:0:0:0:
256,512,71550,1,8,0:0:0:0:
256,512,71708,1,0,0:0:0:0:
256,512,71866,5,12,0:0:0:0:
256,512,72497,1,8,0:0:0:0:
256,512,72813,1,0,0:0:0:0:
256,512,73444,1,0,0:0:0:0:
256,512,73602,1,0,0:0:0:0:
256,512,73760,1,8,0:0:0:0:
256,512,73918,1,0,0:0:0:0:
256,512,74234,1,8,0:0:0:0:
256,512,74392,1,0,0:0:0:0:
256,512,74550,1,0,0:0:0:0:
256,512,74708,1,8,0:0:0:0:
256,512,74866,1,8,0:0:0:0:
256,512,75023,1,0,0:0:0:0:
256,512,75655,5,8,0:0:0:0:
256,512,75813,1,8,0:0:0:0:
256,512,75971,1,0,0:0:0:0:
256,512,76129,1,8,0:0:0:0:
256,512,76444,1,8,0:0:0:0:
256,512,76602,1,0,0:0:0:0:
256,512,76918,1,8,0:0:0:0:
256,512,77076,1,8,0:0:0:0:
256,512,77234,1,0,0:0:0:0:
256,512,77550,5,12,0:0:0:0:
256,512,77866,1,0,0:0:0:0:
256,512,78023,1,0,0:0:0:0:
256,512,78181,1,0,0:0:0:0:
256,512,78339,1,8,0:0:0:0:
256,512,78418,1,8,0:0:0:0:
256,512,78497,1,0,0:0:0:0:
256,512,78971,1,8,0:0:0:0:
256,512,79129,1,8,0:0:0:0:
256,512,79287,1,8,0:0:0:0:
256,512,79444,5,4,0:0:0:0:
256,512,79760,1,8,0:0:0:0:
256,512,80234,1,0,0:0:0:0:
256,512,80313,1,0,0:0:0:0:
256,512,80392,1,0,0:0:0:0:
256,512,80550,1,8,0:0:0:0:
256,512,80708,1,0,0:0:0:0:
256,512,81023,1,8,0:0:0:0:
256,512,81181,1,8,0:0:0:0:
256,512,81339,1,8,0:0:0:0:
256,512,81497,1,0,0:0:0:0:
256,512,81734,1,0,0:0:0:0:
256,512,81813,1,8,0:0:0:0:
256,512,82129,1,0,0:0:0:0:
256,512,82287,1,8,0:0:0:0:
256,512,82444,1,0,0:0:0:0:
256,512,82760,1,8,0:0:0:0:
256,512,82918,1,8,0:0:0:0:
256,512,83076,1,0,0:0:0:0:
256,512,83155,1,0,0:0:0:0:
256,512,83234,5,8,0:0:0:0:
256,512,83550,1,8,0:0:0:0:
256,512,84102,1,0,0:0:0:0:
256,512,84181,1,0,0:0:0:0:
256,512,84339,1,0,0:0:0:0:
256,512,84497,1,8,0:0:0:0:
256,512,84655,1,0,0:0:0:0:
256,512,84813,1,8,0:0:0:0:
256,512,84971,1,8,0:0:0:0:
256,512,85129,1,0,0:0:0:0:
256,512,85444,1,8,0:0:0:0:
256,512,85760,1,8,0:0:0:0:
256,512,86076,1,0,0:0:0:0:
256,512,86392,1,8,0:0:0:0:
256,512,86708,1,8,0:0:0:0:
256,512,86866,1,8,0:0:0:0:
256,512,87023,5,0,0:0:0:0:
256,512,87339,1,8,0:0:0:0:
256,512,87497,1,0,0:0:0:0:
256,512,87655,1,8,0:0:0:0:
256,512,87971,1,0,0:0:0:0:
256,512,88287,1,8,0:0:0:0:
256,512,88444,1,8,0:0:0:0:
256,512,88602,1,0,0:0:0:0:
256,512,88918,1,0,0:0:0:0:
256,512,89234,1,8,0:0:0:0:
256,512,89392,1,0,0:0:0:0:
256,512,89550,1,8,0:0:0:0:
256,512,89866,1,12,0:0:0:0:
256,512,90339,1,8,0:0:0:0:
256,512,90576,1,8,0:0:0:0:
256,512,90813,5,4,0:0:0:0:
256,512,91129,1,0,0:0:0:0:
256,512,91287,1,8,0:0:0:0:
256,512,91444,1,0,0:0:0:0:
256,512,91602,1,0,0:0:0:0:
256,512,91760,1,8,0:0:0:0:
256,512,91918,1,0,0:0:0:0:
256,512,91997,1,0,0:0:0:0:
256,512,92076,1,0,0:0:0:0:
256,512,92392,1,0,0:0:0:0:
256,512,92471,1,0,0:0:0:0:
256,512,92550,1,8,0:0:0:0:
256,512,92708,1,8,0:0:0:0:
256,512,92866,1,0,0:0:0:0:
256,512,93023,1,8,0:0:0:0:
256,512,93181,1,8,0:0:0:0:
256,512,93339,1,0,0:0:0:0:
256,512,93655,6,0,B|295:191|295:191|256:512,1,77.7000018969727
256,512,93971,5,8,0:0:0:0:
256,512,94129,1,8,0:0:0:0:
256,512,94287,1,8,0:0:0:0:
256,512,94444,1,8,0:0:0:0:
256,512,94602,5,4,0:0:0:0:
256,512,94918,1,0,0:0:0:0:
256,512,95076,1,8,0:0:0:0:
256,512,95234,1,0,0:0:0:0:
256,512,95392,1,0,0:0:0:0:
256,512,95550,1,8,0:0:0:0:
256,512,95629,1,0,0:0:0:0:
256,512,95708,1,0,0:0:0:0:
256,512,95866,1,8,0:0:0:0:
256,512,95944,1,8,0:0:0:0:
256,512,96023,1,0,0:0:0:0:
256,512,96181,1,8,0:0:0:0:
256,512,96497,1,8,0:0:0:0:
256,512,96655,1,0,0:0:0:0:
256,512,96813,1,0,0:0:0:0:
256,512,96971,1,8,0:0:0:0:
256,512,97287,1,0,0:0:0:0:
256,512,97444,1,8,0:0:0:0:
256,512,97602,1,0,0:0:0:0:
256,512,97760,1,0,0:0:0:0:
256,512,97918,1,8,0:0:0:0:
256,512,97997,1,8,0:0:0:0:
256,512,98076,1,0,0:0:0:0:
256,512,98155,1,0,0:0:0:0:
256,512,98234,1,8,0:0:0:0:
256,512,98392,1,0,0:0:0:0:
256,512,98708,1,0,0:0:0:0:
256,512,98866,1,8,0:0:0:0:
256,512,99023,1,0,0:0:0:0:
256,512,99339,1,8,0:0:0:0:
256,512,99497,1,8,0:0:0:0:
256,512,99655,1,0,0:0:0:0:
256,512,99734,1,0,0:0:0:0:
256,512,99813,1,0,0:0:0:0:
256,512,99971,1,8,0:0:0:0:
256,512,100050,1,0,0:0:0:0:
256,512,100129,1,0,0:0:0:0:
256,512,100287,1,0,0:0:0:0:
256,512,100602,1,8,0:0:0:0:
256,512,100760,1,0,0:0:0:0:
256,512,100918,1,8,0:0:0:0:
256,512,101076,1,8,0:0:0:0:
256,512,101234,1,0,0:0:0:0:
256,512,101392,1,8,0:0:0:0:
256,512,101471,1,8,0:0:0:0:
256,512,101550,1,8,0:0:0:0:
256,512,101708,1,0,0:0:0:0:
256,512,101866,1,8,0:0:0:0:
256,512,101944,1,8,0:0:0:0:
256,512,102023,1,0,0:0:0:0:
256,512,102181,5,8,0:0:0:0:
256,512,102497,1,0,0:0:0:0:
256,512,102655,1,8,0:0:0:0:
256,512,102813,1,0,0:0:0:0:
256,512,102892,1,0,0:0:0:0:
256,512,102971,1,0,0:0:0:0:
256,512,103129,1,8,0:0:0:0:
256,512,103208,1,0,0:0:0:0:
256,512,103287,1,0,0:0:0:0:
256,512,103444,1,8,0:0:0:0:
256,512,103523,1,8,0:0:0:0:
256,512,103602,1,0,0:0:0:0:
256,512,103760,1,8,0:0:0:0:
256,512,103918,1,0,0:0:0:0:
256,512,104076,1,8,0:0:0:0:
256,512,104392,1,8,0:0:0:0:
256,512,104550,1,0,0:0:0:0:
256,512,104708,1,0,0:0:0:0:
256,512,104866,1,8,0:0:0:0:
256,512,105023,1,8,0:0:0:0:
256,512,105181,1,0,0:0:0:0:
256,512,105260,1,0,0:0:0:0:
256,512,105339,1,8,0:0:0:0:
256,512,105418,1,8,0:0:0:0:
256,512,105497,1,0,0:0:0:0:
256,512,105655,1,8,0:0:0:0:
256,512,105813,1,0,0:0:0:0:
256,512,105971,1,8,0:0:0:0:
256,512,106050,1,8,0:0:0:0:
256,512,106129,1,0,0:0:0:0:
256,512,106287,1,0,0:0:0:0:
256,512,106444,1,8,0:0:0:0:
256,512,106523,1,0,0:0:0:0:
256,512,106602,1,0,0:0:0:0:
256,512,106760,1,8,0:0:0:0:
256,512,106918,1,8,0:0:0:0:
256,512,106997,1,8,0:0:0:0:
256,512,107076,1,0,0:0:0:0:
256,512,107234,1,8,0:0:0:0:
256,512,107313,1,0,0:0:0:0:
256,512,107392,1,0,0:0:0:0:
256,512,107550,1,0,0:0:0:0:
256,512,107708,1,8,0:0:0:0:
256,512,107866,1,4,0:0:0:0:
256,512,108339,1,4,0:0:0:0:
256,512,108813,1,12,0:0:0:0:
256,512,109129,1,4,0:0:0:0:
256,512,109444,1,8,0:0:0:0:
256,512,109760,5,4,0:0:0:0:
256,512,110234,1,0,0:0:0:0:
256,512,110708,1,8,0:0:0:0:
256,512,111023,1,0,0:0:0:0:
256,512,111339,1,0,0:0:0:0:
256,512,111497,1,8,0:0:0:0:
256,512,111655,1,0,0:0:0:0:
256,512,111813,1,8,0:0:0:0:
256,512,111892,1,8,0:0:0:0:
256,512,111971,1,8,0:0:0:0:
256,512,112129,1,0,0:0:0:0:
256,512,112602,1,8,0:0:0:0:
256,512,112918,1,0,0:0:0:0:
256,512,113076,1,0,0:0:0:0:
256,512,113234,1,8,0:0:0:0:
256,512,113550,5,4,0:0:0:0:
256,512,113866,1,12,0:0:0:0:
256,512,114181,1,4,0:0:0:0:
256,512,114497,1,12,0:0:0:0:
256,512,114813,1,4,0:0:0:0:
256,512,115129,1,4,0:0:0:0:
256,512,115444,1,12,0:0:0:0:
256,512,115918,1,0,0:0:0:0:
256,512,116076,1,8,0:0:0:0:
256,512,116155,1,8,0:0:0:0:
256,512,116234,1,0,0:0:0:0:
256,512,116392,1,8,0:0:0:0:
256,512,116629,1,8,0:0:0:0:
256,512,116866,1,8,0:0:0:0:
256,512,117102,1,8,0:0:0:0:
256,512,117339,5,12,0:0:0:0:
256,512,117655,1,0,0:0:0:0:
256,512,117813,1,0,0:0:0:0:
256,512,117971,1,8,0:0:0:0:
256,512,118050,1,8,0:0:0:0:
256,512,118129,1,0,0:0:0:0:
256,512,118287,1,8,0:0:0:0:
256,512,118366,1,0,0:0:0:0:
256,512,118444,1,0,0:0:0:0:
256,512,118602,1,0,0:0:0:0:
256,512,118760,1,0,0:0:0:0:
256,512,118918,1,8,0:0:0:0:
256,512,118997,1,8,0:0:0:0:
256,512,119076,1,0,0:0:0:0:
256,512,119234,1,0,0:0:0:0:
256,512,119392,1,0,0:0:0:0:
256,512,119550,1,8,0:0:0:0:
256,512,119629,1,0,0:0:0:0:
256,512,119708,1,0,0:0:0:0:
256,512,119866,1,8,0:0:0:0:
256,512,120023,1,0,0:0:0:0:
256,512,120102,1,0,0:0:0:0:
256,512,120181,1,8,0:0:0:0:
256,512,120339,1,8,0:0:0:0:
256,512,120497,1,0,0:0:0:0:
256,512,120576,1,0,0:0:0:0:
256,512,120655,1,8,0:0:0:0:
256,512,120734,1,0,0:0:0:0:
256,512,120813,1,8,0:0:0:0:
256,512,120971,1,8,0:0:0:0:
256,512,121129,5,4,0:0:0:0:
256,512,121602,1,4,0:0:0:0:
256,512,122076,1,12,0:0:0:0:
256,512,122392,1,8,0:0:0:0:
256,512,122550,1,0,0:0:0:0:
256,512,122708,1,8,0:0:0:0:
256,512,122866,1,0,0:0:0:0:
256,512,122944,1,0,0:0:0:0:
256,512,123023,1,8,0:0:0:0:
256,512,123339,1,0,0:0:0:0:
256,512,123655,1,0,0:0:0:0:
256,512,123971,1,12,0:0:0:0:
256,512,124129,1,0,0:0:0:0:
256,512,124602,1,0,0:0:0:0:
256,512,124681,1,0,0:0:0:0:
256,512,124760,1,0,0:0:0:0:
256,512,124839,1,0,0:0:0:0:
256,512,124918,5,8,0:0:0:0:
256,512,125866,5,8,0:0:0:0:
256,512,126813,5,8,0:0:0:0:
256,512,127760,5,8,0:0:0:0:
256,512,128708,5,8,0:0:0:0:
256,512,129655,5,8,0:0:0:0:
256,512,130602,5,8,0:0:0:0:
256,512,131550,5,4,0:0:0:0:
