osu file format v14

[General]
AudioFilename: audio.mp3
AudioLeadIn: 0
PreviewTime: 77550
Countdown: 0
SampleSet: Normal
StackLeniency: 0.7
Mode: 1
LetterboxInBreaks: 0
WidescreenStoryboard: 1

[Editor]
Bookmarks: 31445,51340,71866,83551,94603,109761
DistanceSpacing: 0.2
BeatDivisor: 6
GridSize: 32
TimelineZoom: 2.6

[Metadata]
Title:neo kosmo
TitleUnicode:nέο κόsmo
Artist:ak+q x Street
ArtistUnicode:ak+q × Street
Creator:Shinsekai-
Version:davidminh's Future
Source:Arcaea
Tags:[_Chichinya_] PhoeNiiXZ chichinya yenmaster Peaceful Ph0eNiiXZ davidminh0111 Faputa nintendo switch lowiro shirahime divided heart new world electronic instrumental neurofunk artcore video game videogame
BeatmapID:3086716
BeatmapSetID:1492497

[Difficulty]
HPDrainRate:6
CircleSize:2
OverallDifficulty:5
ApproachRate:10
SliderMultiplier:1.4
SliderTickRate:1

[Events]
//Background and Video events
0,0,"Arcaea.full.2811174.jpg",0,90
//Break Periods
//Storyboard Layer 0 (Background)
//Storyboard Layer 1 (Fail)
//Storyboard Layer 2 (Pass)
//Storyboard Layer 3 (Foreground)
//Storyboard Layer 4 (Overlay)
//Storyboard Sound Samples

[TimingPoints]
1130,315.789473684211,6,1,2,100,1,0
1287,-125,6,1,0,40,0,0
8314,-120,6,1,0,40,0,0
8472,-115.384615384615,6,1,0,40,0,0
8630,-111.111111111111,6,1,2,100,0,0
8945,-111.111111111111,6,1,0,50,0,0
16208,-90.9090909090909,6,1,2,100,0,0
16366,-125,6,1,2,50,0,0
21103,-125,6,1,0,50,0,0
21893,-125,6,1,2,50,0,0
24419,-125,6,1,0,50,0,0
24735,-125,6,1,2,50,0,0
25208,-125,6,1,0,50,0,0
25682,-125,6,1,2,50,0,0
26630,-125,6,1,0,90,0,0
27577,-100,6,1,2,100,0,0
27735,-125,6,1,0,50,0,0
28524,-125,6,1,2,50,0,0
28682,-125,6,1,0,50,0,0
29472,-125,6,1,2,50,0,0
29630,-125,6,1,0,50,0,0
29866,-125,6,1,0,10,0,0
30301,-100,6,1,0,15,0,0
30380,-100,6,1,0,20,0,0
30458,-100,6,1,0,25,0,0
30537,-100,6,1,0,30,0,0
30616,-100,6,1,0,35,0,0
30695,-100,6,1,0,40,0,0
30774,-100,6,1,0,45,0,0
30853,-100,6,1,0,50,0,0
30932,-100,6,1,0,55,0,0
31011,-100,6,1,0,65,0,0
31090,-100,6,1,0,70,0,0
31445,315.789473684211,4,1,0,90,1,0
64287,-111.111111111111,4,1,0,70,0,0
66023,-100,4,1,0,90,0,0
71866,315.789473684211,6,1,2,100,1,0
72102,-125,6,1,0,40,0,0
77234,-120,6,1,0,40,0,0
77392,-115.384615384615,6,1,0,40,0,0
77550,-111.111111111111,6,1,3,60,0,0
77629,-100,6,1,0,50,0,0
79366,-100,6,1,2,75,0,0
79523,-111.111111111111,6,1,0,60,0,0
90735,-100,6,1,2,100,0,0
90893,-111.111111111111,6,1,0,60,0,0
93655,-100,6,1,0,40,0,0
93892,-99.009900990099,6,1,0,80,0,0
94050,-98.0392156862745,6,1,0,85,0,0
94208,-97.0873786407767,6,1,0,90,0,0
94366,-96.1538461538461,6,1,0,95,0,0
94602,-95.2380952380952,6,1,0,100,0,1
109681,-95.2380952380952,6,1,2,100,0,1
109760,-100,6,1,2,100,0,0
109839,-100,6,1,0,90,0,0
115366,-100,6,1,2,100,0,0
115523,-100,6,1,0,90,0,0
117339,-100,6,1,0,100,0,1
124839,-100,6,1,2,100,0,1
124918,-100,6,1,2,100,0,0
124997,-111.111111111111,6,1,0,60,0,0
125787,-111.111111111111,6,1,2,60,0,0
125945,-111.111111111111,6,1,0,60,0,0
126735,-111.111111111111,6,1,2,60,0,0
126893,-111.111111111111,6,1,0,60,0,0
127682,-111.111111111111,6,1,2,60,0,0
127840,-111.111111111111,6,1,0,60,0,0
128630,-111.111111111111,6,1,2,60,0,0
128788,-111.111111111111,6,1,0,60,0,0
129577,-111.111111111111,6,1,2,60,0,0
129735,-111.111111111111,6,1,0,60,0,0
130524,-111.111111111111,6,1,2,60,0,0
130682,-111.111111111111,6,1,0,60,0,0

[HitObjects]
256,192,1130,5,4,0:0:0:0:
256,192,1761,1,8,0:0:0:0:
256,192,2708,1,0,0:0:0:0:
256,192,2866,1,0,0:0:0:0:
256,192,3024,1,8,0:0:0:0:
256,192,3498,1,0,0:0:0:0:
256,192,3814,1,0,0:0:0:0:
256,192,3972,1,8,0:0:0:0:
256,192,4130,1,8,0:0:0:0:
256,192,4287,1,0,0:0:0:0:
256,192,4603,1,0,0:0:0:0:
256,192,4761,1,0,0:0:0:0:
256,192,4919,1,8,0:0:0:0:
256,192,5235,1,0,0:0:0:0:
256,192,5393,1,0,0:0:0:0:
256,192,5551,1,8,0:0:0:0:
256,192,5708,1,8,0:0:0:0:
256,192,5866,1,0,0:0:0:0:
256,192,6498,1,0,0:0:0:0:
256,192,6656,1,0,0:0:0:0:
256,192,6814,1,8,0:0:0:0:
256,192,7287,1,0,0:0:0:0:
256,192,7603,1,0,0:0:0:0:
256,192,7761,1,0,0:0:0:0:
256,192,7919,1,8,0:0:0:0:
256,192,8077,1,8,0:0:0:0:
256,192,8393,1,8,0:0:0:0:
256,192,8551,1,8,0:0:0:0:
256,192,8708,1,4,0:0:0:0:
256,192,9182,1,0,0:0:0:0:
256,192,9498,1,0,0:0:0:0:
256,192,9656,1,8,0:0:0:0:
256,192,9814,1,8,0:0:0:0:
256,192,9972,1,8,0:0:0:0:
256,192,10130,1,0,0:0:0:0:
256,192,10445,1,0,0:0:0:0:
256,192,10603,1,8,0:0:0:0:
256,192,10919,1,8,0:0:0:0:
256,192,11077,1,8,0:0:0:0:
256,192,11393,1,0,0:0:0:0:
256,192,11551,1,8,0:0:0:0:
256,192,11708,1,0,0:0:0:0:
256,192,11866,1,8,0:0:0:0:
256,192,12182,1,0,0:0:0:0:
256,192,12340,1,8,0:0:0:0:
256,192,12498,1,0,0:0:0:0:
256,192,12972,1,0,0:0:0:0:
256,192,13287,1,0,0:0:0:0:
256,192,13445,1,8,0:0:0:0:
256,192,13603,1,8,0:0:0:0:
256,192,13761,1,8,0:0:0:0:
256,192,13919,1,0,0:0:0:0:
256,192,14235,1,8,0:0:0:0:
256,192,14393,1,0,0:0:0:0:
256,192,14708,1,8,0:0:0:0:
256,192,15340,1,0,0:0:0:0:
256,192,16287,1,4,0:0:0:0:
256,192,17235,1,8,0:0:0:0:
256,192,17551,1,0,0:0:0:0:
256,192,17866,1,0,0:0:0:0:
256,192,18182,1,8,0:0:0:0:
256,192,18498,1,0,0:0:0:0:
256,192,19130,1,8,0:0:0:0:
256,192,19761,1,0,0:0:0:0:
256,192,20077,1,8,0:0:0:0:
256,192,20708,1,0,0:0:0:0:
256,192,20866,1,0,0:0:0:0:
256,192,21024,1,8,0:0:0:0:
256,192,21182,1,0,0:0:0:0:
256,192,21340,1,0,0:0:0:0:
256,192,21498,1,8,0:0:0:0:
256,192,21656,1,8,0:0:0:0:
256,192,21972,1,8,0:0:0:0:
256,192,22919,1,8,0:0:0:0:
256,192,23866,1,8,0:0:0:0:
256,192,24182,1,0,0:0:0:0:
256,192,24340,1,0,0:0:0:0:
256,192,24498,1,8,0:0:0:0:
256,192,24656,1,0,0:0:0:0:
256,192,24814,1,8,0:0:0:0:
256,192,25130,1,0,0:0:0:0:
256,192,25287,1,8,0:0:0:0:
256,192,25445,1,0,0:0:0:0:
256,192,25603,1,8,0:0:0:0:
256,192,25761,1,8,0:0:0:0:
256,192,26077,1,0,0:0:0:0:
256,192,26235,1,0,0:0:0:0:
256,192,26393,1,0,0:0:0:0:
256,192,26551,1,0,0:0:0:0:
256,192,26708,1,8,0:0:0:0:
256,192,27656,1,4,0:0:0:0:
256,192,27972,1,0,0:0:0:0:
256,192,28130,1,0,0:0:0:0:
256,192,28287,1,8,0:0:0:0:
256,192,28445,1,0,0:0:0:0:
256,192,28603,1,8,0:0:0:0:
256,192,28919,1,8,0:0:0:0:
256,192,29077,1,0,0:0:0:0:
256,192,29235,1,8,0:0:0:0:
256,192,29393,1,0,0:0:0:0:
256,192,29551,1,8,0:0:0:0:
256,192,29866,12,0,31130,0:0:0:0:
256,192,31445,5,4,0:0:0:0:
256,192,31760,1,8,0:0:0:0:
256,192,31918,1,0,0:0:0:0:
256,192,32155,1,0,0:0:0:0:
256,192,32392,1,8,0:0:0:0:
256,192,33023,1,8,0:0:0:0:
256,192,33181,1,0,0:0:0:0:
256,192,33497,1,0,0:0:0:0:
256,192,33655,1,8,0:0:0:0:
256,192,33813,1,8,0:0:0:0:
256,192,33892,1,8,0:0:0:0:
256,192,33971,1,8,0:0:0:0:
256,192,34129,1,0,0:0:0:0:
256,192,34287,1,8,0:0:0:0:
256,192,34445,1,0,0:0:0:0:
256,192,34760,1,0,0:0:0:0:
256,192,34918,1,8,0:0:0:0:
256,192,35392,1,0,0:0:0:0:
256,192,35550,1,8,0:0:0:0:
256,192,35708,1,0,0:0:0:0:
256,192,36023,1,0,0:0:0:0:
256,192,36181,1,8,0:0:0:0:
256,192,36339,1,0,0:0:0:0:
256,192,36497,1,0,0:0:0:0:
256,192,36813,1,8,0:0:0:0:
256,192,36971,1,0,0:0:0:0:
256,192,37208,1,0,0:0:0:0:
256,192,37445,1,8,0:0:0:0:
256,192,38076,1,8,0:0:0:0:
256,192,38234,1,0,0:0:0:0:
256,192,38550,1,0,0:0:0:0:
256,192,38708,1,8,0:0:0:0:
256,192,38866,1,8,0:0:0:0:
256,192,38945,1,8,0:0:0:0:
256,192,39023,1,8,0:0:0:0:
256,192,39181,1,0,0:0:0:0:
256,192,39339,1,8,0:0:0:0:
256,192,39497,1,0,0:0:0:0:
256,192,39734,1,0,0:0:0:0:
256,192,39971,1,0,0:0:0:0:
256,192,40208,1,0,0:0:0:0:
256,192,40445,1,0,0:0:0:0:
256,192,40681,1,0,0:0:0:0:
256,192,40918,1,8,0:0:0:0:
256,192,41076,1,8,0:0:0:0:
256,192,41155,1,8,0:0:0:0:
256,192,41234,1,8,0:0:0:0:
256,192,41392,1,8,0:0:0:0:
256,192,41550,1,0,0:0:0:0:
256,192,41787,1,0,0:0:0:0:
256,192,41866,1,8,0:0:0:0:
256,192,42023,1,0,0:0:0:0:
256,192,42260,1,0,0:0:0:0:
256,192,42497,1,8,0:0:0:0:
256,192,43129,1,8,0:0:0:0:
256,192,43287,1,0,0:0:0:0:
256,192,43602,1,0,0:0:0:0:
256,192,43760,1,8,0:0:0:0:
256,192,43918,1,8,0:0:0:0:
256,192,43997,1,8,0:0:0:0:
256,192,44076,1,8,0:0:0:0:
256,192,44234,1,0,0:0:0:0:
256,192,44392,1,8,0:0:0:0:
256,192,44550,1,0,0:0:0:0:
256,192,44866,1,0,0:0:0:0:
256,192,45023,1,8,0:0:0:0:
256,192,45181,1,0,0:0:0:0:
256,192,45260,1,0,0:0:0:0:
256,192,45497,1,0,0:0:0:0:
256,192,45655,1,8,0:0:0:0:
256,192,45813,1,0,0:0:0:0:
256,192,45971,1,0,0:0:0:0:
256,192,46129,1,8,0:0:0:0:
256,192,46208,1,8,0:0:0:0:
256,192,46287,1,8,0:0:0:0:
256,192,46445,1,8,0:0:0:0:
256,192,46602,1,0,0:0:0:0:
256,192,46839,1,0,0:0:0:0:
256,192,46918,1,8,0:0:0:0:
256,192,47076,1,0,0:0:0:0:
256,192,47313,1,0,0:0:0:0:
256,192,47550,1,8,0:0:0:0:
256,192,48181,1,8,0:0:0:0:
256,192,48339,1,0,0:0:0:0:
256,192,48655,1,0,0:0:0:0:
256,192,48813,1,8,0:0:0:0:
256,192,48971,1,8,0:0:0:0:
256,192,49050,1,8,0:0:0:0:
256,192,49129,1,8,0:0:0:0:
256,192,49287,1,0,0:0:0:0:
256,192,49445,1,8,0:0:0:0:
256,192,49602,1,0,0:0:0:0:
256,192,49839,1,0,0:0:0:0:
256,192,50076,1,0,0:0:0:0:
256,192,50313,1,0,0:0:0:0:
256,192,50550,1,0,0:0:0:0:
256,192,50787,1,0,0:0:0:0:
256,192,51023,1,0,0:0:0:0:
256,192,51181,1,8,0:0:0:0:
256,192,51260,1,8,0:0:0:0:
256,192,51339,1,8,0:0:0:0:
256,192,51497,1,8,0:0:0:0:
256,192,51655,1,0,0:0:0:0:
256,192,51971,1,8,0:0:0:0:
256,192,52129,1,0,0:0:0:0:
256,192,52287,1,0,0:0:0:0:
256,192,52445,1,8,0:0:0:0:
256,192,52602,1,0,0:0:0:0:
256,192,52760,1,0,0:0:0:0:
256,192,52918,1,8,0:0:0:0:
256,192,53076,1,0,0:0:0:0:
256,192,53234,1,0,0:0:0:0:
256,192,53471,1,0,0:0:0:0:
256,192,53550,1,8,0:0:0:0:
256,192,53787,1,0,0:0:0:0:
256,192,54023,1,0,0:0:0:0:
256,192,54181,1,8,0:0:0:0:
256,192,54339,1,0,0:0:0:0:
256,192,54497,1,8,0:0:0:0:
256,192,55129,1,8,0:0:0:0:
256,192,55287,1,0,0:0:0:0:
256,192,55523,1,0,0:0:0:0:
256,192,55760,1,0,0:0:0:0:
256,192,55918,1,8,0:0:0:0:
256,192,56076,1,0,0:0:0:0:
256,192,56234,1,8,0:0:0:0:
256,192,56392,1,0,0:0:0:0:
256,192,56708,1,8,0:0:0:0:
256,192,56866,1,0,0:0:0:0:
256,192,57181,1,0,0:0:0:0:
256,192,57339,1,0,0:0:0:0:
256,192,57971,1,0,0:0:0:0:
256,192,58287,1,8,0:0:0:0:
256,192,58445,1,0,0:0:0:0:
256,192,58602,1,8,0:0:0:0:
256,192,58760,1,0,0:0:0:0:
256,192,58918,1,0,0:0:0:0:
256,192,59076,1,8,0:0:0:0:
256,192,59234,1,0,0:0:0:0:
256,192,59392,1,8,0:0:0:0:
256,192,59550,1,0,0:0:0:0:
256,192,59866,1,8,0:0:0:0:
256,192,60023,1,0,0:0:0:0:
256,192,60102,1,0,0:0:0:0:
256,192,60339,1,8,0:0:0:0:
256,192,60497,1,0,0:0:0:0:
256,192,60655,1,8,0:0:0:0:
256,192,60813,1,8,0:0:0:0:
256,192,60892,1,8,0:0:0:0:
256,192,60971,1,8,0:0:0:0:
256,192,61129,1,0,0:0:0:0:
256,192,61287,1,8,0:0:0:0:
256,192,61523,1,0,0:0:0:0:
256,192,61760,1,0,0:0:0:0:
256,192,61997,1,8,0:0:0:0:
256,192,62234,1,0,0:0:0:0:
256,192,62392,1,8,0:0:0:0:
256,192,62550,1,8,0:0:0:0:
256,192,62708,1,0,0:0:0:0:
256,192,63023,1,8,0:0:0:0:
256,192,63181,1,0,0:0:0:0:
256,192,63497,1,8,0:0:0:0:
256,192,63655,1,0,0:0:0:0:
256,192,64287,1,0,0:0:0:0:
256,192,64760,1,0,0:0:0:0:
256,192,65234,1,0,0:0:0:0:
256,192,65392,1,8,0:0:0:0:
256,192,65708,1,0,0:0:0:0:
256,192,66023,1,8,0:0:0:0:
256,192,66181,1,0,0:0:0:0:
256,192,66339,1,0,0:0:0:0:
256,192,66497,1,8,0:0:0:0:
256,192,66655,1,0,0:0:0:0:
256,192,66971,1,8,0:0:0:0:
256,192,67445,1,0,0:0:0:0:
256,192,67602,1,8,0:0:0:0:
256,192,67760,1,0,0:0:0:0:
256,192,67918,1,8,0:0:0:0:
256,192,68076,1,0,0:0:0:0:
256,192,68234,1,8,0:0:0:0:
256,192,68313,1,8,0:0:0:0:
256,192,68392,1,8,0:0:0:0:
256,192,68550,1,0,0:0:0:0:
256,192,68866,1,8,0:0:0:0:
256,192,69023,1,0,0:0:0:0:
256,192,69181,1,0,0:0:0:0:
256,192,69339,1,8,0:0:0:0:
256,192,69418,1,8,0:0:0:0:
256,192,69576,1,0,0:0:0:0:
256,192,69734,1,8,0:0:0:0:
256,192,69813,1,8,0:0:0:0:
256,192,69971,1,0,0:0:0:0:
256,192,70287,1,8,0:0:0:0:
256,192,70445,1,0,0:0:0:0:
256,192,70760,1,8,0:0:0:0:
256,192,70918,1,0,0:0:0:0:
256,192,71076,1,0,0:0:0:0:
256,192,71234,1,8,0:0:0:0:
256,192,71392,1,0,0:0:0:0:
256,192,71550,1,8,0:0:0:0:
256,192,71708,1,0,0:0:0:0:
256,192,71866,1,4,0:0:0:0:
256,192,72497,1,8,0:0:0:0:
256,192,72813,1,0,0:0:0:0:
256,192,73444,1,0,0:0:0:0:
256,192,73602,1,8,0:0:0:0:
256,192,73760,1,8,0:0:0:0:
256,192,74076,1,0,0:0:0:0:
256,192,74234,1,8,0:0:0:0:
256,192,74550,1,0,0:0:0:0:
256,192,74708,1,8,0:0:0:0:
256,192,74866,1,8,0:0:0:0:
256,192,75023,1,0,0:0:0:0:
256,192,75655,1,0,0:0:0:0:
256,192,75971,1,0,0:0:0:0:
256,192,76129,1,8,0:0:0:0:
256,192,76287,1,0,0:0:0:0:
256,192,76444,1,8,0:0:0:0:
256,192,76602,1,8,0:0:0:0:
256,192,77076,1,8,0:0:0:0:
256,192,77234,1,0,0:0:0:0:
256,192,77392,1,0,0:0:0:0:
256,192,77550,1,4,0:0:0:0:
256,192,77866,1,0,0:0:0:0:
256,192,78023,1,8,0:0:0:0:
256,192,78181,1,0,0:0:0:0:
256,192,78339,1,8,0:0:0:0:
256,192,78418,1,8,0:0:0:0:
256,192,78497,1,8,0:0:0:0:
256,192,79444,1,4,0:0:0:0:
256,192,79760,1,8,0:0:0:0:
256,192,80234,1,8,0:0:0:0:
256,192,80313,1,8,0:0:0:0:
256,192,80392,1,8,0:0:0:0:
256,192,80550,1,8,0:0:0:0:
256,192,80708,1,0,0:0:0:0:
256,192,81023,1,0,0:0:0:0:
256,192,81181,1,8,0:0:0:0:
256,192,81339,1,8,0:0:0:0:
256,192,81497,1,0,0:0:0:0:
256,192,81813,1,0,0:0:0:0:
256,192,82129,1,0,0:0:0:0:
256,192,82287,1,8,0:0:0:0:
256,192,82602,1,0,0:0:0:0:
256,192,82997,1,8,0:0:0:0:
256,192,83076,1,8,0:0:0:0:
256,192,83155,1,8,0:0:0:0:
256,192,83550,1,8,0:0:0:0:
256,192,84102,1,8,0:0:0:0:
256,192,84181,1,8,0:0:0:0:
256,192,84339,1,8,0:0:0:0:
256,192,84497,1,0,0:0:0:0:
256,192,84655,1,0,0:0:0:0:
256,192,84813,1,8,0:0:0:0:
256,192,85287,1,8,0:0:0:0:
256,192,85760,1,0,0:0:0:0:
256,192,86076,1,8,0:0:0:0:
256,192,86708,1,8,0:0:0:0:
256,192,87023,1,8,0:0:0:0:
256,192,87444,1,8,0:0:0:0:
256,192,87971,1,8,0:0:0:0:
256,192,88129,1,8,0:0:0:0:
256,192,88287,1,0,0:0:0:0:
256,192,88602,1,8,0:0:0:0:
256,192,88760,1,0,0:0:0:0:
256,192,88918,1,0,0:0:0:0:
256,192,89076,1,8,0:0:0:0:
256,192,89234,1,8,0:0:0:0:
256,192,89550,1,8,0:0:0:0:
256,192,89708,1,8,0:0:0:0:
256,192,89866,1,0,0:0:0:0:
256,192,90813,1,4,0:0:0:0:
256,192,91129,1,0,0:0:0:0:
256,192,91287,1,0,0:0:0:0:
256,192,91444,1,8,0:0:0:0:
256,192,91760,1,8,0:0:0:0:
256,192,91918,1,0,0:0:0:0:
256,192,92076,1,0,0:0:0:0:
256,192,92234,1,8,0:0:0:0:
256,192,92392,1,0,0:0:0:0:
256,192,92550,1,0,0:0:0:0:
256,192,92866,1,8,0:0:0:0:
256,192,93024,1,0,0:0:0:0:
256,192,93181,1,8,0:0:0:0:
256,192,93339,1,8,0:0:0:0:
256,192,93655,2,0,L|192:128,1,70
256,192,93971,1,8,0:0:0:0:
256,192,94129,1,8,0:0:0:0:
256,192,94287,1,8,0:0:0:0:
256,192,94444,1,8,0:0:0:0:
256,192,94602,1,4,0:0:0:0:
256,192,94918,1,0,0:0:0:0:
256,192,95076,1,8,0:0:0:0:
256,192,95234,1,0,0:0:0:0:
256,192,95550,1,8,0:0:0:0:
256,192,95708,1,8,0:0:0:0:
256,192,95866,1,0,0:0:0:0:
256,192,96023,1,0,0:0:0:0:
256,192,96181,1,8,0:0:0:0:
256,192,96339,1,8,0:0:0:0:
256,192,96418,1,8,0:0:0:0:
256,192,96497,1,8,0:0:0:0:
256,192,96813,1,0,0:0:0:0:
256,192,96971,1,8,0:0:0:0:
256,192,97129,1,0,0:0:0:0:
256,192,97444,1,0,0:0:0:0:
256,192,97760,1,0,0:0:0:0:
256,192,97918,1,8,0:0:0:0:
256,192,98076,1,8,0:0:0:0:
256,192,98155,1,8,0:0:0:0:
256,192,98234,1,8,0:0:0:0:
256,192,98392,1,0,0:0:0:0:
256,192,99023,1,0,0:0:0:0:
256,192,99181,1,8,0:0:0:0:
256,192,99339,1,0,0:0:0:0:
256,192,99655,1,8,0:0:0:0:
256,192,99813,1,0,0:0:0:0:
256,192,99971,1,8,0:0:0:0:
256,192,100129,1,8,0:0:0:0:
256,192,100287,1,0,0:0:0:0:
256,192,100602,1,0,0:0:0:0:
256,192,100918,1,0,0:0:0:0:
256,192,101234,1,0,0:0:0:0:
256,192,101313,1,0,0:0:0:0:
256,192,101392,1,0,0:0:0:0:
256,192,101550,1,0,0:0:0:0:
256,192,101708,1,8,0:0:0:0:
256,192,101866,1,0,0:0:0:0:
256,192,102023,1,8,0:0:0:0:
256,192,102181,1,0,0:0:0:0:
256,192,102813,1,0,0:0:0:0:
256,192,102971,1,0,0:0:0:0:
256,192,103129,1,0,0:0:0:0:
256,192,103444,1,8,0:0:0:0:
256,192,103602,1,0,0:0:0:0:
256,192,103681,1,0,0:0:0:0:
256,192,103760,1,0,0:0:0:0:
256,192,103918,1,8,0:0:0:0:
256,192,104076,1,0,0:0:0:0:
256,192,104392,1,0,0:0:0:0:
256,192,104708,1,0,0:0:0:0:
256,192,105023,1,0,0:0:0:0:
256,192,105181,1,0,0:0:0:0:
256,192,105339,1,8,0:0:0:0:
256,192,105497,1,0,0:0:0:0:
256,192,105655,1,8,0:0:0:0:
256,192,105813,1,0,0:0:0:0:
256,192,105971,1,8,0:0:0:0:
256,192,106287,1,8,0:0:0:0:
256,192,106444,1,0,0:0:0:0:
256,192,106760,1,0,0:0:0:0:
256,192,106918,1,8,0:0:0:0:
256,192,107234,1,8,0:0:0:0:
256,192,107392,1,0,0:0:0:0:
256,192,107550,1,8,0:0:0:0:
256,192,107866,1,4,0:0:0:0:
256,192,108339,1,4,0:0:0:0:
256,192,108813,1,12,0:0:0:0:
256,192,109129,1,12,0:0:0:0:
256,192,109760,1,4,0:0:0:0:
256,192,110234,1,0,0:0:0:0:
256,192,110708,1,8,0:0:0:0:
256,192,111023,1,0,0:0:0:0:
256,192,111655,1,0,0:0:0:0:
256,192,112129,1,0,0:0:0:0:
256,192,112602,1,8,0:0:0:0:
256,192,112918,1,8,0:0:0:0:
256,192,113234,1,8,0:0:0:0:
256,192,113550,1,4,0:0:0:0:
256,192,113866,1,4,0:0:0:0:
256,192,114181,1,4,0:0:0:0:
256,192,114497,1,12,0:0:0:0:
256,192,114813,1,12,0:0:0:0:
256,192,115129,1,12,0:0:0:0:
256,192,115444,1,4,0:0:0:0:
256,192,115918,1,0,0:0:0:0:
256,192,116392,1,8,0:0:0:0:
256,192,116629,1,8,0:0:0:0:
256,192,116866,1,8,0:0:0:0:
256,192,117102,1,8,0:0:0:0:
256,192,117339,1,4,0:0:0:0:
256,192,117655,1,0,0:0:0:0:
256,192,117971,1,0,0:0:0:0:
256,192,118129,1,8,0:0:0:0:
256,192,118287,1,0,0:0:0:0:
256,192,118444,1,0,0:0:0:0:
256,192,118602,1,8,0:0:0:0:
256,192,118681,1,8,0:0:0:0:
256,192,118760,1,8,0:0:0:0:
256,192,118918,1,0,0:0:0:0:
256,192,119076,1,8,0:0:0:0:
256,192,119234,1,0,0:0:0:0:
256,192,119550,1,0,0:0:0:0:
256,192,119708,1,0,0:0:0:0:
256,192,119866,1,8,0:0:0:0:
256,192,120023,1,0,0:0:0:0:
256,192,120181,1,12,0:0:0:0:
256,192,120497,1,0,0:0:0:0:
256,192,120655,1,0,0:0:0:0:
256,192,120813,1,8,0:0:0:0:
256,192,120892,1,8,0:0:0:0:
256,192,120971,1,8,0:0:0:0:
256,192,121129,1,4,0:0:0:0:
256,192,121602,1,4,0:0:0:0:
256,192,122076,1,12,0:0:0:0:
256,192,122550,1,4,0:0:0:0:
256,192,123023,1,0,0:0:0:0:
256,192,123181,1,8,0:0:0:0:
256,192,123339,1,0,0:0:0:0:
256,192,123497,1,8,0:0:0:0:
256,192,123655,1,0,0:0:0:0:
256,192,123813,1,0,0:0:0:0:
256,192,123971,1,12,0:0:0:0:
256,192,124918,1,4,0:0:0:0:
256,192,125866,1,8,0:0:0:0:
256,192,126813,1,8,0:0:0:0:
256,192,127760,1,8,0:0:0:0:
256,192,128708,1,8,0:0:0:0:
256,192,129655,1,8,0:0:0:0:
256,192,130602,1,8,0:0:0:0:
256,192,131550,1,0,0:0:0:0:
