osu file format v14

[General]
AudioFilename: audio.mp3
AudioLeadIn: 0
PreviewTime: 77550
Countdown: 0
SampleSet: Normal
StackLeniency: 0.7
Mode: 1
LetterboxInBreaks: 0
WidescreenStoryboard: 1

[Editor]
Bookmarks: 31445,51340,71866,83551,94603,109761
DistanceSpacing: 0.2
BeatDivisor: 16
GridSize: 32
TimelineZoom: 3.599999

[Metadata]
Title:neo kosmo
TitleUnicode:nέο κόsmo
Artist:ak+q x Street
ArtistUnicode:ak+q × Street
Creator:Shinsekai-
Version:Tutorial
Source:Arcaea
Tags:[_Chichinya_] PhoeNiiXZ chichinya yenmaster Peaceful Ph0eNiiXZ davidminh0111 Faputa nintendo switch lowiro shirahime divided heart new world electronic instrumental neurofunk artcore video game videogame
BeatmapID:3127996
BeatmapSetID:1492497

[Difficulty]
HPDrainRate:9
CircleSize:2
OverallDifficulty:2
ApproachRate:10
SliderMultiplier:1.4
SliderTickRate:1

[Events]
//Background and Video events
0,0,"Arcaea.full.2811174.jpg",0,90
//Break Periods
2,1330,8258
2,72066,77100
//Storyboard Layer 0 (Background)
//Storyboard Layer 1 (Fail)
//Storyboard Layer 2 (Pass)
//Storyboard Layer 3 (Foreground)
//Storyboard Layer 4 (Overlay)
//Storyboard Sound Samples

[TimingPoints]
1130,315.789473684211,6,1,2,100,1,0
1287,-100,6,1,0,35,0,0
8630,-100,6,1,2,50,0,0
8945,-100,6,1,0,50,0,0
16208,-100,6,1,2,50,0,0
16366,-100,6,1,0,50,0,0
17156,-100,6,1,2,50,0,0
17314,-100,6,1,0,50,0,0
18103,-100,6,1,2,50,0,0
18261,-100,6,1,0,50,0,0
19051,-100,6,1,2,50,0,0
19208,-100,6,1,0,50,0,0
19998,-100,6,1,2,50,0,0
20156,-100,6,1,0,50,0,0
20955,-100,6,1,2,50,0,0
21103,-100,6,1,0,50,0,0
21893,-100,6,1,2,50,0,0
22051,-100,6,1,0,50,0,0
22840,-100,6,1,2,50,0,0
22998,-100,6,1,0,50,0,0
23787,-100,6,1,2,50,0,0
23945,-100,6,1,0,50,0,0
24735,-100,6,1,2,50,0,0
24893,-100,6,1,0,50,0,0
25682,-100,6,1,2,50,0,0
25840,-100,6,1,0,50,0,0
25998,-100,6,1,0,50,0,0
26630,-100,6,1,0,30,0,0
27577,-100,6,1,0,50,0,0
30301,-100,6,1,0,15,0,0
30380,-100,6,1,0,20,0,0
30458,-100,6,1,0,25,0,0
30537,-100,6,1,0,30,0,0
30616,-100,6,1,0,35,0,0
30695,-100,6,1,0,40,0,0
30774,-100,6,1,0,45,0,0
30853,-100,6,1,0,50,0,0
30932,-100,6,1,0,55,0,0
31011,-100,6,1,0,65,0,0
31090,-100,6,1,0,70,0,0
31445,315.789473684211,4,1,0,100,1,0
71866,315.789473684211,6,1,0,100,1,0
72102,-100,6,1,0,70,0,0
77550,-100,6,1,0,50,0,0
77589,-100,6,1,0,35,0,0
79366,-100,6,1,2,75,0,0
79523,-100,6,1,0,75,0,0
90735,-100,6,1,2,100,0,0
90893,-100,6,1,0,75,0,0
93892,-100,6,1,0,80,0,0
94050,-100,6,1,0,85,0,0
94208,-100,6,1,0,90,0,0
94366,-100,6,1,0,95,0,0
94602,-100,6,1,0,100,0,1
107866,-100,6,1,0,100,0,0
117339,-100,6,1,0,100,0,1
124839,-100,6,1,2,100,0,1
124918,-100,6,1,2,100,0,0
124997,-100,6,1,0,100,0,0
125787,-100,6,1,2,100,0,0
125945,-100,6,1,0,100,0,0
126735,-100,6,1,2,100,0,0
126893,-100,6,1,0,100,0,0
127682,-100,6,1,2,100,0,0
127840,-100,6,1,0,100,0,0
128630,-100,6,1,2,100,0,0
128788,-100,6,1,0,100,0,0
129577,-100,6,1,2,100,0,0
129735,-100,6,1,0,100,0,0
130524,-100,6,1,2,100,0,0
130682,-100,6,1,0,100,0,0

[HitObjects]
256,192,1130,5,4,0:0:0:0:
256,192,8708,5,4,0:0:0:0:
256,192,10603,1,0,0:0:0:0:
256,192,12498,1,0,0:0:0:0:
256,192,14393,1,8,0:0:0:0:
256,192,15340,1,0,0:0:0:0:
256,192,16287,1,4,0:0:0:0:
256,192,18182,1,8,0:0:0:0:
256,192,20077,1,8,0:0:0:0:
256,192,21972,1,8,0:0:0:0:
256,192,23866,1,0,0:0:0:0:
256,192,25761,1,8,0:0:0:0:
256,192,26708,1,4,0:0:0:0:
256,192,27656,1,12,0:0:0:0:
256,192,29551,12,0,31130,0:0:0:0:
256,192,31445,5,4,0:0:0:0:
256,192,32392,1,8,0:0:0:0:
256,192,33655,1,8,0:0:0:0:
256,192,34918,1,8,0:0:0:0:
256,320,36497,1,0,0:0:0:0:
256,192,37445,1,8,0:0:0:0:
256,192,38708,1,8,0:0:0:0:
256,192,39813,1,0,0:0:0:0:
256,192,40918,1,8,0:0:0:0:
256,192,41234,1,8,0:0:0:0:
256,192,42497,1,8,0:0:0:0:
256,192,43760,1,8,0:0:0:0:
256,192,45023,1,0,0:0:0:0:
256,192,45655,1,8,0:0:0:0:
256,192,46287,1,0,0:0:0:0:
256,192,47550,1,8,0:0:0:0:
256,192,48813,1,8,0:0:0:0:
256,192,49918,1,0,0:0:0:0:
256,192,51339,1,8,0:0:0:0:
256,192,51655,1,0,0:0:0:0:
256,192,52918,1,8,0:0:0:0:
256,192,54181,1,8,0:0:0:0:
256,192,54497,1,8,0:0:0:0:
256,192,55918,1,8,0:0:0:0:
256,192,57339,1,0,0:0:0:0:
256,192,57971,1,0,0:0:0:0:
256,192,59076,1,8,0:0:0:0:
256,192,60339,1,8,0:0:0:0:
256,192,61760,1,0,0:0:0:0:
256,192,62708,1,0,0:0:0:0:
256,192,64287,1,0,0:0:0:0:
256,192,66023,1,8,0:0:0:0:
256,192,66971,1,8,0:0:0:0:
256,192,68392,1,8,0:0:0:0:
256,192,69339,1,0,0:0:0:0:
256,192,70287,1,8,0:0:0:0:
256,192,71234,1,8,0:0:0:0:
256,192,71866,1,4,0:0:0:0:
256,192,77550,5,8,0:0:0:0:
256,192,79444,1,4,0:0:0:0:
256,192,80392,1,8,0:0:0:0:
256,192,82287,1,8,0:0:0:0:
256,192,84181,1,8,0:0:0:0:
256,192,86076,1,8,0:0:0:0:
256,192,87023,1,8,0:0:0:0:
256,192,88918,1,8,0:0:0:0:
256,192,89866,1,0,0:0:0:0:
256,192,90813,1,4,0:0:0:0:
256,192,93971,1,8,0:0:0:0:
256,192,94602,1,0,0:0:0:0:
256,192,96497,1,0,0:0:0:0:
256,192,98076,1,8,0:0:0:0:
256,192,98392,1,0,0:0:0:0:
256,192,99655,1,8,0:0:0:0:
256,192,100287,1,0,0:0:0:0:
256,192,101866,1,0,0:0:0:0:
256,192,102181,1,0,0:0:0:0:
256,192,103760,1,8,0:0:0:0:
256,192,104076,1,0,0:0:0:0:
256,192,105655,1,8,0:0:0:0:
256,192,105971,1,8,0:0:0:0:
256,192,107866,1,0,0:0:0:0:
256,192,108813,1,0,0:0:0:0:
256,192,109760,1,8,0:0:0:0:
256,192,111655,1,0,0:0:0:0:
256,192,112129,1,0,0:0:0:0:
256,192,112602,1,8,0:0:0:0:
256,192,113550,1,0,0:0:0:0:
256,192,114497,1,0,0:0:0:0:
256,192,115444,1,8,0:0:0:0:
256,192,117339,1,0,0:0:0:0:
256,192,118287,1,8,0:0:0:0:
256,192,119866,1,8,0:0:0:0:
256,192,120181,1,8,0:0:0:0:
256,192,121129,1,0,0:0:0:0:
256,192,122076,1,8,0:0:0:0:
256,192,123023,1,0,0:0:0:0:
256,192,123971,1,8,0:0:0:0:
256,192,124918,1,4,0:0:0:0:
256,192,125866,1,8,0:0:0:0:
256,192,127760,1,8,0:0:0:0:
256,192,129655,1,8,0:0:0:0:
256,192,131550,1,4,0:0:0:0:
