osu file format v14

[General]
AudioFilename: audio.mp3
AudioLeadIn: 0
PreviewTime: 77550
Countdown: 0
SampleSet: Normal
StackLeniency: 0.7
Mode: 1
LetterboxInBreaks: 0
WidescreenStoryboard: 1

[Editor]
Bookmarks: 31445,51340,71866,83551,94603,109761
DistanceSpacing: 0.2
BeatDivisor: 4
GridSize: 32
TimelineZoom: 3.599999

[Metadata]
Title:neo kosmo
TitleUnicode:nέο κόsmo
Artist:ak+q x Street
ArtistUnicode:ak+q × Street
Creator:Shinsekai-
Version:Ph0eNiiXZ's Past
Source:Arcaea
Tags:[_Chichinya_] PhoeNiiXZ chichinya yenmaster Peaceful Ph0eNiiXZ davidminh0111 Faputa nintendo switch lowiro shirahime divided heart new world electronic instrumental neurofunk artcore video game videogame
BeatmapID:3115398
BeatmapSetID:1492497

[Difficulty]
HPDrainRate:8
CircleSize:2
OverallDifficulty:3
ApproachRate:10
SliderMultiplier:1.4
SliderTickRate:1

[Events]
//Background and Video events
0,0,"Arcaea.full.2811174.jpg",0,90
//Break Periods
2,1330,8258
//Storyboard Layer 0 (Background)
//Storyboard Layer 1 (Fail)
//Storyboard Layer 2 (Pass)
//Storyboard Layer 3 (Foreground)
//Storyboard Layer 4 (Overlay)
//Storyboard Sound Samples

[TimingPoints]
1130,315.789473684211,6,1,2,100,1,0
1287,-125,6,1,0,35,0,0
8630,-125,6,1,2,50,0,0
8945,-125,6,1,0,50,0,0
16208,-125,6,1,2,50,0,0
16366,-125,6,1,0,50,0,0
18103,-125,6,1,2,50,0,0
24893,-125,6,1,0,50,0,0
25682,-125,6,1,2,50,0,0
25998,-125,6,1,0,50,0,0
26630,-125,6,1,0,30,0,0
27577,-125,6,1,0,50,0,0
30301,-125,6,1,0,15,0,0
30380,-125,6,1,0,20,0,0
30458,-125,6,1,0,25,0,0
30537,-125,6,1,0,30,0,0
30616,-125,6,1,0,35,0,0
30695,-125,6,1,0,40,0,0
30774,-125,6,1,0,45,0,0
30853,-125,6,1,0,50,0,0
30932,-125,6,1,0,55,0,0
31011,-125,6,1,0,65,0,0
31090,-125,6,1,0,70,0,0
31445,315.789473684211,4,1,0,100,1,0
71866,315.789473684211,6,1,0,100,1,0
72102,-125,6,1,0,70,0,0
77550,-125,6,1,0,50,0,0
79366,-125,6,1,2,75,0,0
79523,-125,6,1,0,75,0,0
90735,-125,6,1,2,100,0,0
90893,-125,6,1,0,75,0,0
93892,-125,6,1,0,80,0,0
94050,-125,6,1,0,85,0,0
94208,-125,6,1,0,90,0,0
94366,-125,6,1,0,95,0,0
94602,-125,6,1,0,100,0,1
107866,-125,6,1,0,100,0,0
117339,-125,6,1,0,100,0,1
124839,-125,6,1,2,100,0,1
124918,-125,6,1,2,100,0,0
124997,-125,6,1,0,100,0,0
125787,-125,6,1,2,100,0,0
125945,-125,6,1,0,100,0,0
126735,-125,6,1,2,100,0,0
126893,-125,6,1,0,100,0,0
127682,-125,6,1,2,100,0,0
127840,-125,6,1,0,100,0,0
128630,-125,6,1,2,100,0,0
128788,-125,6,1,0,100,0,0
129577,-125,6,1,2,100,0,0
129735,-125,6,1,0,100,0,0
130524,-125,6,1,2,100,0,0

[HitObjects]
256,192,1130,5,4,0:0:0:0:
256,192,8708,5,4,0:0:0:0:
256,192,10603,1,0,0:0:0:0:
256,192,11551,1,8,0:0:0:0:
256,192,12498,1,0,0:0:0:0:
256,192,14393,1,8,0:0:0:0:
256,192,15340,1,0,0:0:0:0:
256,192,16287,1,12,0:0:0:0:
256,192,18182,1,8,0:0:0:0:
256,192,20077,1,0,0:0:0:0:
256,192,21024,1,0,0:0:0:0:
256,192,21972,1,8,0:0:0:0:
256,192,22919,1,8,0:0:0:0:
256,192,23866,1,0,0:0:0:0:
256,192,25761,1,8,0:0:0:0:
256,192,26708,1,0,0:0:0:0:
256,192,27656,1,12,0:0:0:0:
256,192,29551,12,0,31130,0:0:0:0:
256,192,31445,5,0,0:0:0:0:
256,192,32392,1,8,0:0:0:0:
256,192,33023,1,8,0:0:0:0:
256,192,33655,1,0,0:0:0:0:
256,192,34287,1,8,0:0:0:0:
256,192,34602,1,0,0:0:0:0:
256,192,34918,1,8,0:0:0:0:
256,192,35550,1,0,0:0:0:0:
256,192,36181,1,8,0:0:0:0:
256,192,36497,1,8,0:0:0:0:
256,192,37445,1,8,0:0:0:0:
256,192,38076,1,8,0:0:0:0:
256,192,38708,1,0,0:0:0:0:
256,192,39339,1,8,0:0:0:0:
256,192,39734,1,0,0:0:0:0:
256,192,40918,1,8,0:0:0:0:
256,192,41234,1,8,0:0:0:0:
256,192,41866,1,8,0:0:0:0:
256,192,42181,1,0,0:0:0:0:
256,192,42497,1,8,0:0:0:0:
256,192,43129,1,0,0:0:0:0:
256,192,43760,1,8,0:0:0:0:
256,192,44392,1,0,0:0:0:0:
256,192,45023,1,8,0:0:0:0:
256,192,45339,1,0,0:0:0:0:
256,192,45655,1,8,0:0:0:0:
256,192,46287,1,8,0:0:0:0:
256,192,46602,1,0,0:0:0:0:
256,192,47550,1,8,0:0:0:0:
256,192,48181,1,8,0:0:0:0:
256,192,48497,1,8,0:0:0:0:
256,192,48813,1,0,0:0:0:0:
256,192,49445,1,8,0:0:0:0:
256,192,49839,1,0,0:0:0:0:
256,192,51339,1,8,0:0:0:0:
256,192,51655,1,0,0:0:0:0:
256,192,52602,1,0,0:0:0:0:
256,192,53234,1,0,0:0:0:0:
256,192,54181,1,0,0:0:0:0:
256,192,54655,1,8,0:0:0:0:
256,192,55129,1,0,0:0:0:0:
256,192,55918,1,0,0:0:0:0:
256,192,56708,1,0,0:0:0:0:
256,192,57181,1,0,0:0:0:0:
256,192,57497,1,8,0:0:0:0:
256,192,57971,1,0,0:0:0:0:
256,192,58918,1,0,0:0:0:0:
256,192,59550,1,0,0:0:0:0:
256,192,60497,1,0,0:0:0:0:
256,192,60971,1,8,0:0:0:0:
256,192,61287,1,0,0:0:0:0:
256,192,62234,1,0,0:0:0:0:
256,192,63023,1,0,0:0:0:0:
256,192,63497,1,0,0:0:0:0:
256,192,63813,1,8,0:0:0:0:
256,192,64287,1,0,0:0:0:0:
256,192,64760,1,0,0:0:0:0:
256,192,65234,1,0,0:0:0:0:
256,192,65708,1,0,0:0:0:0:
256,192,66181,1,0,0:0:0:0:
256,192,67129,1,0,0:0:0:0:
256,192,67602,1,8,0:0:0:0:
256,192,68076,1,0,0:0:0:0:
256,192,69023,1,0,0:0:0:0:
256,192,69497,1,0,0:0:0:0:
256,192,69971,1,0,0:0:0:0:
256,192,70445,1,0,0:0:0:0:
256,192,70918,1,0,0:0:0:0:
256,192,71392,1,8,0:0:0:0:
256,192,71866,1,4,0:0:0:0:
256,192,73760,1,0,0:0:0:0:
256,192,74708,1,8,0:0:0:0:
256,192,75655,1,0,0:0:0:0:
256,192,77550,1,8,0:0:0:0:
256,192,78497,1,8,0:0:0:0:
256,192,79444,1,4,0:0:0:0:
256,192,80392,1,8,0:0:0:0:
256,192,81023,1,0,0:0:0:0:
256,192,81339,1,8,0:0:0:0:
256,192,82287,1,8,0:0:0:0:
256,192,82918,1,8,0:0:0:0:
256,192,83234,1,0,0:0:0:0:
256,192,83550,1,8,0:0:0:0:
256,192,84181,1,8,0:0:0:0:
256,192,84497,1,0,0:0:0:0:
256,192,84813,1,0,0:0:0:0:
256,192,85129,1,8,0:0:0:0:
256,192,86076,1,8,0:0:0:0:
256,192,86708,1,8,0:0:0:0:
256,192,87023,1,0,0:0:0:0:
256,192,87339,1,8,0:0:0:0:
256,192,87971,1,8,0:0:0:0:
256,192,88602,1,8,0:0:0:0:
256,192,88918,1,0,0:0:0:0:
256,192,89550,1,0,0:0:0:0:
256,192,89866,1,8,0:0:0:0:
256,192,90813,1,4,0:0:0:0:
256,192,91760,1,8,0:0:0:0:
256,192,93023,12,0,93655,0:0:0:0:
256,192,94602,5,12,0:0:0:0:
256,192,95550,1,0,0:0:0:0:
256,192,95866,1,0,0:0:0:0:
256,192,96181,1,8,0:0:0:0:
256,192,96497,1,8,0:0:0:0:
256,192,97444,1,0,0:0:0:0:
256,192,98076,1,8,0:0:0:0:
256,192,98392,1,0,0:0:0:0:
256,192,99339,1,0,0:0:0:0:
256,192,99655,1,8,0:0:0:0:
256,192,99971,1,8,0:0:0:0:
256,192,100287,1,0,0:0:0:0:
256,192,101234,1,0,0:0:0:0:
256,192,101866,1,8,0:0:0:0:
256,192,102181,1,0,0:0:0:0:
256,192,102813,1,0,0:0:0:0:
256,192,103129,1,0,0:0:0:0:
256,192,103444,1,8,0:0:0:0:
256,192,103760,1,0,0:0:0:0:
256,192,104076,1,8,0:0:0:0:
256,192,105023,1,0,0:0:0:0:
256,192,105339,1,8,0:0:0:0:
256,192,105655,1,0,0:0:0:0:
256,192,105971,1,8,0:0:0:0:
256,192,106918,1,8,0:0:0:0:
256,192,107234,1,0,0:0:0:0:
256,192,107550,1,0,0:0:0:0:
256,192,107866,1,8,0:0:0:0:
256,192,108497,1,8,0:0:0:0:
256,192,108813,1,8,0:0:0:0:
256,192,109129,1,0,0:0:0:0:
256,192,109760,1,12,0:0:0:0:
256,192,110234,1,0,0:0:0:0:
256,192,110708,1,8,0:0:0:0:
256,192,111023,1,0,0:0:0:0:
256,192,111655,1,0,0:0:0:0:
256,192,112129,1,0,0:0:0:0:
256,192,112602,1,8,0:0:0:0:
256,192,113550,1,0,0:0:0:0:
256,192,113866,1,0,0:0:0:0:
256,192,114181,1,8,0:0:0:0:
256,192,114497,1,8,0:0:0:0:
256,192,114813,1,0,0:0:0:0:
256,192,115129,1,8,0:0:0:0:
256,192,115444,1,0,0:0:0:0:
256,192,116392,1,8,0:0:0:0:
256,192,116866,1,8,0:0:0:0:
256,192,117339,1,4,0:0:0:0:
256,192,117971,1,8,0:0:0:0:
256,192,118287,1,8,0:0:0:0:
256,192,118602,1,0,0:0:0:0:
256,192,118918,1,8,0:0:0:0:
256,192,119234,1,0,0:0:0:0:
256,192,119866,1,8,0:0:0:0:
256,192,120181,1,8,0:0:0:0:
256,192,120813,1,0,0:0:0:0:
256,192,121129,1,0,0:0:0:0:
256,192,122076,1,0,0:0:0:0:
256,192,122708,1,8,0:0:0:0:
256,192,123023,1,8,0:0:0:0:
256,192,123971,1,0,0:0:0:0:
256,192,124918,1,12,0:0:0:0:
256,192,126813,1,8,0:0:0:0:
256,192,128708,1,8,0:0:0:0:
256,192,130602,1,8,0:0:0:0:
256,192,131550,1,0,0:0:0:0:
