osu file format v14

[General]
AudioFilename: audio.mp3
AudioLeadIn: 0
PreviewTime: 77550
Countdown: 0
SampleSet: Normal
StackLeniency: 0.7
Mode: 1
LetterboxInBreaks: 0
WidescreenStoryboard: 1

[Editor]
Bookmarks: 31445,51340,71866,83551,94603,109761
DistanceSpacing: 0.2
BeatDivisor: 4
GridSize: 32
TimelineZoom: 2.000001

[Metadata]
Title:neo kosmo
TitleUnicode:nέο κόsmo
Artist:ak+q x Street
ArtistUnicode:ak+q × Street
Creator:Shinsekai-
Version:Peaceful's Present
Source:Arcaea
Tags:[_Chichinya_] PhoeNiiXZ chichinya yenmaster Peaceful Ph0eNiiXZ davidminh0111 Faputa nintendo switch lowiro shirahime divided heart new world electronic instrumental neurofunk artcore video game videogame
BeatmapID:3127164
BeatmapSetID:1492497

[Difficulty]
HPDrainRate:7
CircleSize:4
OverallDifficulty:4
ApproachRate:7
SliderMultiplier:1.4
SliderTickRate:1

[Events]
//Background and Video events
0,0,"Arcaea.full.2811174.jpg",0,90
//Break Periods
//Storyboard Layer 0 (Background)
//Storyboard Layer 1 (Fail)
//Storyboard Layer 2 (Pass)
//Storyboard Layer 3 (Foreground)
//Storyboard Layer 4 (Overlay)
//Storyboard Sound Samples

[TimingPoints]
1130,315.789473684211,6,1,2,100,1,0
1287,-100,6,1,0,35,0,0
8630,-100,6,1,2,50,0,0
8945,-100,6,1,0,50,0,0
16208,-100,6,1,2,50,0,0
16366,-100,6,1,0,50,0,0
24893,-100,6,1,0,50,0,0
25682,-100,6,1,2,50,0,0
25998,-100,6,1,0,50,0,0
26630,-100,6,1,0,30,0,0
27577,-100,6,1,0,50,0,0
30301,-100,6,1,0,15,0,0
30380,-100,6,1,0,20,0,0
30458,-100,6,1,0,25,0,0
30537,-100,6,1,0,30,0,0
30616,-100,6,1,0,35,0,0
30695,-100,6,1,0,40,0,0
30774,-100,6,1,0,45,0,0
30853,-100,6,1,0,50,0,0
30932,-100,6,1,0,55,0,0
31011,-100,6,1,0,65,0,0
31090,-100,6,1,0,70,0,0
31445,315.789473684211,4,1,0,100,1,0
71866,315.789473684211,6,1,0,100,1,0
72102,-100,6,1,0,70,0,0
77550,-100,6,1,0,50,0,0
77708,-100,6,1,0,35,0,0
79366,-100,6,1,2,75,0,0
79523,-100,6,1,0,75,0,0
90735,-100,6,1,2,100,0,0
90893,-100,6,1,0,75,0,0
93892,-100,6,1,0,80,0,0
94050,-100,6,1,0,85,0,0
94208,-100,6,1,0,90,0,0
94366,-100,6,1,0,95,0,0
94602,-100,6,1,0,100,0,1
107866,-100,6,1,0,100,0,0
117339,-100,6,1,0,100,0,1
124839,-100,6,1,2,100,0,1
124918,-100,6,1,2,100,0,0
124997,-100,6,1,0,100,0,0
125787,-100,6,1,2,100,0,0
125945,-100,6,1,0,100,0,0
126735,-100,6,1,2,100,0,0
126893,-100,6,1,0,100,0,0
127682,-100,6,1,2,100,0,0
127840,-100,6,1,0,100,0,0
128630,-100,6,1,2,100,0,0
128788,-100,6,1,0,100,0,0
129577,-100,6,1,2,100,0,0
129735,-100,6,1,0,100,0,0
130524,-100,6,1,2,100,0,0
130682,-100,6,1,0,100,0,0

[HitObjects]
256,192,1130,5,4,0:0:0:0:
220,194,2708,1,0,0:0:0:0:
209,185,3024,1,8,0:0:0:0:
310,172,4603,1,0,0:0:0:0:
299,169,4919,1,8,0:0:0:0:
238,126,6498,1,0,0:0:0:0:
238,126,6814,1,8,0:0:0:0:
329,116,7761,1,0,0:0:0:0:
286,158,8708,5,4,0:0:0:0:
131,186,9340,1,0,0:0:0:0:
131,185,9498,1,0,0:0:0:0:
131,185,9656,1,8,0:0:0:0:
257,103,9972,1,8,0:0:0:0:
132,158,10603,1,0,0:0:0:0:
190,188,11235,1,0,0:0:0:0:
190,188,11393,1,0,0:0:0:0:
256,192,11551,1,8,0:0:0:0:
272,118,11866,1,8,0:0:0:0:
66,221,12498,5,0,0:0:0:0:
217,201,13130,1,0,0:0:0:0:
295,184,13287,1,0,0:0:0:0:
359,172,13445,1,8,0:0:0:0:
71,111,13761,1,8,0:0:0:0:
198,174,14393,1,0,0:0:0:0:
143,92,15340,1,0,0:0:0:0:
181,80,16287,5,12,0:0:0:0:
111,179,17235,1,8,0:0:0:0:
111,179,17551,1,0,0:0:0:0:
111,179,17866,1,0,0:0:0:0:
111,179,18182,1,8,0:0:0:0:
145,150,19130,1,0,0:0:0:0:
145,150,19445,1,0,0:0:0:0:
145,150,19761,1,8,0:0:0:0:
145,150,20077,5,8,0:0:0:0:
256,192,20708,1,0,0:0:0:0:
256,192,21024,1,8,0:0:0:0:
186,60,21340,1,0,0:0:0:0:
278,128,21498,1,8,0:0:0:0:
193,94,21656,1,0,0:0:0:0:
256,192,21972,1,8,0:0:0:0:
256,192,22919,1,8,0:0:0:0:
108,114,23866,5,12,0:0:0:0:
234,142,24498,1,8,0:0:0:0:
233,82,24656,1,0,0:0:0:0:
176,196,24814,1,8,0:0:0:0:
392,97,25130,1,0,0:0:0:0:
392,97,25445,1,8,0:0:0:0:
309,101,25603,1,0,0:0:0:0:
256,192,25761,1,0,0:0:0:0:
319,170,26393,1,0,0:0:0:0:
319,170,26551,1,0,0:0:0:0:
319,170,26708,1,12,0:0:0:0:
256,192,27656,5,4,0:0:0:0:
270,101,28287,1,0,0:0:0:0:
270,101,28445,1,0,0:0:0:0:
270,101,28603,1,8,0:0:0:0:
317,104,28919,1,0,0:0:0:0:
317,104,29235,1,8,0:0:0:0:
317,104,29393,1,8,0:0:0:0:
256,192,29551,1,0,0:0:0:0:
256,192,29866,12,0,31130,0:0:0:0:
256,192,31445,5,4,0:0:0:0:
319,81,31760,1,8,0:0:0:0:
319,81,31918,1,0,0:0:0:0:
319,81,32392,1,8,0:0:0:0:
169,259,33023,1,8,0:0:0:0:
240,104,33181,1,0,0:0:0:0:
275,238,33497,1,0,0:0:0:0:
137,130,33655,1,8,0:0:0:0:
349,115,33813,1,8,0:0:0:0:
288,144,34287,5,8,0:0:0:0:
288,144,34445,1,0,0:0:0:0:
256,192,34760,1,0,0:0:0:0:
256,192,34918,1,8,0:0:0:0:
256,192,35550,1,8,0:0:0:0:
216,80,35708,1,0,0:0:0:0:
216,80,36023,1,0,0:0:0:0:
216,80,36181,1,8,0:0:0:0:
256,192,36497,5,0,0:0:0:0:
312,121,36813,1,8,0:0:0:0:
312,121,36971,1,0,0:0:0:0:
162,121,37445,1,8,0:0:0:0:
239,102,38076,1,8,0:0:0:0:
84,104,38234,1,0,0:0:0:0:
239,102,38550,1,0,0:0:0:0:
346,123,38708,1,8,0:0:0:0:
305,103,38866,1,8,0:0:0:0:
288,128,39339,5,8,0:0:0:0:
288,160,39734,1,0,0:0:0:0:
288,128,39971,1,0,0:0:0:0:
224,160,40208,1,0,0:0:0:0:
224,192,40681,1,0,0:0:0:0:
256,192,40918,1,8,0:0:0:0:
256,192,41076,1,0,0:0:0:0:
256,192,41234,1,8,0:0:0:0:
288,192,41550,5,0,0:0:0:0:
288,160,41866,1,8,0:0:0:0:
256,192,42023,1,0,0:0:0:0:
224,160,42339,1,0,0:0:0:0:
256,192,42497,1,8,0:0:0:0:
192,160,43129,1,8,0:0:0:0:
192,160,43287,1,0,0:0:0:0:
192,128,43602,1,0,0:0:0:0:
256,160,43760,1,8,0:0:0:0:
211,118,43918,1,8,0:0:0:0:
214,121,44392,5,8,0:0:0:0:
357,264,44550,1,0,0:0:0:0:
175,246,44866,1,0,0:0:0:0:
344,95,45023,1,8,0:0:0:0:
223,141,45655,1,8,0:0:0:0:
187,107,45813,1,0,0:0:0:0:
187,107,46129,1,0,0:0:0:0:
313,128,46287,1,8,0:0:0:0:
256,192,46602,5,0,0:0:0:0:
209,109,46918,1,8,0:0:0:0:
209,109,47076,1,0,0:0:0:0:
316,101,47234,1,0,0:0:0:0:
256,192,47550,1,8,0:0:0:0:
186,86,48181,1,8,0:0:0:0:
186,86,48339,1,0,0:0:0:0:
388,231,48655,1,0,0:0:0:0:
258,90,48813,1,8,0:0:0:0:
262,83,48971,1,8,0:0:0:0:
93,100,49445,5,8,0:0:0:0:
316,169,49839,1,0,0:0:0:0:
308,246,50076,1,0,0:0:0:0:
228,208,50313,1,0,0:0:0:0:
256,192,50787,1,0,0:0:0:0:
256,192,51023,1,0,0:0:0:0:
206,123,51181,1,0,0:0:0:0:
256,192,51339,1,8,0:0:0:0:
256,192,51655,5,0,0:0:0:0:
227,87,51971,1,8,0:0:0:0:
345,159,52129,1,0,0:0:0:0:
239,116,52445,1,8,0:0:0:0:
163,49,52918,1,8,0:0:0:0:
261,179,53076,1,0,0:0:0:0:
256,192,53234,1,0,0:0:0:0:
311,108,53550,1,8,0:0:0:0:
191,52,54023,1,0,0:0:0:0:
256,192,54181,5,8,0:0:0:0:
256,192,54497,1,8,0:0:0:0:
256,192,55129,1,8,0:0:0:0:
240,92,55445,1,0,0:0:0:0:
240,92,55760,1,0,0:0:0:0:
256,192,55918,1,8,0:0:0:0:
315,140,56234,1,8,0:0:0:0:
55,102,56708,5,8,0:0:0:0:
55,102,56866,1,0,0:0:0:0:
55,102,57181,1,0,0:0:0:0:
55,102,57339,1,0,0:0:0:0:
280,122,57971,1,0,0:0:0:0:
327,127,58287,1,8,0:0:0:0:
234,107,58445,1,0,0:0:0:0:
327,127,58602,1,8,0:0:0:0:
279,105,59076,1,8,0:0:0:0:
279,105,59392,5,8,0:0:0:0:
339,93,59866,1,8,0:0:0:0:
339,93,60023,1,0,0:0:0:0:
339,93,60339,1,8,0:0:0:0:
252,132,60655,1,8,0:0:0:0:
249,76,60813,1,0,0:0:0:0:
249,76,60971,1,8,0:0:0:0:
346,187,61287,1,8,0:0:0:0:
291,249,61760,1,0,0:0:0:0:
277,56,62392,1,8,0:0:0:0:
277,56,62550,1,8,0:0:0:0:
224,71,62708,1,0,0:0:0:0:
325,77,63023,1,8,0:0:0:0:
325,77,63497,1,8,0:0:0:0:
266,95,64287,5,0,0:0:0:0:
349,102,64760,1,0,0:0:0:0:
349,102,65234,1,0,0:0:0:0:
237,111,65708,1,0,0:0:0:0:
237,111,66023,1,8,0:0:0:0:
293,101,66339,1,0,0:0:0:0:
217,108,66497,1,8,0:0:0:0:
173,125,66971,5,8,0:0:0:0:
220,233,67445,1,0,0:0:0:0:
287,186,67602,1,8,0:0:0:0:
287,186,67918,1,8,0:0:0:0:
240,108,68076,1,0,0:0:0:0:
288,160,68392,1,8,0:0:0:0:
155,285,68550,1,0,0:0:0:0:
224,160,68866,1,8,0:0:0:0:
156,170,69023,1,0,0:0:0:0:
156,170,69339,5,8,0:0:0:0:
261,130,69813,1,8,0:0:0:0:
155,285,69971,1,0,0:0:0:0:
252,108,70287,1,8,0:0:0:0:
252,108,70760,1,8,0:0:0:0:
286,126,71076,1,0,0:0:0:0:
252,108,71234,1,8,0:0:0:0:
303,94,71550,1,8,0:0:0:0:
275,173,71866,5,4,0:0:0:0:
284,164,72813,1,8,0:0:0:0:
284,164,73444,1,0,0:0:0:0:
284,164,73760,1,8,0:0:0:0:
284,176,74708,1,8,0:0:0:0:
271,87,75655,1,0,0:0:0:0:
273,119,76602,1,8,0:0:0:0:
273,119,77234,1,0,0:0:0:0:
320,86,77550,1,12,0:0:0:0:
253,159,77866,1,0,0:0:0:0:
372,76,78181,1,0,0:0:0:0:
372,76,78339,1,0,0:0:0:0:
372,76,78497,1,8,0:0:0:0:
96,112,79444,5,4,0:0:0:0:
290,152,79760,1,8,0:0:0:0:
290,152,80392,1,8,0:0:0:0:
290,152,80708,1,0,0:0:0:0:
242,70,81023,1,0,0:0:0:0:
290,152,81181,1,8,0:0:0:0:
181,150,81339,1,0,0:0:0:0:
241,163,81813,1,0,0:0:0:0:
236,155,82287,1,8,0:0:0:0:
203,119,83234,5,0,0:0:0:0:
459,76,83550,1,8,0:0:0:0:
381,196,84181,1,8,0:0:0:0:
381,196,84497,1,8,0:0:0:0:
253,114,84813,1,0,0:0:0:0:
253,114,84971,1,8,0:0:0:0:
253,114,85129,1,0,0:0:0:0:
293,183,86076,1,8,0:0:0:0:
188,84,86708,1,8,0:0:0:0:
322,112,87023,5,8,0:0:0:0:
362,134,87339,1,8,0:0:0:0:
367,187,87971,1,8,0:0:0:0:
367,187,88287,1,0,0:0:0:0:
279,139,88602,1,8,0:0:0:0:
279,139,88760,1,0,0:0:0:0:
279,139,88918,1,0,0:0:0:0:
196,54,89234,1,8,0:0:0:0:
196,54,89550,1,0,0:0:0:0:
258,72,89708,1,0,0:0:0:0:
258,72,89866,1,8,0:0:0:0:
315,107,90813,5,4,0:0:0:0:
400,75,91129,1,0,0:0:0:0:
285,84,91760,1,8,0:0:0:0:
177,111,92076,1,0,0:0:0:0:
177,111,92392,1,8,0:0:0:0:
289,153,92550,1,0,0:0:0:0:
177,111,92708,1,8,0:0:0:0:
366,128,93023,1,8,0:0:0:0:
371,41,93971,1,8,0:0:0:0:
371,41,94129,1,8,0:0:0:0:
371,41,94287,1,8,0:0:0:0:
271,110,94602,5,4,0:0:0:0:
296,79,95234,1,0,0:0:0:0:
340,158,95550,1,0,0:0:0:0:
340,158,95866,1,8,0:0:0:0:
278,101,96023,1,0,0:0:0:0:
340,158,96181,1,8,0:0:0:0:
340,158,96497,1,8,0:0:0:0:
296,27,97129,1,0,0:0:0:0:
240,106,97444,1,0,0:0:0:0:
240,106,97760,1,8,0:0:0:0:
240,106,97918,1,0,0:0:0:0:
240,106,98076,1,8,0:0:0:0:
282,149,98392,5,0,0:0:0:0:
284,40,99023,1,8,0:0:0:0:
260,60,99339,1,0,0:0:0:0:
240,158,99655,1,8,0:0:0:0:
240,158,99813,1,0,0:0:0:0:
240,158,99971,1,8,0:0:0:0:
201,119,100287,1,0,0:0:0:0:
330,223,101234,1,0,0:0:0:0:
271,73,101550,1,8,0:0:0:0:
271,73,101708,1,8,0:0:0:0:
271,73,101866,1,8,0:0:0:0:
278,125,102181,5,0,0:0:0:0:
371,139,102813,1,8,0:0:0:0:
371,139,103129,1,0,0:0:0:0:
296,64,103444,1,8,0:0:0:0:
296,64,103602,1,0,0:0:0:0:
371,139,103760,1,8,0:0:0:0:
371,139,104076,1,0,0:0:0:0:
324,170,105023,1,0,0:0:0:0:
324,170,105339,1,0,0:0:0:0:
324,170,105497,1,0,0:0:0:0:
324,170,105655,1,8,0:0:0:0:
324,245,105971,5,8,0:0:0:0:
282,227,106444,1,0,0:0:0:0:
400,90,106918,1,8,0:0:0:0:
400,90,107234,1,8,0:0:0:0:
400,90,107550,1,0,0:0:0:0:
258,133,107866,1,4,0:0:0:0:
258,133,108339,1,4,0:0:0:0:
258,133,108813,1,12,0:0:0:0:
396,130,109760,5,4,0:0:0:0:
328,107,110708,1,8,0:0:0:0:
328,107,111023,1,0,0:0:0:0:
328,107,111655,1,0,0:0:0:0:
231,91,112602,1,8,0:0:0:0:
231,91,112918,1,8,0:0:0:0:
231,91,113234,1,8,0:0:0:0:
305,75,113550,5,4,0:0:0:0:
180,119,114181,1,12,0:0:0:0:
180,119,114497,1,12,0:0:0:0:
228,148,115129,1,4,0:0:0:0:
228,148,115444,1,4,0:0:0:0:
228,161,115918,1,0,0:0:0:0:
228,161,116392,1,0,0:0:0:0:
316,139,116866,1,8,0:0:0:0:
298,80,117102,1,8,0:0:0:0:
271,110,117339,5,4,0:0:0:0:
296,79,117971,1,8,0:0:0:0:
340,158,118287,1,0,0:0:0:0:
340,158,118602,1,8,0:0:0:0:
278,101,118760,1,0,0:0:0:0:
340,158,118918,1,8,0:0:0:0:
340,158,119234,1,8,0:0:0:0:
296,27,119866,1,0,0:0:0:0:
240,106,120181,1,8,0:0:0:0:
240,106,120497,1,8,0:0:0:0:
240,106,120655,1,8,0:0:0:0:
240,106,120813,1,0,0:0:0:0:
242,25,120971,1,0,0:0:0:0:
282,149,121129,5,0,0:0:0:0:
284,40,121602,1,0,0:0:0:0:
260,60,122076,1,12,0:0:0:0:
240,158,122708,1,8,0:0:0:0:
201,119,123023,1,0,0:0:0:0:
229,82,123339,1,0,0:0:0:0:
229,82,123497,1,8,0:0:0:0:
229,82,123655,1,0,0:0:0:0:
229,82,123971,1,12,0:0:0:0:
393,172,124918,5,12,0:0:0:0:
349,143,125866,1,8,0:0:0:0:
349,143,126813,1,8,0:0:0:0:
349,143,127760,1,8,0:0:0:0:
349,143,128708,1,8,0:0:0:0:
349,143,129655,1,8,0:0:0:0:
349,143,130602,1,8,0:0:0:0:
349,143,131550,1,12,0:0:0:0:
