osu file format v14

[General]
AudioFilename: audio.mp3
AudioLeadIn: 0
PreviewTime: 77550
Countdown: 0
SampleSet: Normal
StackLeniency: 0.7
Mode: 1
LetterboxInBreaks: 0
WidescreenStoryboard: 0

[Editor]
Bookmarks: 31445,51340,71866,83551,94603,109761
DistanceSpacing: 1.5
BeatDivisor: 4
GridSize: 32
TimelineZoom: 3

[Metadata]
Title:neo kosmo
TitleUnicode:nέο κόsmo
Artist:ak+q x Street
ArtistUnicode:ak+q × Street
Creator:Shinsekai-
Version:Ipervasi
Source:Arcaea
Tags:[_Chichinya_] PhoeNiiXZ chichinya yenmaster Peaceful Ph0eNiiXZ davidminh0111 Faputa nintendo switch lowiro shirahime divided heart new world electronic instrumental neurofunk artcore video game videogame
BeatmapID:3059341
BeatmapSetID:1492497

[Difficulty]
HPDrainRate:6
CircleSize:2
OverallDifficulty:6.5
ApproachRate:10
SliderMultiplier:1.4
SliderTickRate:1

[Events]
//Background and Video events
0,0,"Arcaea.full.2811174.jpg",0,90
//Break Periods
//Storyboard Layer 0 (Background)
//Storyboard Layer 1 (Fail)
//Storyboard Layer 2 (Pass)
//Storyboard Layer 3 (Foreground)
//Storyboard Layer 4 (Overlay)
//Storyboard Sound Samples

[TimingPoints]
1130,315.789473684211,6,1,2,100,1,0
1287,-100,6,1,0,35,0,0
8630,-100,6,1,2,50,0,0
8945,-100,6,1,0,50,0,0
16208,-100,6,1,2,50,0,0
16366,-100,6,1,0,50,0,0
17156,-100,6,1,2,50,0,0
17314,-100,6,1,0,50,0,0
18103,-100,6,1,2,50,0,0
18261,-100,6,1,0,50,0,0
19051,-100,6,1,2,50,0,0
19208,-100,6,1,0,50,0,0
19998,-100,6,1,2,50,0,0
20156,-100,6,1,0,50,0,0
20955,-100,6,1,2,50,0,0
21103,-100,6,1,0,50,0,0
21893,-100,6,1,2,50,0,0
22051,-100,6,1,0,50,0,0
22840,-100,6,1,2,50,0,0
22998,-100,6,1,0,50,0,0
23787,-100,6,1,2,50,0,0
23945,-100,6,1,0,50,0,0
24735,-100,6,1,2,50,0,0
24893,-100,6,1,0,50,0,0
25682,-100,6,1,2,50,0,0
25840,-100,6,1,0,50,0,0
25998,-100,6,1,0,50,0,0
26630,-100,6,1,0,30,0,0
27577,-100,6,1,0,50,0,0
30301,-100,6,1,0,15,0,0
30380,-100,6,1,0,20,0,0
30458,-100,6,1,0,25,0,0
30537,-100,6,1,0,30,0,0
30616,-100,6,1,0,35,0,0
30695,-100,6,1,0,40,0,0
30774,-100,6,1,0,45,0,0
30853,-100,6,1,0,50,0,0
30932,-100,6,1,0,55,0,0
31011,-100,6,1,0,65,0,0
31090,-100,6,1,0,70,0,0
31445,315.789473684211,4,1,0,100,1,0
71866,315.789473684211,6,1,0,100,1,0
72102,-100,6,1,0,70,0,0
77471,-100,6,1,3,70,0,0
77550,-100,6,1,3,50,0,0
77629,-100,6,1,0,30,0,0
79366,-100,6,1,2,75,0,0
79523,-100,6,1,0,75,0,0
90735,-100,6,1,2,100,0,0
90893,-100,6,1,0,75,0,0
93892,-100,6,1,0,80,0,0
94050,-100,6,1,0,85,0,0
94208,-100,6,1,0,90,0,0
94366,-100,6,1,0,95,0,0
94523,-100,6,1,2,95,0,0
94602,-100,6,1,2,100,0,1
94681,-100,6,1,0,100,0,1
107866,-100,6,1,0,100,0,0
117339,-100,6,1,0,100,0,1
124839,-100,6,1,2,100,0,1
124918,-100,6,1,2,100,0,0
124997,-100,6,1,0,100,0,0
125787,-100,6,1,2,100,0,0
125945,-100,6,1,0,100,0,0
126735,-100,6,1,2,100,0,0
126893,-100,6,1,0,100,0,0
127682,-100,6,1,2,100,0,0
127840,-100,6,1,0,100,0,0
128630,-100,6,1,2,100,0,0
128788,-100,6,1,0,100,0,0
129577,-100,6,1,2,100,0,0
129735,-100,6,1,0,100,0,0
130524,-100,6,1,2,100,0,0
130682,-100,6,1,0,100,0,0

[HitObjects]
256,192,1130,5,4,0:0:0:0:
256,192,1445,1,0,0:0:0:0:
256,192,1761,1,8,0:0:0:0:
256,192,1919,1,8,0:0:0:0:
256,192,2393,1,8,0:0:0:0:
256,192,2708,1,0,0:0:0:0:
256,192,3024,1,8,0:0:0:0:
256,192,3182,1,0,0:0:0:0:
256,192,3498,1,8,0:0:0:0:
256,192,3814,1,0,0:0:0:0:
256,192,3972,1,8,0:0:0:0:
256,192,4287,1,0,0:0:0:0:
256,192,4603,1,0,0:0:0:0:
256,192,4761,1,8,0:0:0:0:
256,192,4919,1,8,0:0:0:0:
256,192,5235,1,0,0:0:0:0:
256,192,5551,1,8,0:0:0:0:
256,192,5708,1,0,0:0:0:0:
256,192,6182,1,8,0:0:0:0:
256,192,6498,1,0,0:0:0:0:
256,192,6656,1,8,0:0:0:0:
256,192,6972,1,0,0:0:0:0:
256,192,7287,1,8,0:0:0:0:
256,192,7603,1,0,0:0:0:0:
256,192,7761,1,8,0:0:0:0:
256,192,8077,1,0,0:0:0:0:
256,192,8393,5,8,0:0:0:0:
256,192,8551,1,8,0:0:0:0:
256,192,8708,5,4,0:0:0:0:
256,192,9024,1,8,0:0:0:0:
256,192,9182,1,8,0:0:0:0:
256,192,9340,1,0,0:0:0:0:
256,192,9498,1,8,0:0:0:0:
256,192,9656,1,0,0:0:0:0:
256,192,9814,1,0,0:0:0:0:
256,192,9972,1,8,0:0:0:0:
256,192,10287,1,8,0:0:0:0:
256,192,10603,1,0,0:0:0:0:
256,192,10919,1,0,0:0:0:0:
256,192,11077,1,0,0:0:0:0:
256,192,11235,1,8,0:0:0:0:
256,192,11393,1,0,0:0:0:0:
256,192,11551,1,8,0:0:0:0:
256,192,11708,1,8,0:0:0:0:
256,192,11866,1,0,0:0:0:0:
256,192,12024,1,0,0:0:0:0:
256,192,12182,1,8,0:0:0:0:
256,192,12340,1,8,0:0:0:0:
256,192,12498,1,0,0:0:0:0:
256,192,12814,1,8,0:0:0:0:
256,192,12972,1,0,0:0:0:0:
256,192,13130,1,0,0:0:0:0:
256,192,13287,1,8,0:0:0:0:
256,192,13445,1,0,0:0:0:0:
256,192,13603,1,0,0:0:0:0:
256,192,13761,1,8,0:0:0:0:
256,192,14077,1,8,0:0:0:0:
256,192,14393,1,0,0:0:0:0:
256,192,14708,1,8,0:0:0:0:
256,192,14787,1,8,0:0:0:0:
256,192,14866,1,8,0:0:0:0:
256,192,15024,1,0,0:0:0:0:
256,192,15182,1,8,0:0:0:0:
256,192,15261,1,8,0:0:0:0:
256,192,15340,1,0,0:0:0:0:
256,192,15814,1,8,0:0:0:0:
256,192,16051,1,8,0:0:0:0:
256,192,16287,1,4,0:0:0:0:
256,192,17235,1,8,0:0:0:0:
256,192,17551,1,0,0:0:0:0:
256,192,17866,1,0,0:0:0:0:
256,192,18182,1,8,0:0:0:0:
256,192,18340,1,8,0:0:0:0:
256,192,18419,1,0,0:0:0:0:
256,192,18498,1,8,0:0:0:0:
256,192,19130,1,8,0:0:0:0:
256,192,19761,1,0,0:0:0:0:
256,192,20077,1,8,0:0:0:0:
256,192,20235,1,0,0:0:0:0:
256,192,20551,1,0,0:0:0:0:
256,192,20708,1,0,0:0:0:0:
256,192,20866,1,0,0:0:0:0:
256,192,21024,1,8,0:0:0:0:
256,192,21182,1,0,0:0:0:0:
256,192,21498,1,0,0:0:0:0:
256,192,21656,1,0,0:0:0:0:
256,192,21972,1,8,0:0:0:0:
256,192,22919,1,8,0:0:0:0:
256,192,23866,1,8,0:0:0:0:
256,192,24024,1,0,0:0:0:0:
256,192,24182,1,8,0:0:0:0:
256,192,24340,1,0,0:0:0:0:
256,192,24498,1,0,0:0:0:0:
256,192,24656,1,0,0:0:0:0:
256,192,24814,1,8,0:0:0:0:
256,192,24972,1,0,0:0:0:0:
256,192,25129,1,8,0:0:0:0:
256,192,25287,1,8,0:0:0:0:
256,192,25445,1,0,0:0:0:0:
256,192,25603,1,0,0:0:0:0:
256,192,25761,1,8,0:0:0:0:
256,192,26077,1,0,0:0:0:0:
256,192,26235,1,8,0:0:0:0:
256,192,26393,1,0,0:0:0:0:
256,192,26551,1,8,0:0:0:0:
256,192,26708,1,4,0:0:0:0:
256,192,27024,1,8,0:0:0:0:
256,192,27182,1,8,0:0:0:0:
256,192,27340,1,8,0:0:0:0:
256,192,27498,1,8,0:0:0:0:
256,192,27656,1,4,0:0:0:0:
256,192,28603,1,8,0:0:0:0:
256,192,29551,1,0,0:0:0:0:
256,192,30340,1,0,0:0:0:0:
256,192,30419,1,0,0:0:0:0:
256,192,30498,1,8,0:0:0:0:
256,192,30577,1,8,0:0:0:0:
256,192,30656,1,0,0:0:0:0:
256,192,30735,1,0,0:0:0:0:
256,192,30814,1,8,0:0:0:0:
256,192,30893,1,8,0:0:0:0:
256,192,30972,1,0,0:0:0:0:
256,192,31051,1,0,0:0:0:0:
256,192,31130,1,8,0:0:0:0:
256,192,31287,1,8,0:0:0:0:
256,192,31366,1,8,0:0:0:0:
256,192,31445,1,0,0:0:0:0:
256,192,31761,1,8,0:0:0:0:
256,192,31919,1,0,0:0:0:0:
256,192,32156,1,0,0:0:0:0:
256,192,32393,1,8,0:0:0:0:
256,192,33024,1,8,0:0:0:0:
256,192,33182,1,0,0:0:0:0:
256,192,33498,1,0,0:0:0:0:
256,192,33656,1,8,0:0:0:0:
256,192,33708,1,8,0:0:0:0:
256,192,33761,1,8,0:0:0:0:
256,192,33814,1,0,0:0:0:0:
256,192,33893,1,0,0:0:0:0:
256,192,33972,1,8,0:0:0:0:
256,192,34051,1,8,0:0:0:0:
256,192,34130,1,0,0:0:0:0:
256,192,34287,1,8,0:0:0:0:
256,192,34445,1,0,0:0:0:0:
256,192,34524,1,8,0:0:0:0:
256,192,34603,1,8,0:0:0:0:
262,193,34682,1,0,0:0:0:0:
256,192,34761,1,0,0:0:0:0:
262,193,34919,1,8,0:0:0:0:
256,192,35393,1,0,0:0:0:0:
256,192,35551,1,8,0:0:0:0:
262,193,35708,1,0,0:0:0:0:
256,192,35787,1,0,0:0:0:0:
262,193,35866,1,0,0:0:0:0:
256,192,36024,1,0,0:0:0:0:
256,192,36182,1,8,0:0:0:0:
256,192,36340,1,0,0:0:0:0:
256,192,36419,1,8,0:0:0:0:
256,192,36498,1,0,0:0:0:0:
262,193,36656,1,8,0:0:0:0:
256,192,36814,1,8,0:0:0:0:
256,192,36972,1,0,0:0:0:0:
256,192,37208,1,0,0:0:0:0:
256,192,37445,1,8,0:0:0:0:
256,192,38077,1,8,0:0:0:0:
256,192,38235,1,0,0:0:0:0:
256,192,38551,1,0,0:0:0:0:
256,192,38708,1,8,0:0:0:0:
256,192,38761,1,8,0:0:0:0:
256,192,38814,1,8,0:0:0:0:
256,192,38866,1,0,0:0:0:0:
256,192,38945,1,0,0:0:0:0:
256,192,39024,1,8,0:0:0:0:
256,192,39103,1,8,0:0:0:0:
256,192,39182,1,0,0:0:0:0:
256,192,39340,1,8,0:0:0:0:
256,192,39497,1,0,0:0:0:0:
256,192,39576,1,0,0:0:0:0:
256,192,39655,1,8,0:0:0:0:
256,192,39734,1,0,0:0:0:0:
256,192,39813,1,8,0:0:0:0:
256,192,39892,1,8,0:0:0:0:
256,192,39971,1,0,0:0:0:0:
256,192,40208,1,0,0:0:0:0:
256,192,40445,1,0,0:0:0:0:
256,192,40523,1,8,0:0:0:0:
256,192,40602,1,8,0:0:0:0:
256,192,40681,1,0,0:0:0:0:
256,192,40918,1,8,0:0:0:0:
256,192,41076,1,0,0:0:0:0:
256,192,41155,1,0,0:0:0:0:
256,192,41234,1,8,0:0:0:0:
256,192,41392,1,0,0:0:0:0:
256,192,41445,1,8,0:0:0:0:
256,192,41497,1,8,0:0:0:0:
256,192,41550,1,0,0:0:0:0:
256,192,41708,1,8,0:0:0:0:
256,192,41760,1,0,0:0:0:0:
256,192,41813,1,0,0:0:0:0:
256,192,41866,1,8,0:0:0:0:
256,192,42023,1,0,0:0:0:0:
256,192,42102,1,0,0:0:0:0:
256,192,42181,1,8,0:0:0:0:
256,192,42260,1,8,0:0:0:0:
256,192,42339,1,0,0:0:0:0:
256,192,42418,1,0,0:0:0:0:
256,192,42497,1,8,0:0:0:0:
256,192,43129,1,8,0:0:0:0:
256,192,43287,1,0,0:0:0:0:
256,192,43366,1,0,0:0:0:0:
256,192,43445,1,8,0:0:0:0:
256,192,43523,1,8,0:0:0:0:
256,192,43602,1,0,0:0:0:0:
256,192,43681,1,0,0:0:0:0:
256,192,43760,1,8,0:0:0:0:
256,192,43813,1,8,0:0:0:0:
256,192,43866,1,8,0:0:0:0:
256,192,43918,1,0,0:0:0:0:
256,192,43997,1,0,0:0:0:0:
256,192,44076,1,8,0:0:0:0:
256,192,44234,1,0,0:0:0:0:
256,192,44392,1,8,0:0:0:0:
256,192,44550,1,0,0:0:0:0:
256,192,44708,1,8,0:0:0:0:
256,192,44747,1,8,0:0:0:0:
256,192,44866,1,0,0:0:0:0:
256,192,44905,1,0,0:0:0:0:
256,192,45023,1,8,0:0:0:0:
256,192,45076,1,8,0:0:0:0:
256,192,45129,1,8,0:0:0:0:
256,191,45181,1,0,0:0:0:0:
256,192,45260,1,0,0:0:0:0:
256,192,45339,1,8,0:0:0:0:
256,192,45379,1,8,0:0:0:0:
256,192,45497,1,0,0:0:0:0:
256,192,45537,1,0,0:0:0:0:
256,192,45655,1,8,0:0:0:0:
256,192,45708,1,8,0:0:0:0:
256,192,45760,1,8,0:0:0:0:
256,192,45813,1,0,0:0:0:0:
256,192,45892,1,0,0:0:0:0:
256,192,45971,1,8,0:0:0:0:
256,192,46129,1,8,0:0:0:0:
256,192,46208,1,0,0:0:0:0:
256,192,46287,1,8,0:0:0:0:
256,192,46366,1,0,0:0:0:0:
256,192,46445,1,8,0:0:0:0:
256,192,46523,1,8,0:0:0:0:
256,192,46602,1,0,0:0:0:0:
256,192,46760,1,8,0:0:0:0:
256,192,46839,1,0,0:0:0:0:
256,192,46918,1,8,0:0:0:0:
256,192,47076,1,0,0:0:0:0:
256,192,47234,1,8,0:0:0:0:
256,192,47313,1,0,0:0:0:0:
256,192,47392,1,0,0:0:0:0:
256,192,47471,1,0,0:0:0:0:
256,192,47550,1,8,0:0:0:0:
256,192,48181,1,8,0:0:0:0:
256,192,48339,1,0,0:0:0:0:
256,192,48497,1,8,0:0:0:0:
256,192,48576,1,8,0:0:0:0:
256,192,48655,1,0,0:0:0:0:
256,192,48734,1,0,0:0:0:0:
256,192,48813,1,8,0:0:0:0:
256,192,48866,1,8,0:0:0:0:
256,192,48918,1,8,0:0:0:0:
256,192,48971,1,0,0:0:0:0:
256,192,49050,1,0,0:0:0:0:
256,192,49129,1,8,0:0:0:0:
256,192,49208,1,8,0:0:0:0:
256,192,49287,1,0,0:0:0:0:
256,192,49445,1,8,0:0:0:0:
256,192,49602,1,0,0:0:0:0:
256,192,49839,1,8,0:0:0:0:
256,192,50076,1,0,0:0:0:0:
256,192,50313,1,0,0:0:0:0:
256,192,50550,1,0,0:0:0:0:
256,192,50629,1,8,0:0:0:0:
256,192,50708,1,8,0:0:0:0:
256,192,50787,1,0,0:0:0:0:
256,192,51023,1,8,0:0:0:0:
256,192,51181,1,0,0:0:0:0:
256,192,51260,5,0,0:0:0:0:
256,192,51339,1,8,0:0:0:0:
256,192,51656,5,4,0:0:0:0:
256,192,51814,1,8,0:0:0:0:
256,192,51853,1,8,0:0:0:0:
256,192,51972,1,0,0:0:0:0:
256,192,52130,1,8,0:0:0:0:
256,192,52208,1,8,0:0:0:0:
256,192,52287,1,0,0:0:0:0:
256,192,52445,1,8,0:0:0:0:
256,192,52603,1,0,0:0:0:0:
256,192,52760,1,8,0:0:0:0:
256,192,52919,1,8,0:0:0:0:
256,192,52998,1,8,0:0:0:0:
256,192,53077,1,0,0:0:0:0:
256,192,53156,1,8,0:0:0:0:
256,192,53235,1,0,0:0:0:0:
256,192,53393,1,0,0:0:0:0:
256,192,53551,1,8,0:0:0:0:
256,192,53708,1,0,0:0:0:0:
256,192,53787,1,8,0:0:0:0:
256,192,53945,1,8,0:0:0:0:
256,192,54024,1,0,0:0:0:0:
256,192,54182,1,8,0:0:0:0:
256,192,54340,1,0,0:0:0:0:
256,192,54498,1,8,0:0:0:0:
256,192,54656,1,0,0:0:0:0:
256,192,54814,1,0,0:0:0:0:
256,192,55130,1,8,0:0:0:0:
256,192,55287,1,0,0:0:0:0:
256,192,55366,1,0,0:0:0:0:
256,192,55445,1,8,0:0:0:0:
256,192,55523,1,8,0:0:0:0:
256,192,55602,1,0,0:0:0:0:
256,192,55761,1,0,0:0:0:0:
256,192,55919,1,8,0:0:0:0:
256,192,56077,1,0,0:0:0:0:
256,192,56235,1,8,0:0:0:0:
256,192,56393,1,0,0:0:0:0:
256,192,56551,1,0,0:0:0:0:
256,192,56603,1,0,0:0:0:0:
256,192,56656,1,0,0:0:0:0:
256,192,56708,1,8,0:0:0:0:
256,192,56866,1,0,0:0:0:0:
256,192,57182,1,0,0:0:0:0:
256,192,57340,1,8,0:0:0:0:
256,192,57498,1,0,0:0:0:0:
256,192,57656,1,8,0:0:0:0:
256,192,57708,1,8,0:0:0:0:
256,192,57761,1,8,0:0:0:0:
256,192,57814,1,8,0:0:0:0:
256,192,57866,1,8,0:0:0:0:
256,192,57919,1,8,0:0:0:0:
256,192,57972,1,0,0:0:0:0:
256,192,58208,1,0,0:0:0:0:
256,192,58287,1,8,0:0:0:0:
256,192,58445,1,0,0:0:0:0:
256,192,58603,1,8,0:0:0:0:
256,192,58761,1,0,0:0:0:0:
256,192,58840,1,0,0:0:0:0:
256,192,58919,1,8,0:0:0:0:
256,192,58998,1,0,0:0:0:0:
256,192,59077,1,8,0:0:0:0:
256,192,59235,1,0,0:0:0:0:
256,192,59393,1,8,0:0:0:0:
256,192,59551,1,0,0:0:0:0:
256,192,59630,1,8,0:0:0:0:
256,192,59708,1,0,0:0:0:0:
256,192,59866,1,8,0:0:0:0:
256,192,60024,1,0,0:0:0:0:
256,192,60103,1,0,0:0:0:0:
256,192,60182,1,0,0:0:0:0:
256,192,60340,1,8,0:0:0:0:
256,192,60498,1,0,0:0:0:0:
256,192,60656,1,8,0:0:0:0:
256,192,60814,1,0,0:0:0:0:
256,192,60893,1,0,0:0:0:0:
256,192,60972,1,8,0:0:0:0:
256,192,61130,1,0,0:0:0:0:
256,192,61287,1,8,0:0:0:0:
256,192,61340,1,8,0:0:0:0:
256,192,61393,1,8,0:0:0:0:
256,192,61445,1,8,0:0:0:0:
256,192,61523,1,0,0:0:0:0:
256,192,61761,1,0,0:0:0:0:
256,192,61918,1,0,0:0:0:0:
256,192,61997,1,8,0:0:0:0:
256,192,62077,1,8,0:0:0:0:
256,192,62235,1,0,0:0:0:0:
256,192,62393,1,8,0:0:0:0:
256,192,62551,1,8,0:0:0:0:
256,192,62708,1,0,0:0:0:0:
256,192,62787,1,0,0:0:0:0:
256,192,62866,1,8,0:0:0:0:
256,192,62919,1,0,0:0:0:0:
256,192,62972,1,0,0:0:0:0:
256,192,63023,1,8,0:0:0:0:
256,192,63182,1,0,0:0:0:0:
256,192,63340,1,0,0:0:0:0:
256,192,63393,1,0,0:0:0:0:
256,192,63445,1,0,0:0:0:0:
256,192,63498,1,8,0:0:0:0:
256,192,63656,1,0,0:0:0:0:
256,192,63814,1,8,0:0:0:0:
256,192,63972,1,8,0:0:0:0:
256,192,64024,1,8,0:0:0:0:
256,192,64077,1,8,0:0:0:0:
256,192,64130,1,8,0:0:0:0:
256,192,64182,1,8,0:0:0:0:
256,192,64235,1,8,0:0:0:0:
256,192,64287,1,0,0:0:0:0:
256,192,64760,1,0,0:0:0:0:
256,192,65234,1,0,0:0:0:0:
256,192,65391,1,8,0:0:0:0:
256,192,65444,1,8,0:0:0:0:
256,192,65497,1,8,0:0:0:0:
256,192,65550,1,0,0:0:0:0:
256,192,65708,1,0,0:0:0:0:
256,192,65945,1,0,0:0:0:0:
256,192,66024,1,8,0:0:0:0:
256,192,66182,1,0,0:0:0:0:
256,192,66340,1,0,0:0:0:0:
256,192,66393,1,0,0:0:0:0:
256,192,66445,1,0,0:0:0:0:
256,192,66498,1,8,0:0:0:0:
256,192,66656,1,0,0:0:0:0:
256,192,66814,1,0,0:0:0:0:
256,192,66972,1,8,0:0:0:0:
256,192,67130,1,0,0:0:0:0:
256,192,67208,1,0,0:0:0:0:
256,192,67287,1,8,0:0:0:0:
256,192,67366,1,8,0:0:0:0:
256,192,67445,1,0,0:0:0:0:
256,192,67524,1,0,0:0:0:0:
256,192,67603,1,8,0:0:0:0:
256,192,67761,1,0,0:0:0:0:
256,192,67919,1,8,0:0:0:0:
256,192,68077,1,0,0:0:0:0:
256,192,68235,1,0,0:0:0:0:
256,192,68287,1,0,0:0:0:0:
256,192,68340,1,0,0:0:0:0:
256,192,68393,1,8,0:0:0:0:
256,192,68551,1,0,0:0:0:0:
256,192,68630,1,8,0:0:0:0:
256,192,68708,1,0,0:0:0:0:
256,192,68787,1,0,0:0:0:0:
256,192,68866,1,8,0:0:0:0:
256,192,69024,1,0,0:0:0:0:
256,192,69182,1,0,0:0:0:0:
256,192,69340,1,8,0:0:0:0:
256,192,69419,1,0,0:0:0:0:
256,192,69577,1,0,0:0:0:0:
256,192,69734,1,0,0:0:0:0:
256,192,69814,1,8,0:0:0:0:
256,192,69893,1,8,0:0:0:0:
256,192,69971,1,0,0:0:0:0:
268,184,70287,1,8,0:0:0:0:
256,192,70445,1,0,0:0:0:0:
256,192,70524,1,8,0:0:0:0:
256,192,70603,1,0,0:0:0:0:
256,192,70761,1,8,0:0:0:0:
256,192,70919,1,0,0:0:0:0:
256,192,70998,1,8,0:0:0:0:
256,192,71077,1,0,0:0:0:0:
256,192,71235,1,8,0:0:0:0:
256,192,71393,1,0,0:0:0:0:
256,192,71551,1,8,0:0:0:0:
256,192,71708,1,0,0:0:0:0:
256,192,71787,1,0,0:0:0:0:
256,192,71866,1,12,0:0:0:0:
256,192,72181,1,0,0:0:0:0:
256,192,72497,1,8,0:0:0:0:
256,192,72655,1,8,0:0:0:0:
256,192,72813,1,0,0:0:0:0:
256,192,73444,1,0,0:0:0:0:
256,192,73602,1,8,0:0:0:0:
256,192,73918,1,0,0:0:0:0:
256,192,74234,1,8,0:0:0:0:
256,192,74392,1,0,0:0:0:0:
256,192,74550,1,0,0:0:0:0:
256,192,74708,1,8,0:0:0:0:
263,194,74866,1,8,0:0:0:0:
256,192,75023,1,0,0:0:0:0:
256,192,75339,1,0,0:0:0:0:
256,192,75655,1,8,0:0:0:0:
263,194,75813,1,8,0:0:0:0:
256,192,75971,1,0,0:0:0:0:
256,192,76129,1,0,0:0:0:0:
256,192,76287,1,8,0:0:0:0:
256,192,76444,1,8,0:0:0:0:
256,192,76602,1,0,0:0:0:0:
256,192,76918,1,8,0:0:0:0:
256,192,77076,1,0,0:0:0:0:
256,192,77234,1,8,0:0:0:0:
256,192,77392,1,8,0:0:0:0:
256,192,77550,1,4,0:0:0:0:
256,192,77866,1,0,0:0:0:0:
256,192,78023,1,0,0:0:0:0:
256,192,78181,1,0,0:0:0:0:
256,192,78339,1,8,0:0:0:0:
256,192,78418,1,8,0:0:0:0:
256,192,78497,1,0,0:0:0:0:
256,192,78971,1,8,0:0:0:0:
256,192,79129,1,8,0:0:0:0:
256,192,79287,1,8,0:0:0:0:
256,192,79444,1,4,0:0:0:0:
256,192,79760,1,8,0:0:0:0:
256,192,80076,1,8,0:0:0:0:
256,192,80313,1,0,0:0:0:0:
256,192,80392,1,0,0:0:0:0:
256,192,80550,1,8,0:0:0:0:
256,192,80708,1,0,0:0:0:0:
256,192,80866,1,0,0:0:0:0:
256,192,81023,1,8,0:0:0:0:
256,192,81181,1,0,0:0:0:0:
256,192,81339,1,8,0:0:0:0:
256,192,81497,1,0,0:0:0:0:
256,192,81655,1,8,0:0:0:0:
256,192,81813,1,8,0:0:0:0:
256,192,82129,1,0,0:0:0:0:
256,192,82287,1,8,0:0:0:0:
256,192,82444,1,0,0:0:0:0:
256,192,82602,1,8,0:0:0:0:
256,192,82760,1,8,0:0:0:0:
256,192,82918,1,8,0:0:0:0:
256,192,83076,1,0,0:0:0:0:
256,192,83155,5,0,0:0:0:0:
256,192,83234,1,8,0:0:0:0:
256,192,83551,5,8,0:0:0:0:
256,192,83866,1,8,0:0:0:0:
256,192,84024,1,0,0:0:0:0:
256,192,84103,1,8,0:0:0:0:
256,192,84182,1,0,0:0:0:0:
256,192,84340,1,0,0:0:0:0:
256,192,84498,1,8,0:0:0:0:
256,192,84656,1,0,0:0:0:0:
256,192,84814,1,8,0:0:0:0:
256,192,84972,1,8,0:0:0:0:
256,192,85130,1,0,0:0:0:0:
256,192,85445,1,8,0:0:0:0:
256,192,85603,1,0,0:0:0:0:
256,192,85761,1,8,0:0:0:0:
256,192,86077,1,0,0:0:0:0:
256,192,86393,1,8,0:0:0:0:
256,192,86551,1,0,0:0:0:0:
256,192,86708,1,8,0:0:0:0:
256,192,86866,1,8,0:0:0:0:
256,192,87024,1,0,0:0:0:0:
256,192,87340,1,8,0:0:0:0:
256,192,87497,1,0,0:0:0:0:
256,192,87576,1,0,0:0:0:0:
256,192,87656,1,8,0:0:0:0:
256,192,87814,1,0,0:0:0:0:
256,192,87972,1,0,0:0:0:0:
256,192,88287,1,8,0:0:0:0:
256,192,88445,1,0,0:0:0:0:
256,192,88603,1,8,0:0:0:0:
256,192,88761,1,8,0:0:0:0:
256,192,88919,1,0,0:0:0:0:
256,192,89235,1,8,0:0:0:0:
256,192,89393,1,0,0:0:0:0:
256,192,89551,1,8,0:0:0:0:
256,192,89708,1,8,0:0:0:0:
256,192,89787,1,8,0:0:0:0:
256,192,89866,1,0,0:0:0:0:
256,192,90102,1,8,0:0:0:0:
256,192,90340,1,8,0:0:0:0:
256,192,90576,1,8,0:0:0:0:
256,192,90814,1,4,0:0:0:0:
256,192,91130,1,8,0:0:0:0:
256,192,91366,1,8,0:0:0:0:
256,192,91445,1,8,0:0:0:0:
256,192,91682,1,8,0:0:0:0:
256,192,91761,1,0,0:0:0:0:
256,192,91919,1,0,0:0:0:0:
256,192,92077,1,8,0:0:0:0:
256,192,92235,1,8,0:0:0:0:
256,192,92314,1,0,0:0:0:0:
256,192,92393,1,8,0:0:0:0:
256,192,92551,1,0,0:0:0:0:
256,192,92708,1,0,0:0:0:0:
256,192,92945,1,8,0:0:0:0:
256,192,93024,1,8,0:0:0:0:
256,192,93261,1,0,0:0:0:0:
256,192,93340,1,8,0:0:0:0:
256,192,93498,1,8,0:0:0:0:
256,192,93656,1,0,0:0:0:0:
256,192,93972,1,8,0:0:0:0:
256,192,94130,1,8,0:0:0:0:
256,192,94287,1,8,0:0:0:0:
256,192,94445,1,8,0:0:0:0:
256,192,94602,1,4,0:0:0:0:
256,192,94918,1,0,0:0:0:0:
256,192,95076,1,8,0:0:0:0:
256,192,95155,1,8,0:0:0:0:
256,192,95234,1,0,0:0:0:0:
256,192,95392,1,0,0:0:0:0:
256,192,95550,1,8,0:0:0:0:
256,192,95708,1,0,0:0:0:0:
256,192,95787,1,0,0:0:0:0:
256,192,95866,1,8,0:0:0:0:
256,192,95944,1,8,0:0:0:0:
256,192,96023,1,0,0:0:0:0:
256,192,96181,1,8,0:0:0:0:
256,192,96339,1,8,0:0:0:0:
256,192,96497,1,0,0:0:0:0:
256,192,96813,1,0,0:0:0:0:
256,192,96971,1,8,0:0:0:0:
256,192,97050,1,8,0:0:0:0:
256,192,97129,1,0,0:0:0:0:
256,192,97287,1,0,0:0:0:0:
256,192,97444,1,8,0:0:0:0:
256,192,97602,1,0,0:0:0:0:
256,192,97681,1,0,0:0:0:0:
256,192,97760,1,8,0:0:0:0:
256,192,97918,1,8,0:0:0:0:
256,192,97997,1,0,0:0:0:0:
256,192,98076,1,8,0:0:0:0:
256,192,98234,1,0,0:0:0:0:
256,192,98392,1,8,0:0:0:0:
256,192,98708,1,0,0:0:0:0:
256,192,98866,1,8,0:0:0:0:
256,192,98944,1,8,0:0:0:0:
256,192,99023,1,0,0:0:0:0:
256,192,99181,1,0,0:0:0:0:
256,192,99339,1,8,0:0:0:0:
256,192,99497,1,0,0:0:0:0:
256,192,99576,1,0,0:0:0:0:
256,192,99655,1,8,0:0:0:0:
256,192,99734,1,8,0:0:0:0:
256,192,99813,1,0,0:0:0:0:
256,192,99971,1,8,0:0:0:0:
256,192,100129,1,0,0:0:0:0:
256,192,100208,1,0,0:0:0:0:
256,192,100287,1,8,0:0:0:0:
256,192,100444,1,0,0:0:0:0:
256,192,100602,1,8,0:0:0:0:
256,192,100681,1,8,0:0:0:0:
256,192,100760,1,0,0:0:0:0:
256,192,100839,1,0,0:0:0:0:
256,192,100918,1,8,0:0:0:0:
256,192,101076,1,8,0:0:0:0:
256,192,101234,1,0,0:0:0:0:
256,192,101392,1,0,0:0:0:0:
256,192,101471,1,0,0:0:0:0:
256,192,101550,1,8,0:0:0:0:
256,192,101708,1,8,0:0:0:0:
256,192,101787,1,0,0:0:0:0:
256,192,101866,1,8,0:0:0:0:
256,192,102023,1,0,0:0:0:0:
256,192,102181,1,8,0:0:0:0:
256,192,102497,1,0,0:0:0:0:
256,192,102655,1,8,0:0:0:0:
256,192,102734,1,8,0:0:0:0:
256,192,102813,1,0,0:0:0:0:
256,192,102971,1,0,0:0:0:0:
256,192,103129,1,8,0:0:0:0:
256,192,103208,1,8,0:0:0:0:
256,192,103287,1,0,0:0:0:0:
256,192,103366,1,0,0:0:0:0:
256,192,103444,1,8,0:0:0:0:
256,192,103602,1,8,0:0:0:0:
256,192,103760,1,0,0:0:0:0:
256,192,103918,1,0,0:0:0:0:
256,192,103997,1,0,0:0:0:0:
256,192,104076,1,8,0:0:0:0:
256,192,104234,1,0,0:0:0:0:
256,192,104392,1,8,0:0:0:0:
256,192,104550,1,0,0:0:0:0:
256,192,104629,1,0,0:0:0:0:
256,192,104708,1,8,0:0:0:0:
256,192,104787,1,8,0:0:0:0:
256,192,104866,1,0,0:0:0:0:
256,192,105023,1,8,0:0:0:0:
256,192,105181,1,0,0:0:0:0:
256,192,105260,1,0,0:0:0:0:
256,192,105339,1,8,0:0:0:0:
256,192,105497,1,8,0:0:0:0:
256,192,105576,1,0,0:0:0:0:
256,192,105655,1,8,0:0:0:0:
256,192,105813,1,0,0:0:0:0:
256,192,105971,1,8,0:0:0:0:
256,192,106287,1,0,0:0:0:0:
256,192,106444,1,8,0:0:0:0:
256,192,106523,1,8,0:0:0:0:
256,192,106602,1,0,0:0:0:0:
256,192,106760,1,0,0:0:0:0:
256,192,106918,1,8,0:0:0:0:
256,192,106997,1,8,0:0:0:0:
256,192,107076,1,0,0:0:0:0:
256,192,107234,1,8,0:0:0:0:
256,192,107313,1,0,0:0:0:0:
256,192,107392,1,8,0:0:0:0:
256,192,107550,1,0,0:0:0:0:
256,192,107629,1,0,0:0:0:0:
256,192,107708,1,8,0:0:0:0:
256,192,107866,1,4,0:0:0:0:
256,192,108339,1,4,0:0:0:0:
256,192,108813,1,12,0:0:0:0:
256,192,109129,1,4,0:0:0:0:
256,192,109444,5,8,0:0:0:0:
256,192,109761,5,4,0:0:0:0:
256,192,110235,1,0,0:0:0:0:
256,192,110708,1,8,0:0:0:0:
256,192,111024,1,0,0:0:0:0:
256,192,111340,1,0,0:0:0:0:
256,192,111498,1,8,0:0:0:0:
256,192,111656,1,0,0:0:0:0:
256,192,111814,1,8,0:0:0:0:
256,192,111893,1,8,0:0:0:0:
256,192,111972,1,0,0:0:0:0:
256,192,112130,1,8,0:0:0:0:
256,192,112445,1,0,0:0:0:0:
256,192,112603,1,8,0:0:0:0:
256,192,112919,1,0,0:0:0:0:
256,192,113235,1,0,0:0:0:0:
256,192,113313,1,0,0:0:0:0:
256,192,113392,1,0,0:0:0:0:
256,192,113471,1,0,0:0:0:0:
256,192,113551,1,12,0:0:0:0:
256,192,113866,1,12,0:0:0:0:
256,192,114182,1,4,0:0:0:0:
256,192,114498,1,12,0:0:0:0:
256,192,114814,1,4,0:0:0:0:
256,192,115130,1,4,0:0:0:0:
256,192,115445,1,12,0:0:0:0:
256,192,115761,1,8,0:0:0:0:
256,192,115840,1,8,0:0:0:0:
256,192,115919,1,0,0:0:0:0:
256,192,116077,1,8,0:0:0:0:
256,192,116235,1,8,0:0:0:0:
256,192,116393,1,0,0:0:0:0:
256,192,116551,1,8,0:0:0:0:
256,192,116630,1,0,0:0:0:0:
256,192,116787,1,8,0:0:0:0:
256,192,116866,1,0,0:0:0:0:
256,192,117024,1,8,0:0:0:0:
256,192,117103,1,0,0:0:0:0:
256,192,117182,1,0,0:0:0:0:
256,192,117261,1,0,0:0:0:0:
256,192,117340,1,12,0:0:0:0:
256,192,117656,1,0,0:0:0:0:
256,192,117814,1,8,0:0:0:0:
256,192,117893,1,8,0:0:0:0:
256,192,117972,1,0,0:0:0:0:
256,192,118130,1,0,0:0:0:0:
256,192,118287,1,8,0:0:0:0:
256,192,118445,1,0,0:0:0:0:
256,192,118524,1,8,0:0:0:0:
256,192,118603,1,0,0:0:0:0:
256,192,118761,1,0,0:0:0:0:
256,192,118919,1,8,0:0:0:0:
256,192,118998,1,8,0:0:0:0:
256,192,119077,1,0,0:0:0:0:
256,192,119156,1,8,0:0:0:0:
256,192,119235,1,0,0:0:0:0:
256,192,119393,1,8,0:0:0:0:
250,196,119471,1,0,0:0:0:0:
256,192,119551,1,8,0:0:0:0:
256,192,119630,1,8,0:0:0:0:
256,192,119708,1,0,0:0:0:0:
256,192,119866,1,8,0:0:0:0:
256,192,120024,1,0,0:0:0:0:
256,192,120103,1,0,0:0:0:0:
256,192,120182,1,8,0:0:0:0:
256,192,120340,1,0,0:0:0:0:
256,192,120498,1,0,0:0:0:0:
256,192,120577,1,0,0:0:0:0:
256,192,120656,1,8,0:0:0:0:
256,192,120735,1,8,0:0:0:0:
256,192,120814,1,0,0:0:0:0:
256,192,120972,1,0,0:0:0:0:
256,192,121130,1,12,0:0:0:0:
256,192,121445,1,0,0:0:0:0:
256,192,121524,1,8,0:0:0:0:
256,192,121603,1,0,0:0:0:0:
256,192,121761,1,0,0:0:0:0:
256,192,121919,1,8,0:0:0:0:
256,192,122077,1,12,0:0:0:0:
256,192,122393,1,0,0:0:0:0:
256,192,122472,1,8,0:0:0:0:
256,192,122551,1,0,0:0:0:0:
256,192,122708,1,8,0:0:0:0:
256,192,122787,1,8,0:0:0:0:
256,192,122866,1,0,0:0:0:0:
256,192,122945,1,0,0:0:0:0:
256,192,123024,1,12,0:0:0:0:
256,192,123340,1,0,0:0:0:0:
256,192,123656,1,0,0:0:0:0:
256,192,123972,1,12,0:0:0:0:
256,192,124287,1,0,0:0:0:0:
256,192,124603,1,0,0:0:0:0:
256,192,124682,1,0,0:0:0:0:
256,192,124761,1,0,0:0:0:0:
256,192,124840,1,0,0:0:0:0:
256,192,124919,1,12,0:0:0:0:
256,192,125866,1,8,0:0:0:0:
256,192,126814,1,8,0:0:0:0:
256,192,127761,1,8,0:0:0:0:
256,192,128708,1,8,0:0:0:0:
256,192,129656,1,8,0:0:0:0:
256,192,130603,1,8,0:0:0:0:
256,192,131551,1,4,0:0:0:0:
