osu file format v14

[General]
AudioFilename: vexaria 192.mp3
AudioLeadIn: 0
PreviewTime: 31134
Countdown: 0
SampleSet: None
StackLeniency: 0.2
Mode: 0
LetterboxInBreaks: 1
WidescreenStoryboard: 1

[Editor]
Bookmarks: 801,17468,31133,45131,55798,66465,81131,90465,95465,109464
DistanceSpacing: 1
BeatDivisor: 4
GridSize: 32
TimelineZoom: 1.1

[Metadata]
Title:Vexaria
TitleUnicode:Vexaria
Artist:ak+q
ArtistUnicode:ak+q
Creator:nold_1702
Version:nold_1702
Source:Arcaea
Tags:mmc mmc3 modhelp mapping contest artcore
BeatmapID:1626544
BeatmapSetID:773804

[Difficulty]
HPDrainRate:4
CircleSize:4
OverallDifficulty:8
ApproachRate:9.6
SliderMultiplier:1.6
SliderTickRate:1

[Events]
//Background and Video events
0,0,"piano 1600.jpg",0,0
//Break Periods
//Storyboard Layer 0 (Background)
//Storyboard Layer 1 (Fail)
//Storyboard Layer 2 (Pass)
//Storyboard Layer 3 (Foreground)
//Storyboard Sound Samples

[TimingPoints]
135,333.333333333333,4,2,0,100,1,0
135,-25,4,2,0,30,0,0
218,-1000,4,2,0,100,0,0
468,-28.5714285714286,4,2,0,10,0,0
801,-285.714285714286,4,1,0,40,0,0
968,-285.714285714286,4,1,0,20,0,0
1301,-285.714285714286,4,1,0,40,0,0
1468,-285.714285714286,4,1,0,20,0,0
1634,-285.714285714286,4,2,0,40,0,0
1801,-285.714285714286,4,1,0,20,0,0
1968,-285.714285714286,4,2,0,40,0,0
2134,-285.714285714286,4,1,0,20,0,0
2301,-285.714285714286,4,2,0,20,0,0
3134,-153.846153846154,4,2,0,40,0,0
3634,-285.714285714286,4,1,0,20,0,0
3968,-285.714285714286,4,2,0,40,0,0
4134,-285.714285714286,4,1,0,20,0,0
4301,-285.714285714286,4,2,0,20,0,0
4468,-285.714285714286,4,1,0,20,0,0
4634,-454.545454545455,4,2,0,40,0,0
5468,-285.714285714286,4,1,0,20,0,0
5634,-285.714285714286,4,2,0,40,0,0
5801,-285.714285714286,4,1,0,40,0,0
6134,-285.714285714286,4,2,0,50,0,0
6301,-285.714285714286,4,1,0,20,0,0
6634,-285.714285714286,4,2,0,40,0,0
6801,-285.714285714286,4,1,0,20,0,0
6968,-285.714285714286,4,2,0,40,0,0
7134,-285.714285714286,4,2,0,20,0,0
7801,-200,4,2,0,40,0,0
8634,-285.714285714286,4,1,0,20,0,0
8801,-285.714285714286,4,2,0,40,0,0
8968,-285.714285714286,4,1,0,20,0,0
9301,-285.714285714286,4,2,0,40,0,0
9468,-285.714285714286,4,1,0,20,0,0
9634,-285.714285714286,4,2,0,40,0,0
9801,-285.714285714286,4,1,0,20,0,0
9968,-285.714285714286,4,2,0,40,0,0
10134,-285.714285714286,4,1,0,20,0,0
10634,-285.714285714286,4,2,0,40,0,0
10801,-285.714285714286,4,1,0,20,0,0
10968,-285.714285714286,4,2,0,40,0,0
11134,-285.714285714286,4,1,0,20,0,0
11301,-200,4,2,0,40,0,0
11801,-200,4,1,0,20,0,0
12134,-200,4,2,0,40,0,0
12634,-200,4,1,0,20,0,0
12801,-200,4,2,0,40,0,0
13301,-200,4,1,0,20,0,0
13468,-200,4,2,0,40,0,0
13968,-200,4,1,0,20,0,0
14134,-200,4,2,0,40,0,0
15134,-200,4,2,0,60,0,0
16468,-200,4,1,0,40,0,0
16634,-200,4,1,2,60,0,0
16801,-100,4,1,0,40,0,0
17134,-50,4,1,2,80,0,0
17468,333.333333333333,4,2,0,70,1,0
17468,-74.0740740740741,4,2,0,65,0,0
17801,-200,4,2,2,70,0,0
17968,-74.0740740740741,4,2,0,70,0,0
18301,-200,4,2,2,70,0,0
18801,-55.5555555555556,4,2,1,70,0,0
19134,-133.333333333333,4,2,0,70,0,0
19301,-80,4,1,0,70,0,0
19467,-80,4,2,0,70,0,0
19967,-80,4,1,1,70,0,0
20134,-66.6666666666667,4,2,0,70,0,0
20467,-200,4,2,2,70,0,0
20634,-66.6666666666667,4,2,0,70,0,0
20967,-200,4,2,2,70,0,0
21467,-133.333333333333,4,2,2,70,0,0
22634,-133.333333333333,4,2,1,70,0,0
22801,-66.6666666666667,4,2,0,70,0,0
23134,-200,4,2,2,70,0,0
23301,-66.6666666666667,4,2,0,70,0,0
23634,-200,4,2,2,70,0,0
24301,-50,4,1,2,70,0,0
24634,-100,4,2,0,70,0,0
24967,-100,4,2,2,70,0,0
25467,-66.6666666666667,4,2,0,70,0,0
25801,-200,4,2,2,70,0,0
25967,-62.5,4,2,0,70,0,0
26301,-200,4,2,2,70,0,0
27134,-100,4,2,2,70,0,0
27467,333.333333333333,4,2,0,70,1,0
28300,-80,4,2,0,70,0,0
30800,-200,4,2,0,100,0,0
31133,333.333333333333,4,2,0,100,1,0
31133,-52.6315789473684,4,1,0,80,0,0
31966,-50,4,1,0,80,0,0
32466,-50,4,1,0,80,0,0
33299,-50,4,1,0,80,0,0
35132,-40,4,1,0,80,0,0
35632,-50,4,1,0,80,0,0
37799,-40,4,1,0,80,0,0
38632,-50,4,1,0,80,0,0
38799,-50,4,1,2,80,0,0
39132,-43.4782608695652,4,1,0,80,0,0
39799,-50,4,1,0,80,0,0
41132,333.333333333333,4,1,0,80,1,0
41132,-66.6666666666667,4,1,0,80,0,0
41465,-50,4,1,0,80,0,0
41715,-66.6666666666667,4,1,0,80,0,0
42298,-43.4782608695652,4,1,0,80,0,0
42965,-50,4,1,0,80,0,0
43465,-100,4,1,0,80,0,0
44465,-133.333333333333,4,2,0,30,0,0
45131,-100,4,2,0,45,0,0
45298,-100,4,2,0,70,0,0
45631,-100,4,2,0,45,0,0
45798,-100,4,2,0,70,0,0
45965,-100,4,2,0,45,0,0
46131,-100,4,2,0,70,0,0
46298,-100,4,2,0,70,0,0
46465,-100,4,2,0,45,0,0
46631,-100,4,2,0,70,0,0
46965,-100,4,2,0,45,0,0
47131,-100,4,2,0,70,0,0
47298,-100,4,2,0,45,0,0
47465,-100,4,2,0,70,0,0
47631,-100,4,2,0,70,0,0
47798,-100,4,2,0,45,0,0
47965,-100,4,2,0,70,0,0
48298,-100,4,2,0,45,0,0
48465,-100,4,2,0,70,0,0
48631,-100,4,2,0,45,0,0
48798,-100,4,2,0,70,0,0
48965,-100,4,2,0,70,0,0
49131,-100,4,2,0,45,0,0
49298,-100,4,2,0,70,0,0
49631,-100,4,2,0,45,0,0
49798,-100,4,2,0,70,0,0
49965,-100,4,2,0,45,0,0
50131,-100,4,2,0,70,0,0
50465,-100,4,2,0,45,0,0
50631,-100,4,2,0,70,0,0
50965,-100,4,2,0,45,0,0
51131,-100,4,2,0,70,0,0
51298,-100,4,2,0,45,0,0
51465,-100,4,2,0,70,0,0
51631,-100,4,2,0,70,0,0
51798,-80,4,2,0,45,0,0
52465,-50,4,1,0,70,0,0
53131,-100,4,2,0,45,0,0
53298,-100,4,2,0,70,0,0
53631,-100,4,2,0,45,0,0
53798,-100,4,2,0,70,0,0
53965,-100,4,2,0,45,0,0
54131,-100,4,2,0,70,0,0
54298,-100,4,2,0,70,0,0
54465,-80,4,1,0,60,0,0
55465,-50,4,2,1,100,0,0
55798,-80,4,1,0,75,0,0
58465,-71.4285714285714,4,1,0,75,0,0
58798,-80,4,1,0,75,0,0
62798,-80,4,1,0,30,0,0
63131,-50,4,1,0,75,0,0
63798,-80,4,1,0,75,0,0
66465,-100,4,1,0,70,0,0
68465,-50,4,2,0,70,0,0
68715,-66.6666666666667,4,1,0,70,0,0
74798,-100,4,1,0,70,0,0
75131,-66.6666666666667,4,1,0,70,0,0
75298,-100,4,1,0,70,0,0
75798,-166.666666666667,4,1,0,70,0,0
77131,-80,4,1,0,70,0,0
78465,-55.5555555555556,4,1,0,70,0,0
79131,-66.6666666666667,4,1,0,70,0,0
79576,-333.333333333333,4,1,0,70,0,0
80298,-100,4,1,0,70,0,0
80715,-200,4,1,0,70,0,0
81131,-200,4,1,0,100,0,0
81381,-200,4,1,0,70,0,0
82631,-117.647058823529,4,1,0,30,0,0
83465,-117.647058823529,4,2,0,70,0,0
84631,-117.647058823529,4,1,0,30,0,0
84965,-117.647058823529,4,2,0,70,0,0
87131,-117.647058823529,4,1,0,15,0,0
88298,-117.647058823529,4,2,0,70,0,0
89298,-117.647058823529,4,1,0,20,0,0
89631,-117.647058823529,4,2,0,70,0,0
90465,-117.647058823529,4,1,0,15,0,0
91298,-117.647058823529,4,2,0,70,0,0
91798,-117.647058823529,4,1,0,20,0,0
92465,-76.9230769230769,4,1,0,30,0,0
93131,-66.6666666666667,4,1,0,40,0,0
95131,-66.6666666666667,4,2,2,100,0,0
95465,333.333333333333,4,1,2,70,1,0
95548,-100,4,1,2,70,0,0
95798,-66.6666666666667,4,1,2,70,0,0
95965,-66.6666666666667,4,1,2,70,0,0
96131,-66.6666666666667,4,1,2,70,0,0
96298,-66.6666666666667,4,1,2,70,0,0
96465,-66.6666666666667,4,1,2,70,0,0
96798,-66.6666666666667,4,1,2,70,0,0
96881,-66.6666666666667,4,1,2,70,0,0
97131,-66.6666666666667,4,1,2,70,0,0
97215,-66.6666666666667,4,1,2,30,0,0
97631,-66.6666666666667,4,1,2,70,0,0
97965,-66.6666666666667,4,1,2,70,0,0
98131,-66.6666666666667,4,1,2,70,0,0
98298,-100,4,1,2,70,0,0
99798,-66.6666666666667,4,1,2,70,0,0
100465,-133.333333333333,4,1,2,70,0,0
100965,-50,4,1,2,70,0,0
101298,-66.6666666666667,4,1,2,70,0,0
102298,-100,4,1,2,70,0,0
104298,-66.6666666666667,4,1,2,70,0,0
104798,-57.1428571428571,4,1,2,70,0,0
105464,333.333333333333,4,1,2,70,1,0
107130,-80,4,1,2,70,0,0
108630,-142.857142857143,4,1,2,70,0,0
109464,-50,4,1,0,70,0,0
112130,-40,4,1,0,70,0,0
113463,-55.5555555555556,4,1,0,70,0,0
114130,-50,4,1,0,70,0,0
114463,-50,4,2,2,70,0,0
114630,-50,4,1,0,70,0,0
116130,-43.4782608695652,4,1,0,70,0,0
118130,-50,4,1,0,70,0,0
118963,-43.4782608695652,4,1,0,70,0,0
119297,-50,4,1,0,70,0,0
119463,333.333333333333,4,1,0,70,1,0
119796,-50,4,1,0,70,0,0
120629,-80,4,1,0,70,0,0
122629,-62.5,4,1,0,70,0,0
123463,-1000,4,2,0,100,0,0

[Colours]
Combo1 : 255,222,121
Combo2 : 255,49,152
Combo3 : 106,173,255
Combo4 : 247,111,131

[HitObjects]
12,252,801,37,6,1:2:0:0:
16,356,968,6,0,L|52:352,1,27.9999991455078,0|8,0:0|0:0,0:0:0:0:
85,252,1301,37,2,2:0:0:0:
43,352,1468,5,0,1:0:0:0:
144,295,1634,37,2,2:0:0:0:
43,352,1801,6,0,L|61:350,1,13.9999995727539,8|0,0:0|0:0,0:0:0:0:
165,364,1968,37,2,2:0:0:0:
56,350,2134,5,0,0:0:0:0:
223,256,2301,37,2,2:1:0:0:
286,221,2468,1,2,2:1:0:0:
357,229,2634,1,2,2:1:0:0:
409,277,2801,2,0,L|428:284,2,13.9999995727539,2|2|0,0:0|0:0|0:0,0:0:0:0:
488,96,3134,2,0,L|412:112,1,77.9999964294435,2|0,0:0|0:0,0:0:0:0:
344,128,3468,1,2,0:0:0:0:
464,176,3634,6,0,L|504:168,1,27.9999991455078,0|8,0:0|0:0,0:0:0:0:
299,181,3968,37,2,0:0:0:0:
491,170,4134,5,0,0:0:0:0:
293,250,4301,38,0,L|272:256,2,13.9999995727539,2|2|8,2:1|2:0|1:0,0:0:0:0:
328,309,4634,2,0,L|312:382,1,70.4000021484376,2|2,0:0|0:0,0:0:0:0:
491,170,5468,6,0,L|511:166,1,13.9999995727539
328,309,5634,37,2,0:0:0:0:
504,167,5801,5,4,1:2:0:0:
248,328,6134,37,2,1:2:0:0:
324,236,6301,6,0,L|344:232,2,13.9999995727539,0|0|8,0:0|0:0|0:0,0:0:0:0:
228,252,6634,37,2,2:2:0:0:
288,172,6801,6,0,L|302:157,1,13.9999995727539
168,202,6968,37,2,2:2:0:0:
91,196,7134,1,2,2:1:0:0:
26,236,7301,1,2,2:1:0:0:
124,272,7468,1,2,0:1:0:0:
228,252,7634,1,2,0:1:0:0:
288,172,7801,2,0,L|304:92,1,80,2|2,0:0|0:0,0:0:0:0:
240,48,8301,1,0,0:0:0:0:
380,80,8468,1,2,0:0:0:0:
303,93,8634,6,0,L|298:112,1,13.9999995727539
508,212,8801,37,2,0:0:0:0:
288,180,8968,6,0,L|283:199,2,13.9999995727539,0|0|8,0:0|0:0|0:0,0:0:0:0:
434,218,9301,37,2,0:0:0:0:
273,267,9468,5,0,0:0:0:0:
388,274,9634,37,2,0:0:0:0:
258,354,9801,5,0,0:0:0:0:
383,346,9968,37,2,0:0:0:0:
258,354,10134,6,0,L|261:340,1,13.9999995727539,2|0,0:0|0:0,0:0:0:0:
281,207,10301,1,0,0:0:0:0:
232,272,10468,2,0,L|235:258,1,13.9999995727539,10|0,0:0|0:0,0:0:0:0:
208,193,10634,37,2,0:0:0:0:
352,184,10801,5,2,0:0:0:0:
142,143,10968,37,2,0:0:0:0:
418,217,11134,5,2,0:0:0:0:
60,140,11301,38,0,L|-32:156,1,80,2|0,0:0|2:0,0:0:0:0:
336,292,11801,5,8,1:0:0:0:
353,297,11884,1,0,0:0:0:0:
370,302,11968,1,0,0:0:0:0:
387,307,12051,1,0,0:0:0:0:
404,312,12134,37,2,0:0:0:0:
418,217,12301,1,0,0:0:0:0:
495,159,12468,1,2,0:0:0:0:
288,208,12634,6,0,L|265:212,1,20,0|0,0:0|2:0,0:0:0:0:
495,159,12801,37,2,0:0:0:0:
418,217,12968,1,0,0:0:0:0:
404,312,13135,1,2,0:0:0:0:
276,284,13301,6,0,L|253:288,1,20,0|0,0:0|2:0,0:0:0:0:
404,312,13468,37,2,0:0:0:0:
418,217,13635,1,0,0:0:0:0:
495,159,13802,1,2,0:0:0:0:
264,360,13968,6,0,L|241:364,1,20,0|0,0:0|2:0,0:0:0:0:
495,159,14134,37,2,0:0:0:0:
418,217,14301,1,0,0:0:0:0:
404,312,14468,1,2,0:0:0:0:
328,252,14634,1,2,0:0:0:0:
231,248,14801,1,2,0:0:0:0:
150,301,14968,1,2,0:0:0:0:
53,296,15134,5,2,0:0:0:0:
53,296,15218,1,2,0:0:0:0:
53,296,15301,1,2,0:0:0:0:
53,296,15384,1,2,0:0:0:0:
53,296,15468,1,2,0:0:0:0:
100,320,15551,1,2,0:0:0:0:
150,301,15634,1,2,0:0:0:0:
184,264,15718,1,2,0:0:0:0:
228,248,15801,1,2,0:0:0:0:
276,244,15884,1,2,0:0:0:0:
328,252,15968,1,2,0:0:0:0:
368,276,16051,1,2,0:0:0:0:
404,312,16134,1,2,0:0:0:0:
400,264,16218,1,2,0:0:0:0:
418,217,16301,1,2,0:0:0:0:
448,180,16384,1,2,0:0:0:0:
495,159,16468,5,0,1:0:0:0:
440,112,16551,1,0,1:0:0:0:
368,112,16634,1,0,1:0:0:0:
311,157,16718,1,0,1:0:0:0:
296,228,16801,6,0,L|272:236,1,20,0|0,0:0|2:0,0:0:0:0:
332,291,16884,2,0,L|318:312,1,20,0|0,0:0|2:0,0:0:0:0:
400,317,16968,2,0,L|403:342,1,20,0|0,0:0|2:0,0:0:0:0:
468,293,17051,2,0,L|486:309,1,20,0|0,0:0|2:0,0:0:0:0:
505,231,17134,6,0,B|488:204|480:168|484:112|484:112|468:168|457:199|400:244,1,240,12|0,1:2|2:0,0:0:0:0:
251,303,17468,6,0,B|213:231|213:231|237:155,1,162.000000617981,4|0,1:2|0:0,0:0:0:0:
100,224,17801,2,0,L|101:243,1,20,10|0,1:2|0:0,0:0:0:0:
252,304,17968,6,0,B|276:228|276:228|232:144,1,162.000000617981,4|0,1:2|0:0,0:0:0:0:
128,88,18301,2,0,L|129:107,1,20,2|0,1:2|0:0,0:0:0:0:
380,184,18468,2,0,L|381:203,1,20,10|0,1:2|0:0,0:0:0:0:
156,324,18634,2,0,L|157:343,1,20,6|4,1:2|0:0,0:0:0:0:
0,236,18801,6,0,B|108:268|108:268|204:168,1,215.999993408203,4|0,1:2|0:0,0:0:0:0:
248,36,19134,2,0,L|213:75,1,30.0000011444092,4|0,1:2|0:0,0:0:0:0:
132,140,19301,2,0,P|164:124|240:152,1,100,0|4,1:2|1:2,0:0:0:0:
260,224,19551,1,0,0:0:0:0:
262,243,19634,6,0,L|270:321,2,50,2|0|0,1:2|0:0|1:0,0:0:0:0:
328,140,19884,1,0,0:0:0:0:
328,140,19967,2,0,P|344:112|380:92,1,50
267,369,20134,6,0,B|315:289|315:289|259:223,1,180.000006866455,4|0,1:2|0:0,0:0:0:0:
396,160,20467,2,0,L|398:183,1,20,10|0,1:2|0:0,0:0:0:0:
268,370,20634,6,0,B|212:304|212:304|264:216,1,180.000006866455,4|0,1:2|0:0,0:0:0:0:
420,44,20967,2,0,L|401:45,1,20,2|0,1:2|0:0,0:0:0:0:
324,296,21134,2,0,L|305:297,1,20,10|0,1:2|0:0,0:0:0:0:
184,72,21300,2,0,L|165:73,1,20,6|4,1:2|0:0,0:0:0:0:
259,223,21467,5,4,0:0:0:0:
316,176,21634,1,2,0:0:0:0:
384,160,21801,1,2,0:0:0:0:
452,176,21968,1,2,0:0:0:0:
500,232,22134,6,0,L|484:316,1,60.0000022888184,2|4,0:0|0:0,0:0:0:0:
444,348,22467,1,8,0:0:0:0:
400,236,22634,1,4,0:0:0:0:
400,236,22717,1,4,0:0:0:0:
400,236,22801,6,0,B|376:152|376:152|436:44,1,180.000006866455,4|0,1:2|0:0,0:0:0:0:
304,200,23134,2,0,L|292:168,1,20,10|0,1:2|0:0,0:0:0:0:
399,235,23301,6,0,B|444:155|444:155|420:71,1,180.000006866455,4|0,1:2|0:0,0:0:0:0:
216,240,23634,2,0,L|179:231,1,20,2|0,1:2|0:0,0:0:0:0:
104,312,23801,2,0,L|67:303,1,20,10|0,1:2|0:0,0:0:0:0:
28,212,23967,2,0,L|-8:203,1,20,6|4,1:2|0:0,0:0:0:0:
120,88,24134,5,4,0:0:0:0:
120,206,24301,2,2,B|136:170|172:150|172:150|136:130|104:54,1,160,2|8,2:0|0:2,0:0:0:0:
256,168,24634,5,2,0:0:0:0:
268,164,24717,1,2,0:0:0:0:
280,160,24801,1,2,0:0:0:0:
292,156,24884,1,2,0:0:0:0:
304,152,24967,5,4,0:0:0:0:
432,216,25134,2,0,L|340:248,1,80,8|4,0:0|0:0,0:0:0:0:
352,318,25384,1,4,0:0:0:0:
333,323,25467,6,0,B|241:339|241:339|145:287,1,180.000006866455,4|0,1:2|0:0,0:0:0:0:
384,128,25801,2,0,L|406:130,1,20,10|0,1:2|0:0,0:0:0:0:
332,322,25967,6,0,B|256:281|256:281|164:297,1,180.000006866455,4|0,1:2|0:0,0:0:0:0:
104,108,26301,2,0,L|120:116,1,20,2|0,1:2|0:0,0:0:0:0:
80,324,26467,2,0,L|96:332,1,20,10|0,1:2|0:0,0:0:0:0:
304,212,26634,2,0,L|320:220,1,20,2|0,1:2|0:0,0:0:0:0:
404,352,26801,5,0,0:0:0:0:
417,200,26967,1,4,0:0:0:0:
428,280,27134,2,0,L|416:188,1,80,8|0,0:0|0:0,0:0:0:0:
404,352,27467,5,6,0:0:0:0:
417,200,27633,1,2,0:0:0:0:
328,96,27800,1,0,0:0:0:0:
344,252,27967,6,0,L|280:244,1,40,0|0,1:0|0:0,0:0:0:0:
200,236,28133,1,0,1:0:0:0:
364,348,28300,6,0,L|240:332,1,100,2|0,0:0|0:0,0:0:0:0:
52,200,28633,2,0,B|160:236|136:132|244:168,1,200,4|2,1:2|0:0,0:0:0:0:
212,288,29133,6,0,L|196:216,1,50,0|0,1:0|0:0,0:0:0:0:
60,84,29300,1,0,1:0:0:0:
60,84,29383,1,0,1:0:0:0:
60,84,29466,6,0,P|92:92|132:80,1,50,4|0,1:3|0:0,0:0:0:0:
272,152,29633,1,0,1:0:0:0:
275,165,29716,1,0,1:0:0:0:
278,176,29800,6,0,L|288:224,2,50,4|0|0,1:2|0:0|0:0,0:0:0:0:
396,340,30050,5,0,1:0:0:0:
336,304,30133,2,0,P|304:296|264:308,1,50,4|0,1:2|0:0,0:0:0:0:
432,280,30300,5,0,1:0:0:0:
400,216,30383,2,0,P|370:180|308:166,1,100,0|0,1:0|0:0,0:0:0:0:
496,184,30633,6,0,P|500:151|484:112,1,50,2|0,0:0|0:0,0:0:0:0:
248,24,30800,6,0,L|256:96,1,60,2|0,0:0|0:0,0:0:0:0:
0,220,31133,6,2,B|34:239|62:299|29:360|29:360|118:283|-26:147|34:51|34:51|34:179|102:203|198:227|214:151|186:79|98:131,1,835.999977676392,4|0,2:2|2:1,2:1:0:0:
156,264,32133,2,2,P|190:259|238:210,1,80,2|0,0:2|2:0,0:0:0:0:
392,56,32299,5,0,0:0:0:0:
400,60,32383,1,0,0:0:0:0:
408,64,32466,6,2,B|432:80|472:76|506:41|506:41|494:80|426:112|350:104|350:104|418:144|462:212|466:308|334:296|344:356|404:424|440:364|380:280,1,640
336,216,33299,6,2,L|218:233,1,80,2|0,0:0|2:0,0:0:0:0:
352,28,33466,2,0,P|341:62|367:126,1,80,4|0,0:3|2:0,0:0:0:0:
496,264,33633,2,0,P|506:229|480:165,1,80,8|0,0:3|2:0,0:0:0:0:
100,81,33799,6,2,B|227:87|181:279|283:327|283:327|213:220|257:163|324:90|380:146|396:221|293:225,1,640,4|0,1:2|2:1,2:1:0:0:
36,216,34633,6,0,P|69:204|106:145,1,80,2|0,0:0|2:0,0:0:0:0:
244,76,34799,2,0,P|284:78|318:59,1,80,8|0,0:3|2:0,0:0:0:0:
388,216,34966,5,0,0:0:0:0:
396,200,35049,1,0,0:0:0:0:
408,188,35132,6,2,B|456:172|492:216|464:312|384:288|364:260|346:200|380:112|444:88|388:4,1,400,2|0,0:0|1:0,0:0:0:0:
244,76,35632,6,2,B|205:154|209:228|209:228|198:144|156:104|99:80,1,320,2|0,1:0|1:2,0:0:0:0:
88,276,36132,6,0,P|104:236|80:172,1,80,8|0,0:3|2:0,0:0:0:0:
315,205,36299,2,0,P|315:166|336:132,1,80,8|0,1:3|2:0,0:0:0:0:
484,300,36466,6,0,B|468:276|472:236|507:202|507:202|468:214|436:282|444:358|444:358|404:290|336:246|240:242|252:374|192:364|124:304|184:268|268:328,1,640,4|0,0:2|2:0,0:0:0:0:
0,104,37299,6,0,P|36:119|57:151,1,80,4|0,1:3|2:0,0:0:0:0:
112,288,37466,2,0,P|132:253|166:235,1,80,2|0,1:1|2:0,0:0:0:0:
268,72,37632,2,0,P|272:112|255:146,1,80,8|0,1:3|2:0,0:0:0:0:
308,280,37799,6,2,B|317:308|245:336|168:274|230:197|272:184|334:192|333:276|377:360|501:300,1,400,2|2,0:0|2:0,0:0:0:0:
496,296,38216,1,2,2:0:0:0:
508,276,38299,1,2,2:2:0:0:
512,252,38382,1,2,2:2:0:0:
504,228,38466,1,2,2:2:0:0:
484,208,38549,1,2,2:2:0:0:
460,196,38632,6,0,L|364:217,1,80,0|0,1:0|2:0,0:0:0:0:
224,104,38799,2,0,L|128:125,1,80,8|0,1:2|2:0,0:0:0:0:
136,316,38966,5,0,0:0:0:0:
144,304,39049,1,0,0:0:0:0:
152,296,39132,6,2,B|212:262|270:270|308:336|308:336|281:274|248:192|299:105|332:91|332:91|352:116|400:196|328:280,1,644.000012283325,2|2,1:0|2:1,0:0:0:0:
424,308,39799,6,2,P|444:277|439:208,1,80,2|0,0:0|2:0,0:0:0:0:
448,20,39966,2,2,P|428:51|433:120,1,80,2|0,0:0|2:0,0:0:0:0:
512,204,40132,2,2,P|488:175|416:168,1,80,0|0,0:0|2:0,0:0:0:0:
336,269,40299,6,2,B|316:197|350:112|350:112|316:189|261:214|200:219,1,320,2|2,1:0|0:1,0:0:0:0:
135,269,40799,2,2,B|160:268|215:293|249:370|249:370|215:285|235:213,1,320,2|2,1:0|0:1,0:0:0:0:
328,64,41298,1,0,0:0:0:0:
352,156,41465,6,0,B|268:172|284:92|164:144,1,160,2|0,1:0|1:2,2:0:0:0:
432,212,41798,2,0,L|452:120,1,60.0000022888184,0|0,0:0|2:0,0:0:0:0:
464,284,41965,2,0,L|533:347,1,60.0000022888184,0|0,0:0|2:0,0:0:0:0:
385,275,42131,2,0,L|295:303,1,60.0000022888184,0|0,0:0|2:0,0:0:0:0:
102,129,42298,6,2,B|138:197|31:219|69:325|69:325|96:200|168:200|257:190|194:317|345:290,1,552.000010528565,4|4,2:2|1:2,1:1:0:0:
167,295,42965,5,0,2:0:0:0:
40,64,43132,2,2,B|184:4|140:152|328:68,1,240,0|0,0:0|2:0,0:0:0:0:
320,164,43465,2,0,L|364:172,2,40,0|0|0,1:0|2:0|2:0,0:0:0:0:
228,252,43715,5,0,0:0:0:0:
212,254,43798,2,0,L|168:262,1,40,0|0,1:0|1:0,0:0:0:0:
304,360,43965,2,0,L|348:368,1,40,0|0,1:0|1:0,0:0:0:0:
432,264,44132,5,0,2:0:0:0:
430,242,44215,1,0,2:0:0:0:
421,221,44298,1,0,2:0:0:0:
406,204,44382,1,0,1:0:0:0:
387,193,44465,6,0,L|367:189,12,15.0000005722046
144,320,45131,5,2,1:0:0:0:
300,360,45298,6,0,L|296:260,1,80,2|0,0:0|1:0,0:0:0:0:
368,320,45631,37,2,1:0:0:0:
216,280,45798,5,0,1:0:0:0:
144,320,45965,37,2,1:0:0:0:
216,280,46131,6,0,L|220:180,1,80,0|2,1:0|0:0,0:0:0:0:
368,320,46465,37,2,1:0:0:0:
300,192,46631,6,0,L|296:92,1,80,2|0,0:0|1:0,0:0:0:0:
144,320,46965,37,2,1:0:0:0:
216,108,47132,5,0,1:0:0:0:
368,316,47299,37,2,1:0:0:0:
216,108,47465,6,0,L|220:8,1,80,0|2,1:0|0:0,0:0:0:0:
144,320,47798,37,2,1:0:0:0:
299,32,47965,6,0,L|296:112,1,80,2|0,0:0|1:0,0:0:0:0:
368,316,48298,37,2,1:0:0:0:
212,172,48465,5,0,1:0:0:0:
144,320,48632,37,2,1:0:0:0:
212,172,48798,6,0,L|216:251,1,80,0|2,1:0|0:0,0:0:0:0:
368,316,49131,37,2,1:0:0:0:
292,292,49298,6,0,L|286:389,1,80,2|0,0:0|1:0,0:0:0:0:
144,320,49631,38,0,L|148:240,1,80,2|0,1:0|1:0,0:0:0:0:
368,316,49965,1,2,1:0:0:0:
144,320,50131,1,2,1:2:0:0:
368,316,50298,1,2,0:0:0:0:
144,320,50465,1,2,1:1:0:0:
216,251,50631,6,0,L|220:155,1,80,2|0,0:0|1:0,0:0:0:0:
368,316,50965,37,2,1:1:0:0:
296,111,51131,5,0,0:0:0:0:
144,320,51298,37,2,1:1:0:0:
296,111,51465,6,0,L|292:31,1,80,2|0,1:2|2:0,0:0:0:0:
256,192,51798,5,2,1:1:0:0:
256,192,52298,1,0,1:1:0:0:
344,224,52465,6,0,P|384:250|467:230,1,106.666666666667,4|0,1:2|2:0,0:0:0:0:
249,269,52687,2,0,P|235:315|280:388,1,106.666666666667,4|0,1:2|2:0,0:0:0:0:
176,192,52909,2,0,P|127:193|71:258,1,106.666666666667,4|0,1:2|0:0,0:0:0:0:
368,316,53131,5,2,1:1:0:0:
249,269,53298,6,0,L|252:190,1,80,2|0,0:0|1:0,0:0:0:0:
144,320,53631,37,2,1:1:0:0:
292,120,53798,5,0,0:0:0:0:
368,316,53964,37,2,1:1:0:0:
292,120,54131,6,0,L|289:41,1,80,0|2,1:0|0:0,0:0:0:0:
0,216,54465,6,0,L|114:33,1,200,0|12,0:0|0:3,0:0:0:0:
105,46,55048,38,0,L|124:20,1,25
148,108,55131,1,0,0:0:0:0:
134,182,55215,1,0,0:0:0:0:
74,223,55298,1,0,0:0:0:0:
0,216,55381,1,0,0:0:0:0:
20,140,55465,6,0,P|92:60|260:136,1,240,10|0,1:2|0:0,0:0:0:0:
304,184,55798,6,0,L|192:216,1,100,0|2,0:0|2:1,0:0:0:0:
352,80,56131,1,2,0:0:0:0:
268,308,56298,2,2,P|217:252|88:256,1,200,2|2,1:0|1:0,0:0:0:0:
178,334,56798,2,2,P|228:335|282:274,1,100,0|2,0:0|0:0,0:0:0:0:
396,176,57131,5,0,0:0:0:0:
396,176,57298,2,2,B|288:216|320:112|188:148,1,200,2|0,0:0|0:0,0:0:0:0:
128,252,57798,6,2,L|243:237,1,100,0|2,0:0|2:1,0:0:0:0:
456,80,58131,2,2,L|340:94,1,100,2|2,0:0|2:1,0:0:0:0:
312,272,58465,2,2,B|352:164|220:168|284:36,1,223.999993164063,2|0,0:0|0:0,0:0:0:0:
227,239,58965,6,2,L|213:355,1,100,2|0,0:0|2:1,0:0:0:0:
356,91,59298,1,2,0:0:0:0:
432,192,59465,1,0,0:0:0:0:
414,317,59631,1,0,0:0:0:0:
344,240,59798,6,0,L|286:233,3,50,2|2|2|2,1:0|2:0|2:0|2:0,0:0:0:0:
208,260,60131,1,0,0:0:0:0:
168,272,60215,1,2,2:0:0:0:
126,266,60298,1,2,2:0:0:0:
90,244,60381,1,2,2:0:0:0:
66,209,60465,6,2,L|52:93,1,100,2|0,0:0|0:1,0:0:0:0:
232,108,60798,2,2,L|237:157,2,50,2|0|0,0:0|2:0|0:0,0:0:0:0:
228,76,61048,1,0,0:0:0:0:
224,44,61131,5,0,0:0:0:0:
440,152,61298,2,0,L|436:212,1,50,2|0,2:1|2:0,0:0:0:0:
160,140,61465,5,0,0:0:0:0:
364,200,61631,2,0,L|360:260,1,50,2|0,2:1|2:0,0:0:0:0:
164,255,61798,5,0,0:0:0:0:
288,248,61965,2,0,L|284:308,1,50,2|0,2:1|2:0,0:0:0:0:
234,345,62131,5,0,0:0:0:0:
60,176,62298,2,0,L|56:116,1,50,2|0,2:1|2:0,0:0:0:0:
343,376,62465,5,0,0:0:0:0:
142,186,62631,2,0,L|162:129,1,50,2|0,2:1|2:0,0:0:0:0:
212,228,62798,6,0,L|232:206,4,25,0|0|0|0|0,1:1|1:0|1:0|1:0|1:0,0:0:0:0:
68,269,63131,6,2,P|32:197|108:93,1,160,0|0,0:0|2:0,0:0:0:0:
228,209,63354,2,2,P|272:141|400:155,1,160,0|0,0:0|2:0,0:0:0:0:
359,317,63576,2,2,P|423:320|464:415,1,106.666666666667,0|0,0:0|0:0,0:0:0:0:
237,308,63798,6,2,L|225:176,1,100,0|0,0:0|2:0,0:0:0:0:
336,88,64131,1,0,0:0:0:0:
176,144,64298,2,2,B|284:92|280:204|384:156,1,200,0|0,0:0|0:0,0:0:0:0:
227,208,64798,5,0,0:0:0:0:
100,128,64965,2,0,L|68:124,2,25
4,236,65131,1,0,0:0:0:0:
108,320,65298,6,2,B|144:262|116:203|116:203|148:200|180:176|184:112,1,200,2|0,0:0|0:0,0:0:0:0:
200,88,65798,1,0,0:0:0:0:
168,20,65965,1,0,0:0:0:0:
168,20,66048,1,0,0:0:0:0:
168,20,66131,1,0,0:0:0:0:
4,200,66465,37,2,0:2:0:0:
208,360,66631,38,0,L|159:370,2,40
304,304,66965,2,0,L|344:295,1,40
81,212,67131,5,2,0:2:0:0:
208,264,67298,38,0,L|168:273,1,40
150,176,67465,5,2,0:2:0:0:
304,208,67631,38,0,L|353:198,2,40
185,106,67965,5,2,0:2:0:0:
172,29,68131,1,2,0:2:0:0:
24,156,68298,5,0,0:0:0:0:
32,160,68381,1,0,0:0:0:0:
40,164,68465,6,0,B|120:192|116:120|191:144,1,160
164,284,68715,1,0,0:0:0:0:
152,292,68798,6,0,L|163:185,1,80.0000030517579
72,96,69020,1,0,0:0:0:0:
40,164,69131,6,0,L|33:223,1,60.0000022888184,2|0,0:2|0:0,0:0:0:0:
268,200,69298,2,0,L|274:140,1,60.0000022888184
408,40,69465,5,0,0:0:0:0:
452,32,69548,1,0,0:0:0:0:
489,58,69631,1,0,0:0:0:0:
497,103,69715,1,0,0:0:0:0:
497,103,69798,5,2,0:2:0:0:
477,133,69881,1,0,0:0:0:0:
441,139,69964,1,0,0:0:0:0:
412,119,70048,1,0,0:0:0:0:
405,84,70132,5,2,0:2:0:0:
421,63,70215,1,0,0:0:0:0:
447,58,70298,1,0,0:0:0:0:
470,74,70382,1,0,0:0:0:0:
472,100,70465,6,0,L|448:220,1,120.000004577637
364,352,70798,1,0,0:0:0:0:
320,168,70965,2,0,L|331:109,1,60.0000022888184
168,104,71131,5,6,0:2:0:0:
144,112,71215,1,0,0:0:0:0:
120,120,71298,1,0,0:0:0:0:
160,184,71381,5,6,0:2:0:0:
143,189,71465,1,0,0:0:0:0:
152,264,71548,5,4,0:2:0:0:
128,272,71631,1,0,0:0:0:0:
104,280,71714,1,0,0:0:0:0:
126,194,71798,6,0,L|46:218,2,60.0000022888184
312,36,72131,1,0,0:0:0:0:
336,72,72215,1,0,0:0:0:0:
334,115,72298,1,0,0:0:0:0:
307,148,72381,1,0,0:0:0:0:
265,158,72465,5,0,0:0:0:0:
228,176,72548,1,0,0:0:0:0:
208,212,72631,1,0,0:0:0:0:
213,252,72715,1,0,0:0:0:0:
241,282,72798,5,0,0:0:0:0:
260,296,72881,1,0,0:0:0:0:
267,318,72965,1,0,0:0:0:0:
259,339,73048,1,0,0:0:0:0:
248,352,73131,6,0,L|108:364,1,120.000004577637,0|2,0:0|0:2,0:0:0:0:
284,228,73354,2,0,L|436:244,1,140.000005340576,2|0,0:2|0:0,0:0:0:0:
440,244,73631,1,0,0:0:0:0:
456,245,73715,1,0,0:0:0:0:
476,232,73798,5,0,0:0:0:0:
468,192,73881,1,0,0:0:0:0:
460,152,73965,6,0,L|444:64,1,60.0000022888184
348,128,74131,2,0,L|332:40,1,60.0000022888184
236,104,74298,2,0,L|220:16,1,60.0000022888184
128,148,74465,5,0,0:0:0:0:
164,180,74548,1,0,0:0:0:0:
174,227,74631,1,0,0:0:0:0:
154,270,74715,1,0,0:0:0:0:
112,293,74798,2,0,L|116:324,1,20
64,286,74881,2,0,L|48:316,1,20
29,253,74965,5,0,0:0:0:0:
20,205,75048,1,0,0:0:0:0:
40,160,75131,2,0,L|132:128,1,60.0000022888184
240,192,75298,6,0,L|236:216,1,20
272,184,75381,2,0,L|280:212,1,20
297,163,75465,1,0,0:0:0:0:
328,153,75548,1,0,0:0:0:0:
360,156,75631,1,0,0:0:0:0:
388,171,75715,1,0,0:0:0:0:
340,232,75798,6,0,B|448:360|448:360|492:188,1,335.999989746094,0|0,0:0|2:0,0:0:0:0:
489,196,77131,6,0,L|377:180,1,100,0|0,0:0|2:0,0:0:0:0:
288,172,77465,1,0,0:0:0:0:
489,196,77798,6,0,L|393:135,1,100,0|0,0:0|2:0,0:0:0:0:
315,92,78131,2,0,L|256:56,2,66.6666666666667
489,196,78465,6,0,L|432:110,1,95.9999970703126,0|0,0:0|2:0,0:0:0:0:
489,196,78687,6,0,L|387:181,1,95.9999970703126,0|0,0:0|2:0,0:0:0:0:
489,196,78909,6,0,L|410:261,1,95.9999970703126,0|0,0:0|2:0,0:0:0:0:
415,84,79131,6,0,L|354:-6,1,80.0000030517579,0|0,0:0|2:0,0:0:0:0:
357,176,79354,6,0,L|248:159,1,80.0000030517579,0|0,0:0|2:0,0:0:0:0:
386,280,79576,6,0,L|301:349,1,80.0000030517579,0|0,0:0|2:0,0:0:0:0:
277,163,80298,6,0,L|284:120,1,40
370,17,80465,2,0,L|400:12,1,20
368,32,80548,2,0,L|398:33,1,20
366,47,80631,1,0,0:0:0:0:
364,62,80715,6,0,L|348:152,1,80
336,216,81131,5,4,1:0:0:0:
260,232,81631,1,2,2:0:0:0:
207,289,81965,1,2,2:0:0:0:
197,366,82298,1,2,2:0:0:0:
240,52,82631,38,0,L|252:152,1,68.0000012969971,2|2,0:1|0:0,0:0:0:0:
256,196,82965,1,2,0:0:0:0:
264,272,83131,2,0,L|270:322,2,34.0000006484985
0,160,83465,5,2,0:0:0:0:
72,144,83798,1,2,0:0:0:0:
128,96,84298,1,2,0:0:0:0:
240,52,84631,38,0,L|234:2,2,34.0000006484985,2|0|0,0:0|0:0|0:0,0:0:0:0:
144,20,84965,5,2,0:0:0:0:
156,96,85631,1,2,0:0:0:0:
204,156,85965,1,2,0:0:0:0:
328,360,86465,1,2,0:0:0:0:
360,292,86965,1,2,0:0:0:0:
240,52,87298,38,0,L|252:152,1,68.0000012969971,2|0,0:0|0:0,0:0:0:0:
256,196,87632,1,2,0:0:0:0:
248,268,87798,1,0,0:0:0:0:
224,312,87965,1,2,0:0:0:0:
200,328,88131,1,0,0:0:0:0:
508,264,88465,5,2,0:0:0:0:
432,272,88798,1,2,0:0:0:0:
388,336,89131,1,2,0:0:0:0:
240,52,89298,38,0,L|234:2,2,34.0000006484985,0|0|2,0:0|0:0|0:0,0:0:0:0:
368,232,89631,5,2,0:0:0:0:
296,204,89965,1,2,0:0:0:0:
224,232,90298,1,2,0:0:0:0:
240,52,90465,38,0,L|234:2,2,34.0000006484985,0|0|2,0:0|0:0|0:0,0:0:0:0:
259,196,90798,1,0,0:0:0:0:
251,129,90965,2,0,L|263:229,1,68.0000012969971,2|0,0:0|0:0,0:0:0:0:
184,304,91298,5,2,0:0:0:0:
116,260,91631,1,2,0:0:0:0:
251,129,91798,38,0,L|245:79,3,34.0000006484985
264,236,92131,2,0,L|270:286,3,34.0000006484985
251,129,92465,6,0,L|245:71,3,51.999997619629
264,236,92798,2,0,L|276:336,3,51.999997619629
251,129,93131,38,0,L|259:60,1,60.0000022888184
264,236,93298,2,0,L|296:327,1,60.0000022888184
251,129,93465,6,0,L|273:62,1,60.0000022888184
264,236,93631,2,0,L|314:319,1,60.0000022888184
251,129,93798,38,0,L|287:68,1,60.0000022888184
264,236,93965,2,0,L|330:306,1,60.0000022888184
251,129,94131,6,0,L|298:77,1,60.0000022888184
264,236,94298,2,0,L|344:291,1,60.0000022888184
251,129,94465,38,0,L|308:87,1,60.0000022888184
264,236,94631,2,0,L|353:274,1,60.0000022888184
416,168,94798,5,0,0:0:0:0:
120,200,94965,1,0,0:0:0:0:
116,224,95048,1,0,0:0:0:0:
112,248,95131,1,12,0:0:0:0:
464,120,95465,5,4,0:2:0:0:
320,96,95631,1,2,2:1:0:0:
464,120,95798,2,0,L|494:126,2,30.0000011444092
320,96,95965,2,0,L|261:84,1,60.0000022888184,2|0,0:0|2:0,0:0:0:0:
416,180,96131,5,0,0:0:0:0:
364,32,96298,1,8,2:0:0:0:
460,252,96465,2,0,B|356:292|380:196|260:232,1,180.000006866455,4|0,0:2|0:0,0:0:0:0:
316,300,96798,5,4,0:0:0:0:
216,208,96965,2,0,L|206:179,2,30.0000011444092
212,344,97131,1,8,0:2:0:0:
124,136,97298,5,2,0:0:0:0:
156,108,97381,1,0,0:0:0:0:
196,95,97465,1,0,0:0:0:0:
238,100,97548,1,0,0:0:0:0:
274,121,97631,6,0,L|333:133,1,60.0000022888184,2|0,0:0|2:0,0:0:0:0:
500,160,97798,1,8,0:2:0:0:
292,200,97965,2,0,L|351:212,1,60.0000022888184,0|0,0:0|2:0,0:0:0:0:
512,236,98131,5,0,0:0:0:0:
416,152,98298,2,0,L|412:128,1,20,2|0,0:0|2:0,0:0:0:0:
348,288,98465,1,8,1:2:0:0:
416,152,98631,2,0,L|402:68,1,80,2|4,1:0|0:2,0:0:0:0:
492,36,98965,5,0,0:0:0:0:
300,120,99131,1,8,0:2:0:0:
488,210,99298,1,0,0:0:0:0:
484,216,99381,1,0,0:0:0:0:
480,222,99465,5,0,0:0:0:0:
480,222,99798,2,0,B|424:210|424:210|397:221|397:221|377:200|377:200|295:183,1,180.000006866455,8|0,0:2|0:0,0:0:0:0:
272,244,100131,5,2,0:0:0:0:
300,116,100298,1,2,0:0:0:0:
178,157,100465,2,0,L|208:172,1,30.0000011444092,8|0,0:2|0:0,0:0:0:0:
340,264,100631,1,2,0:0:0:0:
52,256,100798,5,0,0:0:0:0:
69,178,100965,2,2,B|77:142|109:114|109:114|161:122|189:174,1,160,2|8,0:0|0:2,0:0:0:0:
52,256,101298,5,0,0:0:0:0:
388,172,101631,1,0,0:0:0:0:
508,136,101798,1,8,0:2:0:0:
396,152,101965,5,0,0:0:0:0:
436,128,102048,1,0,0:0:0:0:
488,128,102131,1,0,0:0:0:0:
472,272,102298,2,0,L|476:299,2,20
404,336,102465,6,0,L|392:256,1,80,8|0,0:2|0:0,0:0:0:0:
376,224,102714,1,0,0:0:0:0:
347,203,102798,1,0,0:0:0:0:
311,198,102881,1,0,0:0:0:0:
276,210,102964,6,0,L|281:249,1,40
268,332,103131,1,8,0:2:0:0:
200,204,103298,6,0,L|195:165,2,40
196,340,103631,1,2,0:0:0:0:
128,224,103798,5,8,0:2:0:0:
124,364,103964,1,2,0:0:0:0:
56,208,104131,1,0,0:0:0:0:
56,296,104298,6,2,B|52:352|52:352|96:288,1,120.000004577637,2|8,0:0|0:2,0:0:0:0:
194,164,104631,1,0,0:0:0:0:
364,143,104798,6,2,L|456:132,1,93.3333342234294,2|0,0:0|0:0,0:0:0:0:
484,168,104964,6,2,L|303:189,1,140.000001335144,2|8,0:0|0:2,0:0:0:0:
268,224,105298,1,0,0:0:0:0:
164,88,105464,5,0,0:0:0:0:
112,220,105630,1,0,0:0:0:0:
104,40,105797,5,8,0:2:0:0:
16,176,105964,1,0,0:0:0:0:
124,312,106130,5,0,0:0:0:0:
184,268,106297,1,2,0:0:0:0:
244,312,106464,1,8,0:2:0:0:
300,268,106630,2,0,L|320:256,8,20,2|0|0|0|0|0|0|0|0,0:0|0:0|0:0|0:0|0:0|0:0|0:0|0:0|0:0,0:0:0:0:
312,344,107130,6,0,L|413:283,1,100,8|0,0:2|0:0,0:0:0:0:
456,196,107464,2,2,B|512:164|512:164|472:172|412:140,1,150,0|0,0:0|0:0,0:0:0:0:
504,92,107797,6,0,P|475:88|442:66,2,50,8|0|0,0:2|0:0|0:0,0:0:0:0:
388,88,108047,5,0,0:0:0:0:
376,96,108130,1,0,0:0:0:0:
356,104,108214,1,0,0:0:0:0:
320,104,108297,1,0,0:0:0:0:
280,88,108380,1,0,0:0:0:0:
252,52,108464,1,8,0:2:0:0:
252,52,108797,6,0,L|264:264,1,195.999994018555
24,344,109464,6,2,B|84:272|184:248|242:321|242:321|174:394|72:348|-25:284|-74:159|-24:56|80:28|80:28|149:144|78:222|-14:246,1,1040,6|0,0:0|2:0,0:0:0:0:
188,68,110630,6,0,P|220:96|280:80,1,80,2|0,0:0|2:0,0:0:0:0:
280,224,110797,6,2,B|324:248|356:308|340:364|340:364|360:284|416:256|480:256|480:172|476:120|416:88|416:88|340:136|352:224|424:320|504:352,1,800,0|2,0:0|0:2,0:0:0:0:
252,368,111797,6,0,P|257:325|210:285,1,80,4|0,0:2|2:0,0:0:0:0:
92,192,111964,2,2,L|-20:180,1,80,2|0,1:2|2:0,2:0:0:0:
321,53,112130,6,2,B|236:141|405:244|367:350|367:350|340:225|269:216|170:212|170:290|237:341|285:261,2,600,4|0|2,1:2|0:1|2:1,2:1:0:0:
432,248,113297,1,0,0:0:0:0:
404,108,113463,6,2,B|396:156|450:205|558:192|533:97|500:68|440:50|352:84|340:196|224:124,1,431.999986816407,2|0,0:0|2:0,0:0:0:0:
186,83,114047,1,0,2:0:0:0:
188,100,114130,6,2,L|200:212,1,80,2|0,1:2|2:0,2:0:0:0:
80,232,114297,2,0,B|164:216|148:296|268:244,1,160,6|8,1:2|1:2,2:0:0:0:
20,156,114630,1,4,1:2:0:0:
308,292,114797,6,2,B|347:207|224:164|293:75|293:75|280:116|276:132|328:196,1,320,2|2,1:0|0:2,0:0:0:0:
424,16,115297,6,2,B|480:56|508:144|439:233|439:233|452:192|436:132|380:98|336:120,1,400,2|0,1:0|2:2,0:0:0:0:
464,304,115797,6,0,P|426:309|376:264,1,80,2|0,0:0|2:0,0:0:0:0:
244,204,115963,2,0,P|227:169|254:107,1,80,2|0,0:0|2:0,0:0:0:0:
145,372,116130,6,2,B|230:284|61:181|95:104|95:104|126:200|197:209|296:213|296:135|229:84|181:164,1,552.000010528565,2|2,1:2|2:0,2:1:0:0:
216,124,116713,1,2,2:0:0:0:
196,124,116797,1,2,2:0:0:0:
180,132,116880,1,2,2:0:0:0:
164,144,116963,5,2,1:2:0:0:
0,328,117130,2,0,L|92:316,1,92.0000017547608,4|0,0:2|2:0,0:0:0:0:
268,264,117297,5,0,0:0:0:0:
280,260,117380,1,0,0:0:0:0:
288,256,117463,6,2,B|332:232|364:172|348:116|348:116|368:196|424:224|484:225|492:284|492:320|440:352|440:352|367:325|360:256|432:160|576:144,1,736.000014038086,6|2,0:2|0:2,0:0:0:0:
256,144,118297,6,0,P|240:168|160:168,1,80,2|0,0:1|2:0,0:0:0:0:
256,324,118463,2,0,B|172:308|188:388|68:336,1,160,6|0,1:2|1:2,2:0:0:0:
192,108,118797,5,0,0:2:0:0:
308,196,118963,2,2,B|292:280|364:272|327:368|327:368|364:316|452:348,1,276.000005264282,2|0,0:0|2:2,0:0:0:0:
488,184,119297,6,2,B|422:158|384:224|384:224|411:162|424:88|408:56|372:36|372:36|356:60|348:100|392:124,1,400,2|0,1:0|2:0,0:0:0:0:
180,272,119796,6,2,B|212:242|223:206|223:206|213:247|226:274|248:295,1,160,2|0,0:0|1:1,0:0:0:0:
368,256,120129,5,0,0:0:0:0:
52,135,120296,2,2,B|190:181|150:53|299:113,1,240,2|0,0:0|2:0,0:0:0:0:
499,194,120629,6,2,L|359:185,1,100,2|0,0:0|2:0,0:0:0:0:
336,148,120963,2,2,L|196:156,1,100,2|0,0:0|2:0,0:0:0:0:
173,194,121296,2,2,L|33:185,1,100,2|0,0:0|0:0,0:0:0:0:
16,140,121629,1,2,1:0:0:0:
16,140,121796,1,0,0:0:0:0:
499,194,121963,5,0,0:0:0:0:
499,194,122046,1,0,0:0:0:0:
499,194,122129,2,0,L|443:190,1,50
336,148,122296,2,0,L|280:151,1,50
173,194,122463,2,0,L|117:190,1,50
16,136,122629,6,2,B|143:142|96:312|148:352|148:352|129:275|173:218|240:145|296:201|312:276|192:264,1,576,4|0,1:2|2:1,2:1:0:0:
160,148,123463,5,4,1:0:0:0:
