osu file format v14

[General]
AudioFilename: vexaria 192.mp3
AudioLeadIn: 0
PreviewTime: 31134
Countdown: 0
SampleSet: Soft
StackLeniency: 0.4
Mode: 0
LetterboxInBreaks: 1
WidescreenStoryboard: 0

[Editor]
Bookmarks: 81131,81298,81465,81631,81798,81965,82131,82298,82465,82631,82798,82965,83131,83298,83465,83631,83798,83965,84131,84298,84465,84631,84798,84965,85131,85298,85465,85631,85798,85965,86131,86298,86465,86631,86798,86965,87131,87298,87465,87631,87798,87965,88131,88298,88465,88631,88798,88965,89131,89298,89465,89631,89798,89965,90131,90298,90465,90631,90798,90965,91131,91298,91465,91631,109464
DistanceSpacing: 1.2
BeatDivisor: 4
GridSize: 32
TimelineZoom: 2.4

[Metadata]
Title:Vexaria
TitleUnicode:Vexaria
Artist:ak+q
ArtistUnicode:ak+q
Creator:Shirasaka Koume
Version:Shirasaka Koume
Source:Arcaea
Tags:mmc mmc3 modhelp mapping contest artcore
BeatmapID:1400651
BeatmapSetID:661635

[Difficulty]
HPDrainRate:6
CircleSize:4.1
OverallDifficulty:8.4
ApproachRate:9.3
SliderMultiplier:2.3
SliderTickRate:1

[Events]
//Background and Video events
0,0,"piano 1600.jpg",0,0
//Break Periods
2,81331,91077
//Storyboard Layer 0 (Background)
//Storyboard Layer 1 (Fail)
//Storyboard Layer 2 (Pass)
//Storyboard Layer 3 (Foreground)
//Storyboard Sound Samples

[TimingPoints]
802,333.333333333333,4,2,1,55,1,0
802,-166.666666666667,4,2,1,55,0,0
16468,-166.666666666667,4,1,1,70,0,0
16801,-66.6666666666667,4,1,1,70,0,0
17135,-166.666666666667,4,1,1,70,0,0
17468,333.333333333333,4,2,1,70,1,0
17468,-111.111111111111,4,2,1,70,0,0
18801,-100,4,2,1,70,0,0
20134,-111.111111111111,4,2,1,70,0,0
21467,-100,4,2,1,70,0,0
22801,-111.111111111111,4,2,1,70,0,0
24134,-100,4,2,1,70,0,0
25467,-111.111111111111,4,2,1,70,0,0
27467,333.333333333333,4,2,1,70,1,0
27467,-133.333333333333,4,2,1,70,0,0
29133,-100,4,2,1,70,0,0
30800,-166.666666666667,4,2,1,70,0,0
31133,333.333333333333,4,2,1,70,1,0
32466,-90.9090909090909,4,2,1,70,0,0
33799,-100,4,2,1,70,0,0
35132,-90.9090909090909,4,2,1,70,0,0
36466,-100,4,2,1,70,0,0
37799,-90.9090909090909,4,2,1,70,0,0
39132,-100,4,2,1,70,0,0
39966,-90.9090909090909,4,2,1,70,0,0
41132,333.333333333333,4,2,1,70,1,0
41132,-90.9090909090909,4,2,1,70,0,0
42298,-111.111111111111,4,2,1,70,0,0
42798,-90.9090909090909,4,2,1,70,0,0
44298,-200,4,2,1,70,0,0
45131,-125,4,2,1,60,0,0
55798,-90.9090909090909,4,2,1,70,0,0
56298,-76.9230769230769,4,2,1,70,0,0
56798,-90.9090909090909,4,2,1,70,0,0
57631,-76.9230769230769,4,2,1,70,0,0
57965,-90.9090909090909,4,2,1,70,0,0
58965,-76.9230769230769,4,2,1,70,0,0
59298,-90.9090909090909,4,2,1,70,0,0
61631,-76.9230769230769,4,2,1,70,0,0
61965,-90.9090909090909,4,2,1,70,0,0
64298,-76.9230769230769,4,2,1,70,0,0
64798,-90.9090909090909,4,2,1,70,0,0
66465,-111.111111111111,4,1,1,55,0,0
71131,-83.3333333333333,4,1,1,55,0,0
71798,-111.111111111111,4,1,1,55,0,0
74215,-83.3333333333333,4,1,1,55,0,0
74465,-111.111111111111,4,1,1,55,0,0
75298,-66.6666666666667,4,1,1,55,0,0
75465,-111.111111111111,4,1,1,55,0,0
77131,-83.3333333333333,4,2,1,65,0,0
77465,-111.111111111111,4,2,1,65,0,0
77798,-83.3333333333333,4,2,1,65,0,0
78465,-100,4,2,1,65,0,0
94631,-133.333333333333,4,2,2,50,0,0
95465,333.333333333333,4,2,1,70,1,0
95465,-83.3333333333333,4,2,1,70,0,0
105464,333.333333333333,4,2,1,70,1,0
105464,-83.3333333333333,4,2,1,70,0,0
109464,-83.3333333333333,4,2,1,80,0,0
110797,-76.9230769230769,4,2,1,80,0,0
112130,-83.3333333333333,4,2,1,80,0,0
113463,-76.9230769230769,4,2,1,80,0,0
114797,-83.3333333333333,4,2,1,80,0,0
116130,-76.9230769230769,4,2,1,80,0,0
117463,-83.3333333333333,4,2,1,80,0,0
118297,-76.9230769230769,4,2,1,80,0,0
119463,333.333333333333,4,2,1,80,1,0
119463,-76.9230769230769,4,2,1,80,0,0
120629,-90.9090909090909,4,2,1,80,0,0
121129,-76.9230769230769,4,2,1,80,0,0
123546,-76.9230769230769,4,2,1,40,0,0

[HitObjects]
77,120,802,6,0,L|229:102,1,137.999995788574,6|0,0:0|0:0,0:0:0:0:
319,157,1301,2,0,P|282:171|261:193,1,68.9999978942872,2|0,0:0|0:0,0:0:0:0:
205,263,1635,2,0,L|53:245,1,137.999995788574,2|0,0:0|0:0,0:0:0:0:
174,381,2135,5,0,0:0:0:0:
253,322,2301,1,0,0:0:0:0:
343,360,2468,1,0,0:0:0:0:
422,301,2634,1,0,0:0:0:0:
512,339,2801,1,0,0:0:0:0:
511,353,2885,1,0,0:0:0:0:
510,367,2968,1,0,0:0:0:0:
332,263,3135,2,0,B|320:192|320:192|344:146,1,103.499996841431,2|0,0:0|0:0,0:0:0:0:
439,127,3468,6,0,P|373:135|319:94,1,137.999995788574,2|0,0:0|0:0,0:0:0:0:
226,14,3968,2,0,L|239:102,1,68.9999978942872,2|0,0:0|0:0,0:0:0:0:
191,172,4301,6,0,P|136:131|70:139,1,137.999995788574,2|2,0:0|0:0,0:0:0:0:
1,312,4801,6,0,B|37:272|37:272|143:249,1,137.999995788574
208,369,5301,2,0,L|138:353,1,68.9999978942872,2|0,0:0|0:0,0:0:0:0:
192,174,5635,2,0,P|226:172|256:189,1,68.9999978942872,2|0,0:0|0:0,0:0:0:0:
256,189,6135,6,0,P|321:202|377:139,1,137.999995788574,2|0,0:0|0:0,0:0:0:0:
447,92,6635,2,0,L|458:170,1,68.9999978942872,2|0,0:0|0:0,0:0:0:0:
512,263,6968,2,0,P|444:250|394:298,1,137.999995788574,2|0,0:0|0:0,0:0:0:0:
304,374,7468,6,0,L|237:361,1,68.9999978942872
237,361,7718,1,0,0:0:0:0:
237,361,7801,2,0,P|221:297|242:240,2,103.499996841431
34,224,8468,5,2,0:0:0:0:
49,221,8551,1,0,0:0:0:0:
64,218,8635,1,0,0:0:0:0:
79,215,8718,1,0,0:0:0:0:
94,212,8801,2,0,B|119:163|119:163|100:67,1,137.999995788574,2|0,0:0|0:0,0:0:0:0:
168,0,9301,2,0,P|199:32|238:38,1,68.9999978942872,2|0,0:0|0:0,0:0:0:0:
347,105,9635,2,0,B|260:118|260:118|223:158,1,137.999995788574,2|2,0:0|0:0,0:0:0:0:
306,290,10135,5,0,0:0:0:0:
306,290,10218,1,0,0:0:0:0:
306,290,10301,2,0,L|349:296,1,34.4999989471436
426,344,10468,2,0,P|413:302|423:259,1,68.9999978942872,0|2,0:0|0:0,0:0:0:0:
502,206,10718,1,0,0:0:0:0:
502,206,10801,2,0,L|458:212,1,34.4999989471436
296,307,10968,2,0,L|339:313,1,34.4999989471436,2|0,0:0|0:0,0:0:0:0:
512,223,11135,1,0,0:0:0:0:
494,225,11218,1,0,0:0:0:0:
476,227,11301,1,2,0:0:0:0:
296,307,12135,6,0,P|251:301|226:288,1,68.9999978942872,2|0,0:0|0:0,0:0:0:0:
173,383,12468,2,0,P|155:342|154:314,1,68.9999978942872,2|0,0:0|0:0,0:0:0:0:
0,174,12801,2,0,P|44:168|69:155,1,68.9999978942872,2|0,0:0|0:0,0:0:0:0:
123,250,13134,2,0,P|140:209|142:181,1,68.9999978942872,2|0,0:0|0:0,0:0:0:0:
278,54,13468,1,2,0:0:0:0:
127,103,13635,1,2,0:0:0:0:
221,0,13801,1,2,0:0:0:0:
264,133,13968,6,0,B|306:127|306:127|341:102|341:102|392:96,1,137.999995788574,2|2,0:0|0:0,0:0:0:0:
488,171,14468,2,0,L|417:178,1,68.9999978942872,2|2,0:0|0:0,0:0:0:0:
279,225,14801,1,2,0:0:0:0:
306,308,14968,1,2,0:0:0:0:
383,347,15135,1,2,0:0:0:0:
465,320,15301,1,2,0:0:0:0:
349,213,15468,6,0,L|279:225,1,68.9999978942872,2|0,0:0|0:0,0:0:0:0:
179,340,15801,2,0,L|108:328,1,68.9999978942872,2|0,0:0|0:0,0:0:0:0:
260,200,16135,2,0,L|330:188,1,68.9999978942872,2|0,0:0|0:0,0:0:0:0:
163,29,16468,5,0,0:0:0:0:
119,37,16551,1,0,0:0:0:0:
88,67,16634,1,0,0:0:0:0:
78,110,16717,1,0,0:0:0:0:
94,151,16801,2,0,L|140:142,6,43.1250016450883
160,110,17135,6,0,L|149:230,1,103.499996841431,8|0,0:2|0:0,0:0:0:0:
93,352,17468,6,0,P|140:295|227:291,1,155.249995262146,4|0,0:0|0:0,0:0:0:0:
300,343,17801,1,8,0:0:0:0:
65,347,17968,6,0,P|124:275|232:270,1,206.999993682861,4|0,0:0|0:0,0:0:0:0:
312,363,18468,2,0,L|415:344,1,103.499996841431,8|0,0:0|0:0,0:0:0:0:
438,317,18718,5,0,0:0:0:0:
438,317,18801,2,0,L|431:260,1,57.5,6|0,0:0|0:0,0:0:0:0:
318,222,18968,2,0,L|325:165,1,57.5,2|0,0:0|0:0,0:0:0:0:
494,50,19134,2,0,P|457:92|388:91,1,115,10|0,0:0|0:0,0:0:0:0:
331,57,19384,5,0,0:0:0:0:
331,57,19467,2,0,L|324:0,1,57.5,2|0,0:0|0:0,0:0:0:0:
494,160,19634,2,0,L|487:217,1,57.5,6|0,0:0|0:0,0:0:0:0:
317,301,19801,1,10,0:0:0:0:
509,244,19967,1,4,0:0:0:0:
257,357,20134,6,0,P|236:310|244:259,1,103.499996841431,4|0,0:0|0:0,0:0:0:0:
399,148,20467,1,8,0:0:0:0:
309,382,20634,2,0,B|263:321|263:321|177:331|177:331|150:371,1,206.999993682861,4|0,0:0|0:0,0:0:0:0:
0,207,21134,2,0,L|112:223,1,103.499996841431,8|0,0:0|0:0,0:0:0:0:
141,250,21384,5,0,0:0:0:0:
141,249,21467,2,0,L|135:195,1,28.75,6|0,0:0|0:0,0:0:0:0:
238,226,21634,2,0,L|232:171,1,28.75,2|0,0:0|0:0,0:0:0:0:
184,33,21801,6,0,L|178:87,1,28.75,10|0,0:0|0:0,0:0:0:0:
280,56,21968,2,0,L|274:110,1,28.75,2|0,0:0|0:0,0:0:0:0:
333,299,22134,6,0,L|327:244,1,28.75,2|0,0:0|0:0,0:0:0:0:
429,275,22301,2,0,L|423:220,1,28.75,6|0,0:0|0:0,0:0:0:0:
376,79,22467,6,0,L|370:133,1,28.75,10|0,0:0|0:0,0:0:0:0:
472,102,22634,2,0,L|466:156,1,28.75,6|0,0:0|0:0,0:0:0:0:
373,364,22801,6,0,P|318:371|267:337,1,103.499996841431,4|0,0:0|0:0,0:0:0:0:
229,154,23134,1,8,0:0:0:0:
393,384,23301,2,0,B|369:248|369:248|428:208,1,206.999993682861,4|0,0:0|0:0,0:0:0:0:
512,93,23801,2,0,P|453:87|410:49,1,103.499996841431,8|0,0:0|0:0,0:0:0:0:
389,21,24051,5,0,0:0:0:0:
389,21,24134,2,0,L|380:94,1,57.5,6|0,0:0|0:0,0:0:0:0:
247,140,24301,2,0,L|256:213,1,57.5,2|0,0:0|0:0,0:0:0:0:
357,279,24467,1,10,0:0:0:0:
230,11,24634,5,0,0:0:0:0:
230,11,24717,1,0,0:0:0:0:
230,11,24801,2,0,L|238:69,1,57.5,2|0,0:0|0:0,0:0:0:0:
373,150,24967,2,0,L|364:223,1,57.5,6|0,0:0|0:0,0:0:0:0:
263,269,25134,1,8,0:0:0:0:
53,135,25301,1,4,0:0:0:0:
53,135,25384,1,4,0:0:0:0:
53,135,25467,6,0,L|155:119,1,103.499996841431,4|0,0:0|0:0,0:0:0:0:
263,269,25801,1,8,0:0:0:0:
25,174,25967,2,0,B|9:48|9:48|74:-1,1,206.999993682861,4|0,0:0|0:0,0:0:0:0:
263,269,26467,1,8,0:0:0:0:
53,135,26634,2,0,P|119:115|192:166,1,155.249995262146,4|0,0:0|0:0,0:0:0:0:
220,191,26967,6,0,L|267:170,1,51.7499984207154,4|0,0:0|0:0,0:0:0:0:
368,49,27134,2,0,L|355:151,1,103.499996841431,8|4,0:0|0:0,0:0:0:0:
419,279,27384,1,0,0:0:0:0:
419,279,27467,6,0,B|471:239|471:239|454:130,1,172.500006580353,4|0,0:0|0:0,0:0:0:0:
345,0,27967,1,4,0:0:0:0:
327,17,28050,1,0,0:0:0:0:
319,40,28133,2,0,L|306:142,1,86.2500032901765,4|0,0:0|0:0,0:0:0:0:
388,252,28467,1,8,0:0:0:0:
203,336,28633,2,0,P|202:273|302:234,1,172.500006580353,4|0,0:0|0:0,0:0:0:0:
283,375,29133,6,0,P|254:376|229:364,1,57.5,8|0,0:0|0:0,0:0:0:0:
48,285,29300,1,0,0:0:0:0:
163,182,29466,1,4,0:0:0:0:
85,380,29633,1,0,0:0:0:0:
163,182,29800,2,0,L|169:244,1,57.5,8|0,0:0|0:0,0:0:0:0:
85,380,29966,2,0,L|79:322,1,57.5,4|0,0:0|0:0,0:0:0:0:
0,100,30133,5,8,0:0:0:0:
37,105,30216,1,8,0:0:0:0:
75,111,30299,1,4,0:0:0:0:
113,117,30383,2,0,P|168:72|84:49,1,172.5,4|0,0:0|0:0,0:0:0:0:
32,188,30716,5,0,1:0:0:0:
32,188,30800,2,0,B|66:184|66:184|95:201|95:201|138:196,1,103.499996841431,0|0,1:0|1:0,1:0:0:0:
336,240,31133,6,0,L|166:269,1,172.5,4|0,0:0|0:0,0:0:0:0:
122,357,31466,1,8,0:0:0:0:
416,236,31633,6,0,B|352:192|352:192|201:218,1,230,4|0,0:0|0:0,0:0:0:0:
90,334,32133,2,0,L|203:353,1,115,8|0,0:0|0:0,0:0:0:0:
291,384,32383,5,0,0:0:0:0:
322,367,32466,2,0,P|339:333|343:300,1,63.2500019302369,6|0,0:0|0:0,0:0:0:0:
221,166,32633,2,0,P|204:200|200:233,1,63.2500019302369,2|0,0:0|0:0,0:0:0:0:
421,337,32799,2,0,L|404:198,1,126.500003860474,10|0,0:0|0:0,0:0:0:0:
379,80,33049,5,0,0:0:0:0:
348,109,33133,2,0,L|271:122,1,63.2500019302369,2|0,0:0|0:0,0:0:0:0:
118,232,33299,2,0,L|195:245,1,63.2500019302369,6|0,0:0|0:0,0:0:0:0:
342,314,33466,1,10,0:0:0:0:
169,92,33633,1,4,0:0:0:0:
63,352,33799,6,0,L|189:328,1,115,4|0,0:0|0:0,0:0:0:0:
316,178,34133,1,8,0:0:0:0:
105,384,34299,2,0,B|72:237|72:237|137:191,1,230,4|0,0:0|0:0,0:0:0:0:
351,96,34799,2,0,P|290:96|243:44,1,115,8|0,0:0|0:0,0:0:0:0:
231,35,35049,1,0,0:0:0:0:
231,35,35132,6,0,L|233:4,1,31.6250009651184,6|0,0:0|0:0,0:0:0:0:
137,74,35299,2,0,L|139:43,1,31.6250009651184,2|0,0:0|0:0,0:0:0:0:
353,127,35466,6,0,L|351:96,1,31.6250009651184,10|0,0:0|0:0,0:0:0:0:
447,166,35633,2,0,L|445:135,1,31.6250009651184,2|0,0:0|0:0,0:0:0:0:
210,160,35799,6,0,L|212:129,1,31.6250009651184,2|0,0:0|0:0,0:0:0:0:
116,199,35965,2,0,L|118:168,1,31.6250009651184,6|0,0:0|0:0,0:0:0:0:
374,252,36132,6,0,L|372:221,1,31.6250009651184,10|0,0:0|0:0,0:0:0:0:
468,291,36299,2,0,L|466:260,1,31.6250009651184,6|0,0:0|0:0,0:0:0:0:
239,341,36466,6,0,P|212:291|225:236,1,115,4|0,0:0|0:0,0:0:0:0:
406,143,36799,1,8,0:0:0:0:
294,373,36966,2,0,B|279:333|279:333|186:303|186:303|148:333|153:385,1,230,4|0,0:0|0:0,0:0:0:0:
2,214,37466,2,0,L|116:199,1,115,8|0,0:0|0:0,0:0:0:0:
273,107,37716,5,0,0:0:0:0:
243,123,37799,2,0,L|180:114,1,63.2500019302369,6|0,0:0|0:0,0:0:0:0:
353,23,37966,2,0,L|415:31,1,63.2500019302369,2|0,0:0|0:0,0:0:0:0:
512,280,38132,2,0,P|479:229|418:220,1,126.500003860474,10|0,0:0|0:0,0:0:0:0:
372,285,38382,5,2,0:0:0:0:
295,260,38466,1,2,0:0:0:0:
294,179,38549,1,2,0:0:0:0:
370,153,38632,1,6,0:0:0:0:
294,373,38799,5,8,0:0:0:0:
180,80,38966,1,4,0:0:0:0:
168,114,39049,1,4,0:0:0:0:
156,148,39132,2,0,L|162:209,1,57.5,4|0,0:0|0:0,0:0:0:0:
300,245,39299,2,0,L|294:306,1,57.5
200,384,39466,1,8,0:0:0:0:
0,231,39632,2,0,B|39:202|81:218|81:218|133:233|163:204,1,172.5,4|0,0:0|0:0,0:0:0:0:
220,153,39966,6,0,P|181:130|142:132,1,63.2500019302369,2|0,0:0|0:0,0:0:0:0:
55,313,40132,2,0,L|130:301,1,63.2500019302369,10|0,0:0|0:0,0:0:0:0:
300,245,40299,1,6,0:0:0:0:
91,98,40466,2,0,L|241:74,1,126.500003860474,0|2,0:0|0:0,0:0:0:0:
382,10,40716,1,0,0:0:0:0:
345,25,40799,2,0,P|324:59|327:105,1,63.2500019302369,10|0,0:0|0:0,0:0:0:0:
387,176,40966,1,2,0:0:0:0:
234,307,41132,6,0,P|221:278|221:246,1,63.2500019302369,6|0,0:0|0:0,0:0:0:0:
387,176,41298,2,0,P|399:204|399:236,1,63.2500019302369,2|0,0:0|0:0,0:0:0:0:
257,382,41465,2,0,B|214:384|214:384|177:362|177:362|117:366,1,126.500003860474,2|4,0:0|0:0,0:0:0:0:
26,291,41715,1,0,0:0:0:0:
26,291,41798,2,0,L|89:286,1,63.2500019302369,6|0,0:0|0:0,0:0:0:0:
250,226,41965,2,0,L|186:221,1,63.2500019302369,10|0,0:0|0:0,0:0:0:0:
76,120,42132,1,10,0:0:0:0:
284,308,42298,6,0,B|329:283|329:283|340:180|340:180|297:150,1,206.999993682861,6|0,0:0|0:0,0:0:0:0:
461,39,42798,6,0,P|412:87|414:157,1,126.500003860474,8|0,0:0|0:0,0:0:0:0:
483,225,43048,1,0,0:0:0:0:
483,225,43132,2,0,L|417:231,1,63.2500019302369,6|0,0:0|0:0,0:0:0:0:
234,155,43298,2,0,L|297:150,1,63.2500019302369,2|0,0:0|0:0,0:0:0:0:
486,115,43465,1,10,0:0:0:0:
284,308,43632,5,0,0:0:0:0:
284,308,43715,1,4,0:0:0:0:
284,308,43798,2,0,L|221:302,1,63.2500019302369,10|0,0:0|0:0,0:0:0:0:
30,228,43965,2,0,L|92:222,1,63.2500019302369,6|0,0:0|0:0,0:0:0:0:
234,155,44132,5,2,1:2:0:0:
232,139,44215,1,0,1:0:0:0:
230,123,44298,2,0,L|236:97,18,14.375,0|0|0|0|0|0|0|0|0|0|0|0|0|0|0|0|0|0|0,1:0|1:0|1:0|1:0|1:0|1:0|1:0|1:0|1:0|1:0|1:0|1:0|1:0|1:0|1:0|1:0|1:0|1:0|1:0,1:0:0:0:
175,83,45131,6,0,B|236:76|236:76|266:22|266:22|333:14,1,184,6|4,0:0|0:0,0:0:0:0:
480,113,45631,2,0,L|388:102,1,92,2|4,0:0|0:0,0:0:0:0:
265,169,45965,1,2,0:0:0:0:
335,241,46131,2,0,L|426:230,1,92,4|0,0:0|0:0,0:0:0:0:
512,384,46465,6,0,P|473:326|353:333,1,184,6|4,0:0|0:0,0:0:0:0:
257,384,46965,2,0,L|267:288,1,92,2|4,0:0|0:0,0:0:0:0:
182,177,47298,1,2,0:0:0:0:
111,249,47465,2,0,L|120:340,1,92,4|0,0:0|0:0,0:0:0:0:
18,145,47798,6,0,B|119:131|119:131|135:106|135:106|186:99,1,184,6|4,0:0|0:0,0:0:0:0:
342,34,48298,2,0,L|250:21,1,92,2|4,0:0|0:0,0:0:0:0:
182,177,48631,1,2,0:0:0:0:
272,229,48798,2,0,L|363:216,1,92,4|0,0:0|0:0,0:0:0:0:
494,249,49131,6,0,P|514:205|508:150,1,92,6|0,0:0|0:0,0:0:0:0:
381,130,49465,2,0,P|360:173|366:228,1,92,4|0,0:0|0:0,0:0:0:0:
159,348,49798,6,0,P|138:304|144:249,1,92,4|0,0:0|0:0,0:0:0:0:
272,229,50131,2,0,P|292:272|286:327,1,92,6|2,0:0|0:0,0:0:0:0:
52,258,50465,6,0,P|101:185|189:189,1,184,6|4,0:0|0:0,0:0:0:0:
307,86,50965,2,0,L|209:70,1,92,2|4,0:0|0:0,0:0:0:0:
272,229,51298,1,0,0:0:0:0:
360,281,51465,2,0,L|458:265,1,92,6|0,0:0|0:0,0:0:0:0:
512,116,51798,1,6,0:0:0:0:
512,116,52354,5,4,0:0:0:0:
512,116,52465,2,0,P|466:125|434:121,1,61.3333333333333,6|0,0:0|0:0,0:0:0:0:
382,38,52687,2,0,P|336:29|304:33,1,61.3333333333333,6|0,0:0|0:0,0:0:0:0:
246,155,52909,1,6,0:0:0:0:
173,182,53020,1,0,0:0:0:0:
113,132,53131,6,0,B|104:48|178:28|178:28|194:90,1,184,6|4,0:0|0:0,0:0:0:0:
100,209,53631,2,0,L|3:193,1,92,2|4,0:0|0:0,0:0:0:0:
81,366,53965,1,0,0:0:0:0:
165,310,54131,2,0,L|262:294,1,92,6|0,0:0|0:0,0:0:0:0:
355,358,54465,1,4,0:0:0:0:
367,220,54798,6,0,L|355:358,1,138,8|0,0:0|0:0,0:0:0:0:
452,175,55131,1,0,0:0:0:0:
431,147,55214,1,0,0:0:0:0:
402,129,55297,1,0,0:0:0:0:
368,124,55381,1,0,0:0:0:0:
334,131,55465,2,0,L|336:153,6,23,8|0|0|0|0|0|0,0:0|0:0|0:0|0:0|0:0|0:0|0:0,0:0:0:0:
274,207,55798,6,0,L|206:195,1,63.2500019302369,6|0,0:0|0:0,0:0:0:0:
149,65,55965,2,0,L|81:77,1,63.2500019302369,2|0,0:0|0:0,0:0:0:0:
12,246,56131,1,10,0:0:0:0:
214,276,56298,6,0,B|132:291|132:291|66:236|66:236|12:246,1,224.24998973465,6|0,0:0|0:0,0:0:0:0:
42,328,56631,1,6,0:0:0:0:
216,104,56798,2,0,B|289:92|289:92|274:207,1,189.750005790711,10|0,0:0|0:0,0:0:0:0:
211,196,57131,6,0,L|274:207,1,63.2500019302369,6|0,0:0|0:0,0:0:0:0:
447,292,57298,2,0,L|384:302,1,63.2500019302369,2|0,0:0|0:0,0:0:0:0:
248,343,57465,1,10,0:0:0:0:
349,206,57631,6,0,B|344:265|298:294|241:275|241:275|221:310|248:343,1,224.24998973465,6|0,0:0|0:0,0:0:0:0:
319,383,57965,1,6,0:0:0:0:
464,233,58131,1,10,0:0:0:0:
262,182,58298,1,4,0:0:0:0:
474,107,58465,6,0,P|446:123|402:120,1,63.2500019302369,6|0,0:0|0:0,0:0:0:0:
329,37,58631,2,0,P|301:21|257:24,1,63.2500019302369,2|0,0:0|0:0,0:0:0:0:
197,141,58798,1,10,0:0:0:0:
337,198,58965,6,0,B|336:133|336:133|251:99|251:99|197:141,1,224.24998973465,6|0,0:0|0:0,0:0:0:0:
145,205,59298,1,6,0:0:0:0:
402,264,59465,2,0,L|210:285,1,189.750005790711,10|0,0:0|0:0,0:0:0:0:
78,250,59798,6,0,P|65:213|67:175,1,63.2500019302369,6|0,0:0|0:0,0:0:0:0:
211,155,59965,2,0,P|224:192|222:230,1,63.2500019302369,2|0,0:0|0:0,0:0:0:0:
62,286,60131,6,0,P|49:249|51:211,1,63.2500019302369,10|0,0:0|0:0,0:0:0:0:
241,175,60298,2,0,P|254:212|252:250,1,63.2500019302369,2|0,0:0|0:0,0:0:0:0:
86,365,60465,5,2,0:0:0:0:
52,359,60548,1,2,0:0:0:0:
18,353,60631,1,6,0:0:0:0:
155,104,60798,1,10,0:0:0:0:
345,349,60965,5,4,0:0:0:0:
361,272,61048,1,4,0:0:0:0:
377,195,61131,2,0,P|416:181|443:183,1,63.2500019302369,6|0,0:0|0:0,0:0:0:0:
345,349,61298,2,0,P|313:348|284:335,1,63.2500019302369,2|0,0:0|0:0,0:0:0:0:
193,209,61465,1,10,0:0:0:0:
361,272,61631,6,0,B|319:277|296:231|296:231|285:170|213:162|193:209,1,224.24998973465,6|0,0:0|0:0,0:0:0:0:
231,279,61965,1,2,0:0:0:0:
52,113,62131,2,0,L|245:88,1,189.750005790711,10|0,0:0|0:0,0:0:0:0:
426,23,62465,6,0,P|323:76|328:139,1,189.750005790711,6|0,0:0|0:0,0:0:0:0:
397,176,62798,2,0,L|441:169,3,42.1666679534912
499,298,63131,6,0,P|459:273|419:272,1,84.3333359069825,4|0,0:0|0:0,0:0:0:0:
337,373,63354,2,0,P|295:369|260:346,1,84.3333359069825,4|0,0:0|0:0,0:0:0:0:
171,215,63576,1,4,0:0:0:0:
84,195,63687,1,4,0:0:0:0:
23,259,63798,6,0,L|41:389,1,126.500003860474,6|2,0:0|0:0,0:0:0:0:
198,301,64131,1,8,0:0:0:0:
101,108,64298,6,0,P|7:155|22:259,1,224.24998973465,6|0,0:0|0:0,0:0:0:0:
124,311,64631,2,0,L|198:301,1,74.7499965782167,6|0,0:0|0:0,0:0:0:0:
378,243,64798,2,0,B|266:217|266:217|297:142,1,189.750005790711,10|0,0:0|0:0,0:0:0:0:
388,154,65131,5,6,0:0:0:0:
182,201,65298,1,2,0:0:0:0:
245,0,65465,1,2,0:0:0:0:
378,243,65631,1,0,0:0:0:0:
172,112,65798,5,4,0:0:0:0:
317,296,65965,1,6,0:0:0:0:
317,296,66048,1,4,0:0:0:0:
317,296,66131,2,0,P|341:315|371:324,1,63.2500019302369,2|0,0:0|0:0,0:0:0:0:
440,191,66298,2,0,P|415:171|385:162,1,63.2500019302369,2|0,0:0|0:0,0:0:0:0:
209,333,66465,6,0,B|201:212|201:212|240:231,1,155.249995262146,6|0,0:2|0:2,0:2:0:0:
309,175,66798,2,0,B|317:296|317:296|278:277,1,155.249995262146,2|0,0:2|0:2,0:2:0:0:
104,213,67131,5,2,0:2:0:0:
212,384,67298,2,0,L|209:333,1,51.7499984207154,2|0,0:2|0:2,0:2:0:0:
104,213,67465,1,2,0:2:0:0:
71,206,67548,1,0,0:2:0:0:
38,216,67631,2,0,L|41:267,1,51.7499984207154,0|0,0:2|0:2,0:2:0:0:
82,368,67798,6,0,P|114:371|142:361,1,51.7499984207154,2|0,0:2|0:2,0:2:0:0:
238,264,67965,2,0,P|212:258|187:261,1,51.7499984207154,2|0,0:2|0:2,0:2:0:0:
304,373,68131,2,0,B|334:269|334:269|312:206,1,155.249995262146,2|0,0:2|0:2,0:2:0:0:
244,174,68465,2,0,P|271:117|311:107,1,103.499996841431,2|0,0:2|0:2,0:2:0:0:
127,30,68798,6,0,L|136:113,2,68.9999978942872,0|0|0,0:2|0:2|0:2,0:2:0:0:
15,204,69131,6,0,P|62:176|126:182,1,103.499996841431,2|0,0:2|0:2,0:2:0:0:
146,183,69381,1,0,0:2:0:0:
175,158,69465,1,0,0:2:0:0:
177,196,69548,1,0,0:2:0:0:
198,228,69631,1,0,0:2:0:0:
232,245,69714,1,0,0:2:0:0:
271,243,69798,5,2,0:2:0:0:
272,230,69881,1,0,0:2:0:0:
274,218,69964,1,0,0:2:0:0:
275,205,70047,1,0,0:2:0:0:
277,192,70131,1,2,0:2:0:0:
278,179,70214,1,0,0:2:0:0:
280,166,70297,1,0,0:2:0:0:
281,153,70381,1,0,0:2:0:0:
283,141,70465,6,0,L|278:85,1,51.7499984207154,2|0,0:2|0:2,0:2:0:0:
390,24,70631,2,0,L|385:75,1,51.7499984207154,2|0,0:2|0:2,0:2:0:0:
357,204,70798,2,0,P|399:153|459:159,1,103.499996841431,2|0,0:2|0:2,0:2:0:0:
497,212,71048,1,0,0:2:0:0:
467,231,71131,6,0,L|411:217,1,45.9999985961914,2|0,0:2|0:2,0:2:0:0:
355,321,71354,6,0,L|299:335,1,45.9999985961914,2|0,0:2|0:2,0:2:0:0:
243,231,71576,6,0,L|187:217,1,45.9999985961914,2|0,0:2|0:2,0:2:0:0:
74,361,71798,6,0,P|61:328|62:294,1,51.7499984207154,2|0,0:2|0:2,0:2:0:0:
139,257,71965,2,0,P|152:290|151:324,1,51.7499984207154,2|0,0:2|0:2,0:2:0:0:
0,257,72131,1,2,0:2:0:0:
4,218,72215,1,0,0:2:0:0:
27,188,72297,1,0,0:2:0:0:
62,173,72381,1,0,0:2:0:0:
100,178,72465,5,2,0:2:0:0:
98,158,72548,1,0,0:2:0:0:
96,139,72631,1,0,0:2:0:0:
93,120,72714,1,0,0:2:0:0:
91,101,72798,1,2,0:2:0:0:
89,81,72881,1,0,0:2:0:0:
86,62,72964,1,0,0:2:0:0:
84,43,73048,1,0,0:2:0:0:
82,24,73131,6,0,L|186:39,1,68.9999978942872,0|0,0:2|0:2,0:2:0:0:
219,107,73354,6,0,L|323:92,1,68.9999978942872,0|0,0:2|0:2,0:2:0:0:
378,7,73548,5,0,0:2:0:0:
382,18,73631,1,0,0:2:0:0:
386,29,73715,2,0,P|393:58|391:88,1,51.7499984207154,2|0,0:2|0:2,0:2:0:0:
480,108,73881,1,0,0:2:0:0:
476,119,73965,2,0,P|469:148|471:178,1,51.7499984207154,2|0,0:2|0:2,0:2:0:0:
352,205,74131,1,0,0:2:0:0:
356,216,74215,2,0,P|363:237|363:258,4,34.4999989471436,2|0|0|0|0,0:2|0:2|0:2|0:2|0:2,0:2:0:0:
441,316,74465,6,0,P|390:284|331:289,1,103.499996841431,0|0,0:2|0:2,0:2:0:0:
292,324,74715,2,0,L|296:355,6,25.8749992103577,0|0|0|0|0|0|0,0:2|0:2|0:2|0:2|0:2|0:2|0:2,0:2:0:0:
184,382,75048,1,2,0:2:0:0:
171,348,75131,2,0,L|182:280,1,51.7499984207154,2|0,0:2|0:2,0:2:0:0:
211,258,75298,6,0,L|205:224,4,21.5625008225441,2|0|0|0|0,0:2|0:2|0:2|0:2|0:2,0:2:0:0:
135,194,75465,6,0,P|198:196|236:154,1,103.499996841431,2|0,0:2|0:2,0:2:0:0:
265,95,75715,1,0,0:2:0:0:
245,59,75798,6,0,L|182:65,1,51.7499984207154,2|0,0:2|0:2,0:2:0:0:
301,170,75965,2,0,L|364:176,1,51.7499984207154,2|0,0:2|0:2,0:2:0:0:
384,46,76131,2,0,L|333:51,1,51.7499984207154,2|0,0:2|0:2,0:2:0:0:
441,183,76298,2,0,L|504:189,1,51.7499984207154,2|0,0:2|0:2,0:2:0:0:
512,297,76465,5,2,0:2:0:0:
468,271,76548,1,2,0:2:0:0:
417,274,76631,1,2,0:2:0:0:
376,304,76714,1,2,0:2:0:0:
360,353,76798,2,0,L|365:382,6,25.8749992103577,2|0|0|0|0|0|0,0:2|0:2|0:2|0:2|0:2|0:2|0:2,0:2:0:0:
339,338,77131,6,0,B|316:303|316:303|217:288|217:288|182:380,1,206.999993682861,4|0,0:0|0:0,0:0:0:0:
33,276,77465,2,0,P|101:271|130:242,1,103.499996841431,8|0,0:0|0:0,0:0:0:0:
164,149,77715,1,0,0:0:0:0:
125,164,77798,6,0,B|83:164|59:194|59:194|21:121|72:68,1,206.999993682861,4|0,0:0|0:0,0:0:0:0:
151,18,78131,5,2,0:0:0:0:
232,35,78243,1,2,0:0:0:0:
313,52,78354,1,2,0:0:0:0:
358,121,78465,6,0,P|392:84|397:42,1,76.6666666666667,4|0,0:0|0:0,0:0:0:0:
216,61,78687,2,0,L|231:161,1,76.6666666666667,4|0,0:0|0:0,0:0:0:0:
402,183,78909,6,0,P|449:167|475:134,1,76.6666666666667,4|0,0:0|0:0,0:0:0:0:
205,148,79131,2,0,L|220:248,1,76.6666666666667,4|0,0:0|0:0,0:0:0:0:
409,258,79354,6,0,P|458:268|496:252,1,76.6666666666667,4|0,0:0|0:0,0:0:0:0:
194,235,79576,2,0,B|203:295|203:295|123:344|123:344|35:308|35:308|39:246,1,306.666666666667,4|0,0:0|0:0,0:0:0:0:
141,168,80131,5,8,0:0:0:0:
193,146,80214,1,0,0:0:0:0:
247,164,80297,1,0,0:0:0:0:
277,211,80380,1,0,0:0:0:0:
314,255,80465,5,8,0:0:0:0:
370,257,80548,1,0,0:0:0:0:
416,225,80631,1,0,0:0:0:0:
432,171,80715,2,0,B|397:20|397:20|334:77,1,230,4|0,0:0|0:0,0:0:0:0:
341,70,81131,1,2,0:0:0:0:
256,192,91631,12,8,94465,0:0:0:0:
274,170,94631,5,4,0:0:0:0:
470,217,94965,1,0,0:0:0:0:
470,217,95048,1,0,0:0:0:0:
470,217,95131,2,0,P|386:245|373:292,1,129.375004935265,4|0,0:0|0:0,0:0:0:0:
399,349,95465,6,0,P|359:353|320:333,1,68.9999978942872,6|0,0:0|0:0,0:0:0:0:
245,230,95631,2,0,P|205:226|166:246,1,68.9999978942872,2|0,0:0|0:0,0:0:0:0:
104,372,95798,1,10,0:0:0:0:
347,182,95965,6,0,B|246:158|246:158|178:236,1,206.999993682861,6|0,0:0|0:0,0:0:0:0:
104,372,96298,2,0,L|95:291,1,68.9999978942872
0,124,96465,5,10,0:0:0:0:
23,127,96548,1,0,0:0:0:0:
46,131,96631,1,0,0:0:0:0:
70,134,96715,1,0,0:0:0:0:
93,138,96798,2,0,L|163:129,1,68.9999978942872,6|0,0:0|0:0,0:0:0:0:
335,40,96965,2,0,L|265:31,1,68.9999978942872,2|0,0:0|0:0,0:0:0:0:
156,213,97131,2,0,L|226:204,1,68.9999978942872,10|0,0:0|0:0,0:0:0:0:
488,98,97298,5,2,0:0:0:0:
439,81,97381,1,0,0:0:0:0:
390,94,97464,1,0,0:0:0:0:
355,132,97547,1,0,0:0:0:0:
347,182,97631,2,0,P|351:222|369:254,1,68.9999978942872,6|0,0:0|0:0,0:0:0:0:
512,340,97798,2,0,P|475:323|438:323,1,68.9999978942872,10|0,0:0|0:0,0:0:0:0:
316,377,97965,2,0,P|281:373|251:358,1,68.9999978942872,4|0,0:0|0:0,0:0:0:0:
161,185,98131,5,6,0:0:0:0:
128,366,98298,1,0,0:0:0:0:
301,304,98465,2,0,B|270:282|270:282|231:287,1,68.9999978942872,10|0,0:0|0:0,0:0:0:0:
66,347,98631,2,0,B|97:369|97:369|128:366,1,68.9999978942872,6|0,0:0|0:0,0:0:0:0:
419,250,98798,6,0,B|381:300|329:268|329:268|278:235|238:287,1,206.999993682861,2|0,0:0|0:0,0:0:0:0:
356,361,99131,5,10,0:0:0:0:
376,357,99215,1,0,0:0:0:0:
396,353,99298,1,0,0:0:0:0:
416,349,99381,1,0,0:0:0:0:
436,345,99465,6,0,P|472:318|484:297,1,68.9999978942872,6|0,0:0|0:0,0:0:0:0:
299,130,99631,2,0,L|309:210,1,68.9999978942872,2|0,0:0|0:0,0:0:0:0:
288,374,99798,2,0,L|356:361,1,68.9999978942872,10|0,0:0|0:0,0:0:0:0:
508,212,99965,2,0,L|440:198,1,68.9999978942872,2|0,0:0|0:0,0:0:0:0:
165,121,100131,5,2,0:0:0:0:
215,116,100214,1,0,0:0:0:0:
242,75,100298,2,0,L|233:6,1,68.9999978942872,4|0,0:0|0:0,0:0:0:0:
394,72,100465,2,0,L|385:140,1,68.9999978942872,10|0,0:0|0:0,0:0:0:0:
173,189,100631,2,0,L|165:121,1,68.9999978942872,6|0,0:0|0:0,0:0:0:0:
440,198,100798,5,6,0:0:0:0:
234,307,100965,1,0,0:0:0:0:
242,75,101131,2,0,L|315:87,1,68.9999978942872,10|0,0:0|0:0,0:0:0:0:
440,198,101298,2,0,L|367:210,1,68.9999978942872,6|0,0:0|0:0,0:0:0:0:
156,337,101465,6,0,P|169:258|283:242,1,206.999993682861,2|0,0:0|0:0,0:0:0:0:
414,353,101798,5,10,0:0:0:0:
410,326,101881,1,0,0:0:0:0:
406,300,101965,1,0,0:0:0:0:
404,273,102048,1,0,0:0:0:0:
400,248,102131,2,0,P|418:209|457:197,1,68.9999978942872,6|0,0:0|0:0,0:0:0:0:
418,379,102298,2,0,L|342:369,1,68.9999978942872,2|0,0:0|0:0,0:0:0:0:
211,249,102465,2,0,L|287:239,1,68.9999978942872,10|0,0:0|0:0,0:0:0:0:
512,113,102631,5,0,0:0:0:0:
463,129,102714,1,0,0:0:0:0:
415,115,102797,1,0,0:0:0:0:
383,75,102880,1,0,0:0:0:0:
380,24,102964,2,0,L|449:15,1,68.9999978942872,6|0,0:0|0:0,0:0:0:0:
328,168,103131,2,0,L|258:159,1,68.9999978942872,10|0,0:0|0:0,0:0:0:0:
172,40,103298,5,4,0:0:0:0:
174,20,103381,1,4,0:0:0:0:
176,0,103464,1,6,0:0:0:0:
106,215,103631,1,0,0:0:0:0:
328,168,103798,6,0,P|292:147|254:144,1,68.9999978942872,10|0,0:0|0:0,0:0:0:0:
106,215,103964,2,0,P|142:236|180:239,1,68.9999978942872,6|0,0:0|0:0,0:0:0:0:
385,277,104131,1,2,0:0:0:0:
249,380,104298,2,0,B|241:331|241:331|257:317|257:317|248:250,1,137.999995788574,0|10,0:0|0:0,0:0:0:0:
397,40,104631,5,4,0:0:0:0:
413,68,104714,1,0,0:0:0:0:
429,96,104798,2,0,L|420:164,1,68.9999978942872,2|0,0:0|0:0,0:0:0:0:
257,318,104964,2,0,L|249:250,1,68.9999978942872,2|0,0:0|0:0,0:0:0:0:
137,127,105131,2,0,P|180:74|277:83,1,137.999995788574,10|0,0:0|0:0,0:0:0:0:
353,157,105381,1,0,0:0:0:0:
323,183,105464,6,0,L|237:168,1,68.9999978942872,6|0,0:0|0:0,0:0:0:0:
112,287,105630,2,0,L|180:275,1,68.9999978942872,2|0,0:0|0:0,0:0:0:0:
367,324,105797,1,10,0:0:0:0:
53,350,105964,5,4,0:0:0:0:
53,350,106047,1,0,0:0:0:0:
53,350,106130,2,0,P|32:306|37:266,1,68.9999978942872,6|0,0:0|0:0,0:0:0:0:
164,144,106297,2,0,P|185:188|180:228,1,68.9999978942872,2|0,0:0|0:0,0:0:0:0:
125,384,106464,5,10,0:0:0:0:
0,187,106630,2,0,L|39:180,8,34.4999989471436,0|0|0|0|0|0|0|0|0,1:0|1:0|1:0|1:0|1:0|1:0|1:0|1:0|1:0,1:0:0:0:
273,18,107130,6,0,B|238:56|238:56|252:141,1,137.999995788574,10|0,0:0|0:0,0:0:0:0:
392,213,107380,1,0,0:0:0:0:
424,186,107464,2,0,L|435:117,1,68.9999978942872,6|0,0:0|0:0,0:0:0:0:
195,206,107630,2,0,L|206:274,1,68.9999978942872,2|0,0:0|0:0,0:0:0:0:
412,348,107797,6,0,B|367:340|367:340|328:364|328:364|273:354,1,137.999995788574,10|0,0:0|0:0,0:0:0:0:
241,316,108047,1,4,0:0:0:0:
202,354,108130,1,10,0:0:0:0:
148,362,108213,1,6,0:0:0:0:
100,338,108296,1,6,0:0:0:0:
74,290,108380,1,6,0:0:0:0:
82,236,108464,2,0,B|88:167|88:167|118:143|118:143|126:38,1,206.999993682861,10|0,0:0|0:0,0:0:0:0:
41,67,108797,6,0,L|44:112,14,34.4999989471436,0|0|0|0|0|0|0|0|0|0|0|0|0|0|0,1:0|1:0|1:0|1:0|1:0|1:0|1:0|1:0|1:0|1:0|1:0|1:0|1:0|1:0|1:0,1:0:0:0:
162,210,109464,6,0,P|251:215|302:102,1,206.999993682861,4|0,0:0|0:0,0:0:0:0:
257,31,109797,1,8,0:0:0:0:
147,237,109964,6,0,P|254:243|316:106,1,275.999991577149,4|0,0:0|0:0,0:0:0:0:
140,7,110464,2,0,B|111:56|111:56|126:143,1,137.999995788574,8|0,0:0|0:0,0:0:0:0:
165,166,110714,5,0,0:0:0:0:
165,166,110797,2,0,L|241:154,1,74.7499965782167,6|0,0:0|0:0,0:0:0:0:
449,68,110964,2,0,L|373:56,1,74.7499965782167,2|0,0:0|0:0,0:0:0:0:
300,0,111130,2,0,B|288:73|288:73|327:137|327:137|315:213,1,224.24998973465,10|0,0:0|0:0,0:0:0:0:
482,160,111464,6,0,L|408:146,1,74.7499965782167,2|0,0:0|0:0,0:0:0:0:
132,258,111630,2,0,L|215:243,1,74.7499965782167,6|0,0:0|0:0,0:0:0:0:
480,251,111797,1,10,0:0:0:0:
210,376,111964,1,4,0:0:0:0:
272,122,112130,6,0,L|408:147,1,137.999995788574,4|0,0:0|0:0,0:0:0:0:
497,338,112464,1,8,0:0:0:0:
312,42,112630,2,0,P|199:72|230:202,1,275.999991577149,4|0,0:0|0:0,0:0:0:0:
294,290,113047,1,0,0:0:0:0:
270,248,113130,1,8,0:0:0:0:
229,223,113213,1,0,0:0:0:0:
182,220,113296,1,0,0:0:0:0:
138,240,113380,1,0,0:0:0:0:
92,231,113463,6,0,L|102:151,1,74.7499965782167,6|0,0:0|0:0,0:0:0:0:
205,305,113630,2,0,L|195:379,1,74.7499965782167,2|0,0:0|0:0,0:0:0:0:
5,191,113797,1,10,0:0:0:0:
120,384,113963,1,0,0:0:0:0:
299,153,114130,5,2,0:0:0:0:
269,180,114213,1,0,0:0:0:0:
229,188,114297,2,0,L|149:171,1,74.7499965782167,6|0,0:0|0:0,0:0:0:0:
17,337,114463,1,10,0:0:0:0:
233,106,114630,1,4,0:0:0:0:
411,291,114797,6,0,B|356:285|356:285|312:259|312:259|271:254,1,137.999995788574,4|0,0:0|0:0,0:0:0:0:
58,141,115130,1,8,0:0:0:0:
120,384,115297,2,0,B|184:335|184:335|173:130,1,275.999991577149,4|0,0:0|0:0,0:0:0:0:
371,10,115797,2,0,P|315:43|306:121,1,137.999995788574,8|0,0:0|0:0,0:0:0:0:
370,176,116047,5,0,0:0:0:0:
370,176,116130,2,0,L|456:161,1,74.7499965782167,6|0,0:0|0:0,0:0:0:0:
337,343,116297,2,0,L|251:328,1,74.7499965782167,2|0,0:0|0:0,0:0:0:0:
25,249,116463,2,0,B|68:261|94:236|94:236|122:210|165:225,1,149.499993156433,10|0,0:0|0:0,0:0:0:0:
242,261,116713,5,2,0:0:0:0:
300,198,116797,1,2,0:0:0:0:
258,123,116880,1,2,0:0:0:0:
173,139,116963,1,6,0:0:0:0:
252,384,117130,5,10,0:0:0:0:
447,107,117297,1,4,0:0:0:0:
458,143,117380,1,0,0:0:0:0:
469,179,117463,2,0,L|460:252,1,68.9999978942872,4|0,0:0|0:0,0:0:0:0:
252,384,117630,2,0,L|243:315,1,68.9999978942872
339,82,117797,1,8,0:0:0:0:
493,320,117963,2,0,B|437:345|400:299|400:299|366:244|299:271,1,206.999993682861,4|0,0:0|0:0,0:0:0:0:
244,316,118297,6,0,L|234:241,1,74.7499965782167,2|0,0:0|0:0,0:0:0:0:
478,104,118463,2,0,L|469:179,1,74.7499965782167,10|0,0:0|0:0,0:0:0:0:
320,378,118630,1,6,0:0:0:0:
26,244,118797,6,0,P|87:187|172:197,1,149.499993156433,0|2,0:0|0:0,0:0:0:0:
235,242,119047,1,0,0:0:0:0:
235,242,119130,2,0,L|225:167,1,74.7499965782167,10|0,0:0|0:0,0:0:0:0:
115,35,119297,1,2,0:0:0:0:
0,319,119463,6,0,P|34:341|82:343,1,74.7499965782167,6|0,0:0|0:0,0:0:0:0:
302,268,119629,2,0,P|271:247|235:242,1,74.7499965782167,2|0,0:0|0:0,0:0:0:0:
158,367,119796,2,0,B|163:317|163:317|138:273|138:273|145:206,1,149.499993156433,2|4,0:0|0:0,0:0:0:0:
210,107,120046,1,0,0:0:0:0:
210,107,120129,2,0,P|261:93|297:101,1,74.7499965782167,6|0,0:0|0:0,0:0:0:0:
489,167,120296,2,0,P|438:181|402:173,1,74.7499965782167,2|0,0:0|0:0,0:0:0:0:
325,10,120463,1,10,0:0:0:0:
236,317,120629,6,0,B|225:299|235:274|235:274|229:246|229:246|251:245|251:245|278:219|311:223|311:223|331:215|331:215|339:232|339:232|358:242|369:273,1,253.000007720947,6|0,0:0|0:0,0:0:0:0:
158,368,121129,6,0,B|136:277|136:277|160:220,1,149.499993156433,8|0,0:0|0:0,0:0:0:0:
276,132,121379,1,0,0:0:0:0:
276,132,121463,2,0,P|238:108|194:111,1,74.7499965782167,6|0,0:0|0:0,0:0:0:0:
0,210,121629,2,0,P|38:234|82:231,1,74.7499965782167,2|0,0:0|0:0,0:0:0:0:
153,29,121796,1,10,0:0:0:0:
346,244,121963,5,0,0:0:0:0:
346,244,122046,1,4,0:0:0:0:
346,244,122129,2,0,L|360:165,1,74.7499965782167,10|4,0:0|0:0,0:0:0:0:
153,29,122296,2,0,L|166:102,1,74.7499965782167,6|4,0:0|0:0,0:0:0:0:
307,343,122463,5,2,0:0:0:0:
330,340,122546,1,0,0:0:0:0:
353,337,122629,2,0,L|387:352,20,37.3749982891084,0|0|0|0|0|0|0|0|0|0|0|0|0|0|0|0|0|0|0|0|4,1:0|1:0|1:0|1:0|1:0|1:0|1:0|1:0|1:0|1:0|1:0|1:0|1:0|1:0|1:0|1:0|1:0|1:0|1:0|1:0|1:0,1:0:0:0:
256,192,123546,12,0,124796,0:0:0:0:
